osu file format v14

[General]
AudioFilename: Lost Love.mp3
AudioLeadIn: 0
PreviewTime: 43665
Countdown: 0
SampleSet: Normal
StackLeniency: 0.7
Mode: 0
LetterboxInBreaks: 1
WidescreenStoryboard: 0

[Editor]
Bookmarks: 31493
DistanceSpacing: 1.2
BeatDivisor: 4
GridSize: 4
TimelineZoom: 3.199999

[Metadata]
Title:Lost Love
TitleUnicode:Lost Love
Artist:ETIA.
ArtistUnicode:ETIA.
Creator:JJburstOwO
Version:Easy
Source:
Tags:レク Reku Dazzlin’ Drizzle LLMR-002 Lilium Records Meconopsis z1085684963
BeatmapID:764074
BeatmapSetID:341933

[Difficulty]
HPDrainRate:2
CircleSize:3
OverallDifficulty:3
ApproachRate:4
SliderMultiplier:0.649999999999999
SliderTickRate:1

[Events]
//Background and Video events
0,0,"bg.jpg",0,0
//Break Periods
2,86189,95048
2,106737,115805
2,169007,178075
//Storyboard Layer 0 (Background)
//Storyboard Layer 1 (Fail)
//Storyboard Layer 2 (Pass)
//Storyboard Layer 3 (Foreground)
//Storyboard Sound Samples

[TimingPoints]
1666,324.324324324324,4,2,1,25,1,0
22422,-100,4,1,1,40,0,0
44476,-100,4,1,1,50,0,1
65152,-100,4,1,1,50,0,0
65557,-100,4,1,1,50,0,1
85665,-100,4,1,1,50,0,0
96368,-100,4,1,1,45,0,0
117125,-100,4,1,1,40,0,0
127503,-100,4,1,1,45,0,0
148260,-100,4,1,1,40,0,0
163828,-100,4,1,1,45,0,0
179395,-100,4,1,1,40,0,0
187179,-100,4,1,1,45,0,0
190098,-100,4,1,1,50,0,1
210206,-100,4,1,1,50,0,0
210611,-100,4,2,1,5,0,0

[Colours]
Combo1 : 141,148,224
Combo2 : 196,201,202
Combo3 : 245,174,249

[HitObjects]
176,80,22422,6,0,P|150:135|176:196,1,130,4|8,0:0|0:0,0:0:0:0:
336,195,23720,2,0,P|362:137|336:80,1,130
256,216,25017,6,0,B|248:256|248:256|264:300|264:300|256:344,1,130,4|8,0:0|0:0,0:0:0:0:
148,228,26314,2,0,P|84:224|40:268,1,130,0|0,0:0|0:0,0:0:0:0:
192,308,27611,6,0,L|324:292,1,130,4|8,0:0|0:0,0:0:0:0:
468,348,28909,2,0,P|492:288|464:232,1,130,0|0,0:0|0:0,0:0:0:0:
356,124,30206,6,0,P|328:67|352:8,1,130,4|8,3:0|0:0,0:0:0:0:
244,120,31503,2,0,P|268:178|240:235,1,130,0|4,0:0|3:0,0:0:0:0:
164,256,32476,1,4,3:0:0:0:
100,212,32801,6,0,P|64:192|8:196,2,97.4999999999999,4|4|4,0:0|3:0|3:0,0:0:0:0:
44,267,34098,2,0,P|36:304|40:332,1,64.9999999999999,0|0,0:0|0:0,0:0:0:0:
100,380,34747,2,0,L|172:376,1,64.9999999999999,4|4,3:0|3:0,0:0:0:0:
232,332,35395,6,0,B|228:300|228:300|236:272|236:272|232:236,2,97.4999999999999,4|4|4,3:0|3:0|3:0,0:0:0:0:
300,372,36693,2,0,L|364:375,1,64.9999999999999,0|0,0:0|0:0,0:0:0:0:
376,300,37341,2,0,L|311:296,1,64.9999999999999,4|4,3:0|3:0,0:0:0:0:
320,220,37990,6,0,P|356:188|364:140,2,97.4999999999999,4|4|4,3:0|3:0|3:0,0:0:0:0:
287,148,39287,2,0,P|252:136|224:136,1,64.9999999999999,0|0,0:0|0:0,0:0:0:0:
180,200,39936,2,0,P|215:212|243:212,1,64.9999999999999,4|4,3:0|3:0,0:0:0:0:
280,280,40584,6,0,B|276:328|276:328|272:352|248:368,1,97.4999999999999,4|4,3:0|3:0,0:0:0:0:
160,292,41557,2,0,P|112:276|68:288,2,97.4999999999999,4|4|4,3:0|3:0|3:0,0:0:0:0:
112,356,42855,1,4,3:0:0:0:
276,212,44476,6,0,L|344:208,1,64.9999999999999,4|8,0:0|0:0,0:0:0:0:
404,160,45125,2,0,P|412:132|408:96,1,64.9999999999999,0|0,0:0|0:0,0:0:0:0:
360,32,45774,2,0,P|316:52|268:40,2,97.4999999999999,0|0|8,0:0|0:0|0:0,0:0:0:0:
408,96,47071,6,0,L|404:168,1,64.9999999999999,4|8,3:0|0:0,0:0:0:0:
364,228,47720,2,0,P|396:240|428:236,1,64.9999999999999,0|0,0:0|0:0,0:0:0:0:
500,208,48368,2,0,B|504:240|504:240|496:272|496:272|500:304,2,97.4999999999999,0|0|8,0:0|0:0|0:0,0:0:0:0:
456,144,49665,6,0,P|404:108|340:120,1,130,4|0,3:0|0:0,0:0:0:0:
216,216,50963,2,0,B|184:220|184:220|152:216|152:216|120:220,2,97.4999999999999,0|0|8,0:0|0:0|0:0,0:0:0:0:
276,265,52260,5,4,3:0:0:0:
336,314,52584,2,0,B|368:310|368:310|400:314|400:314|432:310,1,97.4999999999999,8|4,0:0|3:0,0:0:0:0:
492,260,53395,2,0,P|512:212|500:168,1,97.4999999999999,8|8,0:0|0:0,0:0:0:0:
440,120,54206,1,4,3:0:0:0:
288,88,54855,6,0,L|280:152,1,64.9999999999999,4|8,0:0|0:0,0:0:0:0:
208,180,55503,2,0,L|200:244,1,64.9999999999999,0|0,0:0|0:0,0:0:0:0:
232,316,56152,2,0,B|264:320|264:320|296:316|296:316|328:320,2,97.4999999999999,0|0|8,0:0|0:0|0:0,0:0:0:0:
156,312,57449,6,0,L|148:248,1,64.9999999999999,4|8,3:0|0:0,0:0:0:0:
80,212,58098,2,0,L|72:148,1,64.9999999999999,0|0,0:0|0:0,0:0:0:0:
107,77,58747,2,0,B|75:73|75:73|43:77|43:77|11:73,2,97.4999999999999,0|0|8,0:0|0:0|0:0,0:0:0:0:
168,28,60044,6,0,P|232:52|284:24,1,130,4|0,3:0|0:0,0:0:0:0:
360,44,61017,1,0,0:0:0:0:
436,62,61341,2,0,L|432:160,2,97.4999999999999,0|0|8,0:0|0:0|0:0,0:0:0:0:
360,44,62638,6,0,B|328:40|328:40|296:48|296:48|264:44,1,97.4999999999999,8|8,0:0|0:0,0:0:0:0:
212,148,63611,2,0,B|244:152|244:152|276:144|276:144|308:148,1,97.4999999999999,4|4,3:0|3:0,0:0:0:0:
392,228,64584,2,0,P|408:280|364:332,1,113.75,4|4,3:0|3:0,0:0:0:0:
288,364,65557,6,0,B|256:356|224:368|224:368|156:360,1,130,4|0,0:0|0:0,0:0:0:0:
100,308,66530,2,0,L|92:208,2,97.4999999999999,0|0|8,0:0|0:0|0:0,0:0:0:0:
44,365,67828,6,0,P|100:336|159:360,1,130,4|0,3:0|0:0,0:0:0:0:
228,324,68801,1,0,0:0:0:0:
292,280,69125,2,0,B|324:284|324:284|356:276|356:276|388:283,2,97.4999999999999,0|0|8,0:0|0:0|0:0,0:0:0:0:
260,208,70422,6,0,P|237:150|272:80,1,130,4|0,3:0|0:0,0:0:0:0:
412,148,71720,2,0,B|380:160|380:160|316:148,2,97.4999999999999,0|0|8,0:0|0:0|0:0,0:0:0:0:
480,112,73017,5,4,3:0:0:0:
479,189,73341,2,0,L|491:289,1,97.4999999999999,8|4,0:0|3:0,0:0:0:0:
448,352,74152,2,0,B|416:348|416:348|384:356|384:356|352:352,1,97.4999999999999,8|8,0:0|0:0,0:0:0:0:
278,377,74963,2,0,P|274:345|286:309,1,64.9999999999999,4|8,3:0|0:0,0:0:0:0:
317,243,75611,6,0,P|257:264|197:243,1,130,4|0,0:0|0:0,0:0:0:0:
148,180,76584,1,0,0:0:0:0:
192,115,76909,2,0,B|188:83|188:83|196:51|196:51|192:19,2,97.4999999999999,0|0|8,0:0|0:0|0:0,0:0:0:0:
268,133,78206,6,0,L|332:129,1,64.9999999999999,4|8,3:0|0:0,0:0:0:0:
370,60,78855,2,0,L|434:56,1,64.9999999999999,0|0,0:0|0:0,0:0:0:0:
494,105,79503,2,0,P|510:153|494:201,2,97.4999999999999,0|0|8,0:0|0:0|0:0,0:0:0:0:
431,152,80801,6,0,P|397:143|367:148,1,64.9999999999999,4|8,3:0|0:0,0:0:0:0:
300,187,81449,2,0,P|276:211|264:240,1,64.9999999999999,4|8,3:0|0:0,0:0:0:0:
248,316,82098,1,4,3:0:0:0:
200,168,82747,1,4,3:0:0:0:
340,96,83395,5,4,3:0:0:0:
400,148,83720,2,0,B|432:144|432:144|464:152|464:152|496:148,1,97.4999999999999,8|8,0:0|0:0,0:0:0:0:
428,244,84693,2,0,B|396:248|396:248|364:240|364:240|332:244,1,97.4999999999999,8|8,0:0|0:0,0:0:0:0:
400,148,85665,2,0,P|408:116|400:84,1,64.9999999999999,2|4,0:0|1:0,0:0:0:0:
208,236,96368,6,0,L|212:304,1,64.9999999999999,4|2,3:0|0:0,0:0:0:0:
285,326,97017,2,0,L|274:189,1,130,4|8,3:0|0:0,0:0:0:0:
318,132,97990,1,8,0:0:0:0:
390,160,98314,2,0,P|436:172|484:160,1,97.4999999999999,4|2,3:0|0:0,0:0:0:0:
437,52,99287,5,4,0:0:0:0:
360,72,99611,2,0,L|292:68,1,64.9999999999999,0|8,0:0|0:0,0:0:0:0:
256,136,100260,2,0,P|236:192|256:257,2,130,4|0|4,3:0|0:0|0:0,0:0:0:0:
400,200,102206,5,4,3:0:0:0:
256,257,102855,1,4,3:0:0:0:
112,200,103503,2,0,L|112:264,1,64.9999999999999,4|4,3:0|3:0,0:0:0:0:
112,344,104152,2,0,B|152:336|152:336|196:348|196:348|240:340,2,130,4|4|4,3:0|3:0|0:0,0:0:0:0:
104,96,117125,6,0,P|164:128|220:108,1,130,4|8,3:0|0:0,0:0:0:0:
332,216,118422,2,0,P|272:184|216:204,1,130,4|8,3:0|0:0,0:0:0:0:
140,340,119720,5,4,3:0:0:0:
444,268,121017,2,0,B|440:220|440:220|448:188|448:188|444:140,2,130,4|8|4,3:0|0:0|3:0,0:0:0:0:
212,60,123611,5,4,3:0:0:0:
100,352,124909,6,0,P|164:368|208:328,1,130,4|8,3:0|0:0,0:0:0:0:
284,308,125882,2,0,L|280:244,1,64.9999999999999,4|8,3:0|0:0,0:0:0:0:
404,44,127179,2,0,L|400:108,1,64.9999999999999,2|4,0:0|0:0,0:0:0:0:
372,264,128152,6,0,P|312:236|256:260,1,130,8|4,0:0|3:0,0:0:0:0:
140,152,129449,2,0,P|196:179|255:156,1,130,8|4,0:0|3:0,0:0:0:0:
200,12,130747,6,0,B|192:60|192:60|168:44|140:44|112:52,1,130,8|4,0:0|3:0,0:0:0:0:
32,184,132044,2,0,L|36:248,2,64.9999999999999,8|0|4,0:0|0:0|3:0,0:0:0:0:
100,324,133341,6,0,P|152:292|216:304,1,130,8|4,0:0|3:0,0:0:0:0:
352,380,134638,2,0,B|388:376|388:376|416:380|416:380|432:316,1,130,2|4,0:0|3:0,0:0:0:0:
492,172,135936,6,0,L|472:44,1,130,8|4,0:0|3:0,0:0:0:0:
320,84,137233,2,0,B|284:96|284:96|322:125|368:132,1,130,8|4,0:0|3:0,0:0:0:0:
396,60,138206,5,4,0:0:0:0:
340,8,138530,2,0,P|284:40|224:24,1,130,4|8,3:0|0:0,0:0:0:0:
146,31,139503,1,8,0:0:0:0:
68,38,139828,2,0,B|62:69|62:69|68:104|68:104|64:136,1,97.4999999999999,4|2,3:0|0:0,0:0:0:0:
60,252,140801,5,8,0:0:0:0:
112,308,141125,2,0,P|172:336|228:312,1,130,4|8,3:0|0:0,0:0:0:0:
280,256,142098,1,8,0:0:0:0:
304,332,142422,2,0,P|336:340|368:336,2,64.9999999999999,4|8|4,3:0|0:0|3:0,0:0:0:0:
216,204,143720,6,0,B|220:160|220:160|212:120|212:120|216:76,1,130,0|4,0:0|3:0,0:0:0:0:
300,208,145017,2,0,P|292:244|270:270,1,64.9999999999999,0|8,0:0|0:0,0:0:0:0:
200,280,145665,6,0,L|136:276,1,64.9999999999999,4|8,3:0|0:0,0:0:0:0:
76,328,146314,2,0,P|57:266|100:204,1,130,8|8,0:0|3:0,0:0:0:0:
256,238,148260,5,4,3:0:0:0:
376,144,148909,2,0,B|356:224|356:224|376:268,1,130
256,368,150206,2,0,L|256:236,1,130,0|4,0:0|3:0,0:0:0:0:
136,144,151503,6,0,B|156:224|156:224|136:268,1,130,0|0,0:0|0:0,0:0:0:0:
52,136,152801,2,0,P|64:100|88:72,1,64.9999999999999,4|8,3:0|0:0,0:0:0:0:
156,60,153449,6,0,P|216:88|272:64,1,130,4|0,3:0|0:0,0:0:0:0:
388,168,154747,2,0,P|328:140|272:164,1,130,0|4,0:0|3:0,0:0:0:0:
238,233,155720,6,0,L|232:300,2,64.9999999999999,8|4|8,0:0|3:0|0:0,0:0:0:0:
124,256,156855,2,0,L|118:189,2,64.9999999999999,4|8|4,3:0|0:0|3:0,0:0:0:0:
8,232,157990,2,0,L|2:299,1,64.9999999999999,4|8,3:0|0:0,0:0:0:0:
44,364,158638,6,0,P|84:376|108:372,1,64.9999999999999,4|8,0:0|0:0,0:0:0:0:
172,328,159287,2,0,L|180:264,1,64.9999999999999,0|8,0:0|0:0,0:0:0:0:
140,196,159936,1,0,0:0:0:0:
264,292,160584,2,0,P|324:316|384:296,1,130,0|4,0:0|3:0,0:0:0:0:
461,302,161557,6,0,P|457:270|441:242,1,64.9999999999999,8|0,0:0|0:0,0:0:0:0:
487,178,162206,2,0,P|457:165|425:165,1,64.9999999999999,0|0,0:0|0:0,0:0:0:0:
367,218,162855,1,8,0:0:0:0:
308,168,163179,2,0,L|304:104,1,64.9999999999999,4|8,3:0|0:0,0:0:0:0:
298,25,163828,6,0,P|268:44|236:48,1,64.9999999999999,4|8,0:0|0:0,0:0:0:0:
160,52,164476,2,0,P|124:53|94:40,1,64.9999999999999,4|8,3:0|0:0,0:0:0:0:
32,84,165125,2,0,L|36:148,1,64.9999999999999,8|4,0:0|3:0,0:0:0:0:
108,184,165774,2,0,L|104:248,1,64.9999999999999,4|8,3:0|0:0,0:0:0:0:
40,296,166422,6,0,P|104:276|160:308,2,130,4|8|0,3:0|0:0|0:0,0:0:0:0:
144,256,179395,6,0,B|204:232|204:232|268:240,1,130,4|8,3:0|0:2,0:0:0:0:
372,124,180693,2,0,B|312:148|312:148|248:140,1,130,4|8,3:0|0:2,0:0:0:0:
170,126,181665,1,0,0:0:0:0:
196,201,181990,6,0,B|192:245|192:245|200:285|200:285|196:329,1,130,4|8,3:0|0:2,0:0:0:0:
312,232,183287,2,0,P|367:199|428:219,1,130,4|8,3:0|0:2,0:0:0:0:
377,278,184260,1,0,0:0:0:0:
327,338,184584,6,0,L|192:328,1,130,4|8,3:0|0:2,0:0:0:0:
80,224,185882,2,0,B|68:180|68:180|72:152|92:136,1,97.4999999999999,4|0,3:0|0:0,0:0:0:0:
264,44,187179,6,0,L|368:32,1,97.4999999999999,8|8,3:0|3:0,0:0:0:0:
303,134,188152,2,0,B|255:146|255:146|199:122,1,97.4999999999999,8|4,3:0|3:0,0:0:0:0:
228,244,189125,2,0,B|264:284|264:284|268:312|256:344,1,113.75,4|4,3:0|3:0,0:0:0:0:
164,308,190098,6,0,P|136:251|160:184,1,130,4|0,0:0|0:0,0:0:0:0:
180,116,191071,2,0,P|188:88|188:52,1,64.9999999999999,0|8,0:0|0:0,0:0:0:0:
112,68,191720,2,0,P|104:96|104:132,1,64.9999999999999,0|8,0:0|0:0,0:0:0:0:
154,190,192368,6,0,B|220:180|220:180|252:188|272:216,1,130,4|0,3:0|0:0,0:0:0:0:
292,292,193341,1,0,0:0:0:0:
348,236,193665,2,0,L|444:224,2,97.4999999999999,0|0|8,0:0|0:0|0:0,0:0:0:0:
292,292,194963,6,0,P|228:312|176:280,1,130,4|0,3:0|0:0,0:0:0:0:
204,128,196260,2,0,B|208:96|208:96|200:64|200:64|204:32,2,97.4999999999999,0|0|8,0:0|0:0|0:0,0:0:0:0:
156,192,197557,5,4,3:0:0:0:
80,168,197882,2,0,P|80:217|108:256,1,97.4999999999999,8|4,0:0|3:0,0:0:0:0:
184,267,198693,2,0,P|225:231|234:184,1,97.4999999999999,8|8,0:0|0:0,0:0:0:0:
198,121,199503,1,4,3:0:0:0:
316,224,200152,6,0,P|352:232|384:224,1,64.9999999999999,4|8,0:0|0:0,0:0:0:0:
352,152,200801,2,0,P|383:146|415:154,1,64.9999999999999,4|8,3:0|0:0,0:0:0:0:
457,219,201449,2,0,L|452:284,1,64.9999999999999,4|8,3:0|0:0,0:0:0:0:
380,316,202098,2,0,L|375:381,1,64.9999999999999,4|8,3:0|0:0,0:0:0:0:
300,368,202747,6,0,P|236:380|196:336,1,130,4|4,3:0|3:0,0:0:0:0:
196,256,203720,1,8,0:0:0:0:
244,196,204044,2,0,P|256:160|252:132,1,64.9999999999999,4|8,3:0|0:0,0:0:0:0:
177,155,204693,2,0,P|174:122|185:92,1,64.9999999999999,4|8,3:0|0:0,0:0:0:0:
256,56,205341,6,0,P|316:80|368:48,2,130,4|8|8,3:0|0:0|0:0,0:0:0:0:
177,58,206963,1,8,0:0:0:0:
128,120,207287,2,0,B|104:116|104:116|84:120|84:120|60:116,1,64.9999999999999,8|8,0:0|0:0,0:0:0:0:
4,168,207936,5,4,3:0:0:0:
76,196,208260,2,0,P|96:240|84:288,1,97.4999999999999,8|8,0:0|0:0,0:0:0:0:
180,352,209233,2,0,P|169:305|189:261,1,97.4999999999999,8|8,0:0|0:0,0:0:0:0:
300,224,210206,2,0,L|364:216,1,64.9999999999999,2|4,0:0|0:0,0:0:0:0:
256,192,211179,12,0,215720,0:0:0:0:
