osu file format v14

[General]
AudioFilename: Kiwoterae-Pt2-FC-Hard-Catchy.mp3
AudioLeadIn: 0
PreviewTime: 88897
Countdown: 0
SampleSet: None
StackLeniency: 0.7
Mode: 0
LetterboxInBreaks: 0
WidescreenStoryboard: 0

[Editor]
Bookmarks: 54954,87868,105697,111182,122154
DistanceSpacing: 1
BeatDivisor: 4
GridSize: 4
TimelineZoom: 4.199998

[Metadata]
Title:Kiwoterae Pt.2
TitleUnicode:Kiwoterae Pt.2
Artist:ETIA.
ArtistUnicode:ETIA.
Creator:Bonzi
Version:Normal
Source:Hard & Catchy
Tags:
BeatmapID:759464
BeatmapSetID:343749

[Difficulty]
HPDrainRate:4
CircleSize:3
OverallDifficulty:5
ApproachRate:5
SliderMultiplier:0.9
SliderTickRate:1

[Events]
//Background and Video events
0,0,"bg.png",0,0
//Break Periods
2,15382,22211
2,29097,32497
//Storyboard Layer 0 (Background)
//Storyboard Layer 1 (Fail)
//Storyboard Layer 2 (Pass)
//Storyboard Layer 3 (Foreground)
//Storyboard Sound Samples

[TimingPoints]
97,342.857142857143,4,2,0,73,1,0
1125,-100,4,2,0,73,0,0
1468,-100,4,2,0,73,0,0
2497,-100,4,2,0,73,0,0
2839,-100,4,2,0,73,0,0
3525,-100,4,2,0,73,0,0
3868,-100,4,2,0,73,0,0
4211,-100,4,2,0,73,0,0
5239,-100,4,2,0,73,0,0
6954,-100,4,2,0,73,0,0
9697,-200,4,2,0,73,0,0
9954,-200,4,2,0,10,0,0
10297,-200,4,2,0,20,0,0
10639,-200,4,2,0,30,0,0
10982,-200,4,2,0,40,0,0
11325,-200,4,2,0,50,0,0
11668,-200,4,2,0,60,0,0
12011,-200,4,2,0,70,0,0
12268,-200,4,2,0,80,0,0
12439,-200,4,2,0,73,0,0
12611,-200,4,2,0,68,0,0
12782,-200,4,2,0,63,0,0
12954,-200,4,2,0,58,0,0
13125,-200,4,2,0,53,0,0
13297,-200,4,2,0,48,0,0
13468,-200,4,2,0,43,0,0
13639,-200,4,2,0,38,0,0
13811,-200,4,2,0,33,0,0
13982,-200,4,2,0,28,0,0
14154,-200,4,2,0,23,0,0
14325,-200,4,2,0,18,0,0
14497,-200,4,2,0,13,0,0
14668,-200,4,2,0,8,0,0
14839,-200,4,2,0,5,0,0
15097,-200,4,2,0,5,0,0
23411,-200,4,2,0,25,0,0
28725,-200,4,2,0,15,0,0
28897,-100,4,2,0,25,0,0
34211,-100,4,2,0,65,0,0
55039,-100,4,2,0,48,0,0
55125,-100,4,2,0,46,0,0
55211,-100,4,2,0,44,0,0
55297,-100,4,2,0,42,0,0
55382,-100,4,2,0,40,0,0
55468,-100,4,2,0,38,0,0
55554,-100,4,2,0,36,0,0
55639,-100,4,2,0,34,0,0
55725,-100,4,2,0,32,0,0
55811,-100,4,2,0,30,0,0
55897,-100,4,2,0,28,0,0
55982,-100,4,2,0,74,0,0
59068,-100,4,2,0,76,0,0
60782,-100,4,2,0,76,0,0
61811,-100,4,2,0,78,0,0
63182,-100,4,2,0,80,0,0
64554,-100,4,2,0,82,0,0
66439,-100,4,2,0,73,0,0
67297,-100,4,2,0,73,0,1
67639,-100,4,2,0,73,0,1
69782,-100,4,2,0,73,0,1
70039,-100,4,2,0,73,0,1
70382,-100,4,2,0,73,0,1
80754,-100,4,2,0,73,0,1
81011,-100,4,2,0,73,0,1
81354,-100,4,2,0,73,0,1
86239,-100,4,2,0,73,0,1
86497,-100,4,2,0,73,0,1
86839,-100,4,2,0,73,0,1
87868,-100,4,2,0,73,0,0
89239,-100,4,2,0,73,0,1
89325,-100,4,2,0,73,0,0
90268,-100,4,2,0,73,0,0
91982,-100,4,2,0,73,0,0
95754,-100,4,2,0,73,0,0
96439,-100,4,2,0,73,0,0
96782,-100,4,2,0,73,0,0
109639,-100,4,2,0,10,0,0
109982,-100,4,2,0,73,0,0
121811,-100,4,2,0,73,0,0
122154,-100,4,2,0,73,0,0
124211,-100,4,2,0,73,0,0
124554,-100,4,2,0,73,0,0
124897,-100,4,2,0,73,0,0
127639,-100,4,2,0,73,0,0
130382,-200,4,2,0,73,0,0
130639,-200,4,2,0,10,0,0
130982,-200,4,2,0,20,0,0
131325,-200,4,2,0,30,0,0
131668,-200,4,2,0,40,0,0
132011,-200,4,2,0,50,0,0
132354,-200,4,2,0,60,0,0
132697,-200,4,2,0,70,0,0
132954,-200,4,2,0,80,0,0
133125,-200,4,2,0,75,0,1
133211,-200,4,2,0,73,0,0

[Colours]
Combo1 : 192,192,192
Combo2 : 111,208,203
Combo3 : 208,153,184

[HitObjects]
80,188,1468,6,0,P|124:208|176:192,1,90,4|8,1:2|0:0,0:0:0:0:
224,132,2154,2,0,L|332:120,1,90,0|8,1:0|0:0,0:0:0:0:
392,168,2839,6,0,L|348:264,1,90,0|8,1:0|0:0,0:0:0:0:
284,304,3525,2,0,P|265:266|282:202,1,90,0|0,1:0|1:0,0:0:0:0:
292,132,4211,6,0,P|310:94|293:30,1,90,4|8,1:2|0:0,0:0:0:0:
216,28,4897,2,0,L|107:35,1,90,0|8,1:0|0:0,0:0:0:0:
52,88,5582,6,0,P|90:117|150:111,1,90,0|8,1:0|0:0,0:0:0:0:
212,144,6268,2,0,P|241:105|235:45,1,90,0|0,1:0|1:0,0:0:0:0:
216,28,6782,1,0,0:0:0:0:
172,40,6954,6,0,L|24:48,2,135,6|2|2,1:2|1:2|1:2,0:0:0:0:
304,76,8497,1,2,1:2:0:0:
236,192,9011,6,0,P|218:147|230:95,1,90,2|2,1:2|1:2,0:0:0:0:
308,136,9697,6,0,B|332:164|344:228|300:264|280:272|280:272|332:260|388:288|388:288|408:272|408:272|480:264,1,360,4|6,1:2|0:0,0:0:0:0:
256,192,12611,12,0,15182,0:0:0:0:
136,308,23411,5,2,0:0:0:0:
268,280,23925,1,0,0:0:0:0:
268,280,26154,5,2,0:0:0:0:
282,145,26668,1,0,0:0:0:0:
282,145,27525,5,2,0:0:0:0:
157,89,28039,1,0,0:0:0:0:
268,280,28897,5,2,0:0:0:0:
268,280,33697,5,2,0:0:0:0:
308,308,33868,2,0,L|400:304,1,90,2|0,0:0|0:0,0:0:0:0:
432,276,34382,6,0,L|440:172,1,90,4|8,1:1|0:2,0:0:0:0:
380,120,35068,2,0,P|336:104|280:116,1,90,0|8,0:0|0:0,0:0:0:0:
216,156,35754,2,0,P|172:172|116:160,1,90,0|8,1:0|0:0,0:0:0:0:
92,140,36268,1,2,0:0:0:0:
48,156,36439,2,0,L|52:260,1,90,0|8,0:0|0:0,0:0:0:0:
124,300,37125,6,0,P|168:284|224:296,1,90,0|8,1:0|0:0,0:0:0:0:
302,289,37811,2,0,P|346:284|388:300,1,90,0|8,0:0|0:0,0:0:0:0:
464,248,38497,2,0,L|467:158,1,90,0|8,1:0|0:0,0:0:0:0:
384,120,39182,2,0,P|352:140|292:132,1,90,0|8,0:0|0:0,0:0:0:0:
210,136,39868,6,0,P|166:141|128:120,1,90,0|8,1:0|0:0,0:0:0:0:
188,52,40554,2,0,L|288:44,1,90,0|8,0:0|0:0,0:0:0:0:
336,116,41239,2,0,L|320:220,1,90,0|8,1:0|0:0,0:0:0:0:
344,244,41754,1,0,0:0:0:0:
324,284,41925,2,0,P|280:300|232:288,1,90,0|8,0:0|0:0,0:0:0:0:
164,344,42611,6,0,P|148:300|160:252,1,90,0|8,1:0|0:0,0:0:0:0:
152,168,43297,1,0,0:0:0:0:
236,132,43639,1,8,0:0:0:0:
296,196,43982,2,0,L|400:188,2,90,0|8|0,1:0|0:0|0:0,0:0:0:0:
236,132,45011,1,8,0:0:0:0:
195,115,45182,1,2,1:2:0:0:
155,135,45354,6,0,P|136:175|142:219,1,90,4|8,1:0|0:0,0:0:0:0:
200,288,46039,1,0,0:0:0:0:
232,204,46382,1,8,0:0:0:0:
292,272,46725,2,0,L|400:268,1,90,0|8,1:0|0:0,0:0:0:0:
420,292,47239,1,2,0:0:0:0:
464,276,47411,2,0,B|478:232|478:232|469:180,1,90,0|8,0:0|0:0,0:0:0:0:
396,140,48097,6,0,L|292:132,1,90,0|8,1:0|0:0,0:0:0:0:
228,180,48782,2,0,L|124:188,1,90,0|8,0:0|0:0,0:0:0:0:
64,136,49468,1,0,1:0:0:0:
8,208,49811,1,8,0:0:0:0:
19,298,50154,1,0,0:0:0:0:
90,353,50497,1,8,0:0:0:0:
179,341,50839,6,0,P|192:296|172:244,1,90,0|8,1:0|0:0,0:0:0:0:
97,215,51525,2,0,L|1:207,2,90,0|8|0,0:0|0:0|1:0,0:0:0:0:
172,164,52554,1,8,0:0:0:0:
252,208,52897,2,0,L|341:215,1,90,0|8,0:0|0:0,0:0:0:0:
400,284,53582,6,0,P|368:304|315:301,1,90,0|8,1:0|0:0,0:0:0:0:
341,215,54268,2,0,L|352:124,1,90,0|8,0:0|0:0,0:0:0:0:
288,60,54954,2,0,P|284:104|454:133,1,270,0|4,3:0|0:3,0:0:0:0:
372,92,56325,6,0,P|380:52|364:4,1,90,8|8,1:3|1:3,0:0:0:0:
288,60,57011,2,0,L|184:64,1,90,8|8,1:3|1:3,0:0:0:0:
152,68,57525,1,0,0:0:0:0:
108,72,57697,1,8,1:3:0:0:
52,140,58039,1,8,1:3:0:0:
68,228,58382,1,8,1:3:0:0:
84,316,58725,5,8,1:3:0:0:
128,320,58897,1,0,0:0:0:0:
172,324,59068,2,0,L|280:332,1,90,4|8,1:2|1:3,0:0:0:0:
340,284,59754,2,0,P|356:244|344:192,1,90,8|8,1:3|1:3,0:0:0:0:
272,152,60439,2,0,L|164:160,2,90,8|8|8,1:3|1:3|1:3,0:0:0:0:
352,112,61468,1,0,0:0:0:0:
388,88,61639,1,8,1:3:0:0:
428,64,61811,6,0,B|416:104|428:136|428:136|440:172|428:200|428:200|460:196|496:232|504:276|472:308|428:300|424:248,1,315,4|8,1:2|1:3,0:0:0:0:
392,288,63182,6,0,P|424:296|360:336,1,180,4|2,1:2|0:0,0:0:0:0:
328,164,64554,6,0,P|372:144|424:152,3,90,6|6|6|0,1:2|0:2|1:2|0:0,0:0:0:0:
388,232,65925,1,4,0:3:0:0:
388,232,67297,5,4,0:0:0:0:
444,304,67639,2,0,P|392:324|344:312,1,90,0|0,1:0|1:0,0:0:0:0:
296,256,68325,2,0,L|308:152,1,90,0|0,1:0|1:0,0:0:0:0:
240,108,69011,1,0,1:0:0:0:
168,164,69354,1,0,1:0:0:0:
132,136,69525,2,0,P|120:104|124:64,2,67.5,2|2|6,0:0|0:0|0:0,0:0:0:0:
68,200,70382,6,0,L|76:296,1,90,0|0,1:0|1:0,0:0:0:0:
140,356,71068,2,0,P|168:307|156:260,1,90,0|4,1:0|1:2,0:0:0:0:
120,196,71754,1,2,1:2:0:0:
96,156,71925,2,0,P|81:101|105:59,1,90,4|0,1:2|1:0,0:0:0:0:
128,40,72439,1,2,0:3:0:0:
208,76,72782,6,0,L|308:84,1,90,4|0,0:0|1:0,0:0:0:0:
372,32,73468,2,0,P|388:84|368:132,1,90,0|0,1:0|1:0,0:0:0:0:
316,184,74154,2,0,P|300:236|320:284,1,90,0|0,1:0|1:0,0:0:0:0:
380,324,74839,1,0,1:0:0:0:
296,356,75182,2,0,L|236:352,1,45,2|2,0:0|0:0,0:0:0:0:
216,328,75525,6,0,L|124:336,1,90,4|8,1:0|0:0,0:0:0:0:
88,252,76211,2,0,L|36:256,2,45,0|0|8,1:0|1:0|0:0,0:0:0:0:
108,164,76897,2,0,L|197:156,1,90,4|2,1:2|1:2,0:0:0:0:
232,128,77411,2,0,L|220:224,1,90,4|0,1:2|1:0,0:0:0:0:
236,260,77925,1,8,1:2:0:0:
308,312,78268,6,0,P|324:276|312:216,1,90,4|0,1:2|1:0,0:0:0:0:
248,168,78954,1,2,1:2:0:0:
316,108,79297,1,0,1:0:0:0:
240,60,79639,2,0,L|136:52,1,90,0|0,1:0|1:0,0:0:0:0:
80,112,80325,1,0,1:0:0:0:
44,136,80497,2,0,P|36:168|48:212,2,67.5,2|2|6,0:0|0:0|0:0,0:0:0:0:
128,164,81354,6,0,L|120:268,1,90,0|0,1:0|1:0,0:0:0:0:
180,324,82039,2,0,P|204:292|208:236,1,90,0|4,1:0|1:2,0:0:0:0:
296,224,82725,1,2,1:2:0:0:
324,260,82897,2,0,L|416:264,1,90,4|0,1:2|1:0,0:0:0:0:
448,232,83411,1,2,0:3:0:0:
408,152,83754,6,0,P|424:112|408:48,1,90,4|0,0:0|1:0,0:0:0:0:
336,100,84439,2,0,L|232:96,1,90,0|0,1:0|1:0,0:0:0:0:
172,44,85125,2,0,P|156:84|172:148,1,90,0|0,1:0|1:0,0:0:0:0:
208,208,85811,1,0,1:0:0:0:
228,248,85982,2,0,P|232:288|216:324,2,67.5,2|2|6,0:0|0:0|0:0,0:0:0:0:
140,272,86839,5,0,1:0:0:0:
112,188,87182,1,0,3:0:0:0:
176,124,87525,1,8,3:0:0:0:
264,140,87868,1,4,0:3:0:0:
264,140,89239,6,0,L|360:144,1,90,4|8,1:2|1:2,0:0:0:0:
420,204,89925,2,0,P|436:244|420:304,1,90,0|8,1:0|1:2,0:0:0:0:
356,340,90611,1,2,1:3:0:0:
276,300,90954,2,0,L|172:296,1,90,2|2,1:1|1:0,0:0:0:0:
80,150,91982,6,0,P|149:98|236:128,2,180,4|0|4,1:2|1:0|1:2,0:0:0:0:
164,188,93697,2,0,L|161:250,1,45,0|4,1:0|1:2,0:0:0:0:
248,264,94211,2,0,L|250:219,1,45,0|2,1:0|0:3,0:0:0:0:
316,156,94725,6,0,L|412:148,1,90,4|8,1:0|1:2,0:0:0:0:
476,204,95411,2,0,L|468:293,1,90,0|8,1:0|1:2,0:0:0:0:
384,320,96097,1,2,1:3:0:0:
304,276,96439,2,0,P|291:320|307:366,1,90,8|0,1:2|1:0,0:0:0:0:
380,224,97468,6,0,B|400:180|380:132|380:132|360:88|380:44,2,180,4|0|4,1:2|1:0|1:2,0:0:0:0:
300,180,99182,2,0,L|252:176,1,45,0|4,1:0|1:2,0:0:0:0:
164,192,99697,2,0,L|116:188,1,45,0|8,1:0|1:2,0:0:0:0:
44,136,100211,6,0,P|24:184|40:232,1,90,4|8,1:2|1:2,0:0:0:0:
96,280,100897,1,0,1:0:0:0:
180,244,101239,2,0,L|272:248,2,90,8|0|8,1:2|1:0|1:2,0:0:0:0:
96,280,102268,1,0,1:0:0:0:
64,104,102954,6,0,B|140:56|140:56|232:80,2,180,4|0|4,1:0|1:0|1:2,0:0:0:0:
132,160,104668,2,0,L|128:212,1,45,0|4,1:0|1:2,0:0:0:0:
220,200,105182,2,0,L|216:252,1,45,0|2,1:0|0:3,0:0:0:0:
212,336,105697,5,0,1:2:0:0:
380,272,107068,5,0,1:0:0:0:
240,158,108439,6,0,L|136:164,1,90,4|8,1:2|1:2,0:0:0:0:
80,104,109125,2,0,L|88:56,2,45,0|0|8,1:0|1:0|1:2,0:0:0:0:
48,188,109982,6,0,L|56:268,4,67.5,4|4|4|4|4,0:3|0:3|0:3|0:3|0:3,0:0:0:0:
152,100,111525,6,0,L|256:108,1,90,6|0,1:2|1:2,0:0:0:0:
324,144,112211,1,8,0:0:0:0:
400,92,112554,2,0,P|416:132|400:192,1,90,0|8,1:0|0:0,0:0:0:0:
340,236,113239,2,0,P|324:276|340:336,1,90,2|2,1:2|1:3,0:0:0:0:
416,288,113925,5,0,1:0:0:0:
484,228,114268,1,8,0:0:0:0:
412,176,114611,2,0,L|304:168,1,90,0|8,1:0|0:0,0:0:0:0:
280,184,115125,1,2,0:2:0:0:
240,160,115297,2,0,B|228:120|228:120|244:64,1,90,2|8,1:2|0:0,0:0:0:0:
316,24,115982,2,0,L|364:20,2,45,0|0|0,1:0|0:0|1:0,0:0:0:0:
240,72,116668,6,0,L|144:64,1,90,4|8,1:2|0:0,0:0:0:0:
100,140,117354,2,0,L|141:227,1,90,0|8,1:0|0:0,0:0:0:0:
229,227,118039,2,0,L|283:147,1,90,0|8,1:0|0:0,0:0:0:0:
325,75,118725,2,0,P|297:63|229:79,1,90,0|2,1:0|0:3,0:0:0:0:
172,132,119411,6,0,P|144:144|76:128,1,90,0|10,1:0|0:0,0:0:0:0:
128,56,120097,1,0,1:0:0:0:
216,56,120439,1,8,0:0:0:0:
260,136,120782,6,0,B|264:203|264:203|255:248|255:248|260:316,1,180,4|0,0:0|3:3,0:0:0:0:
348,344,121811,1,2,0:0:0:0:
408,280,122154,6,0,P|415:236|395:196,1,90,4|8,1:2|0:0,0:0:0:0:
308,168,122840,2,0,L|218:177,1,90,0|8,1:0|0:0,0:0:0:0:
136,140,123525,6,0,L|180:44,1,90,0|8,1:0|1:2,0:0:0:0:
248,4,124211,2,0,P|267:42|250:106,1,90,0|0,1:0|1:0,0:0:0:0:
244,176,124897,6,0,P|226:214|243:278,1,90,4|8,0:0|0:0,0:0:0:0:
288,332,125583,2,0,L|397:325,1,90,0|8,1:0|0:0,0:0:0:0:
448,272,126268,6,0,P|410:243|350:249,1,90,0|8,1:0|0:0,0:0:0:0:
292,192,126954,2,0,P|244:198|206:245,1,90,0|0,1:0|1:0,0:0:0:0:
192,264,127468,1,0,0:0:0:0:
148,252,127640,6,0,L|0:244,2,135,4|4|4,0:0|0:0|0:0,0:0:0:0:
260,332,129183,1,4,0:0:0:0:
324,212,129697,6,0,P|369:194|421:206,1,90,4|4,0:2|0:2,0:0:0:0:
384,288,130382,6,0,B|320:324|256:300|236:244|236:244|216:272|216:272|180:272|180:272|196:308|196:308|116:320,1,360,4|4,0:0|1:0,0:0:0:0:
