osu file format v14

[General]
AudioFilename: Firestorm.mp3
AudioLeadIn: 0
PreviewTime: 91448
Countdown: 0
SampleSet: None
StackLeniency: 0.7
Mode: 3
LetterboxInBreaks: 0
SpecialStyle: 1
WidescreenStoryboard: 1

[Editor]
DistanceSpacing: 0.8
BeatDivisor: 4
GridSize: 8
TimelineZoom: 2

[Metadata]
Title:Firestorm
TitleUnicode:Firestorm
Artist:ETIA.
ArtistUnicode:ETIA.
Creator:PiraTom
Version:intel's OVERFLNOW
Source:SOUND VOLTEX III GRAVITY WARS
Tags:sdvx gravity wars sound_voltex inteliser
BeatmapID:804930
BeatmapSetID:359554

[Difficulty]
HPDrainRate:8
CircleSize:4
OverallDifficulty:6
ApproachRate:5
SliderMultiplier:1.4
SliderTickRate:1

[Events]
//Background and Video events
0,0,"bg.jpg",0,0
//Break Periods
//Storyboard Layer 0 (Background)
//Storyboard Layer 1 (Fail)
//Storyboard Layer 2 (Pass)
//Storyboard Layer 3 (Foreground)
//Storyboard Sound Samples

[TimingPoints]
601,338.983050847458,4,1,0,0,1,0

[HitObjects]
320,192,601,5,0,0:0:0:0:
448,192,601,128,0,939:0:0:0:0:
192,192,855,1,0,0:0:0:0:
320,192,939,1,0,0:0:0:0:
64,192,939,128,0,1278:0:0:0:0:
192,192,1109,1,0,0:0:0:0:
320,192,1278,1,0,0:0:0:0:
448,192,1278,128,0,1617:0:0:0:0:
192,192,1533,1,0,0:0:0:0:
320,192,1617,1,0,0:0:0:0:
64,192,1617,128,0,1956:0:0:0:0:
192,192,1787,1,0,0:0:0:0:
192,192,1872,1,0,0:0:0:0:
320,192,1956,1,0,0:0:0:0:
448,192,1956,128,0,2295:0:0:0:0:
320,192,2126,1,0,0:0:0:0:
192,192,2211,1,0,0:0:0:0:
320,192,2295,1,0,0:0:0:0:
64,192,2295,128,0,2634:0:0:0:0:
192,192,2465,1,0,0:0:0:0:
448,192,2634,128,0,3228:0:0:0:0:
320,192,2634,128,0,2719:0:0:0:0:
320,192,2804,128,0,2889:0:0:0:0:
192,192,2889,128,0,3058:0:0:0:0:
320,192,2973,128,0,3143:0:0:0:0:
64,192,2973,128,0,3228:0:0:0:0:
192,192,3143,128,0,3228:0:0:0:0:
320,192,3228,1,0,0:0:0:0:
64,192,3312,128,0,3651:0:0:0:0:
448,192,3312,1,0,0:0:0:0:
192,192,3567,1,0,0:0:0:0:
448,192,3651,128,0,3990:0:0:0:0:
320,192,3651,1,0,0:0:0:0:
192,192,3821,1,0,0:0:0:0:
64,192,3990,128,0,4329:0:0:0:0:
320,192,3990,1,0,0:0:0:0:
192,192,4245,1,0,0:0:0:0:
448,192,4329,128,0,4668:0:0:0:0:
320,192,4329,1,0,0:0:0:0:
192,192,4499,1,0,0:0:0:0:
192,192,4584,1,0,0:0:0:0:
64,192,4668,128,0,5007:0:0:0:0:
320,192,4668,1,0,0:0:0:0:
320,192,4838,1,0,0:0:0:0:
192,192,4923,1,0,0:0:0:0:
448,192,5007,128,0,5346:0:0:0:0:
320,192,5007,1,0,0:0:0:0:
192,192,5177,1,0,0:0:0:0:
64,192,5346,1,0,0:0:0:0:
320,192,5346,1,0,0:0:0:0:
64,192,5685,128,0,6024:0:0:0:0:
448,192,5685,128,0,6024:0:0:0:0:
192,192,6024,1,0,0:0:0:0:
320,192,6024,128,0,6363:0:0:0:0:
448,192,6278,1,0,0:0:0:0:
192,192,6363,128,0,6702:0:0:0:0:
64,192,6363,1,0,0:0:0:0:
448,192,6533,1,0,0:0:0:0:
320,192,6702,128,0,7041:0:0:0:0:
64,192,6702,1,0,0:0:0:0:
448,192,6956,1,0,0:0:0:0:
192,192,7041,128,0,7380:0:0:0:0:
64,192,7041,1,0,0:0:0:0:
448,192,7211,1,0,0:0:0:0:
448,192,7295,1,0,0:0:0:0:
320,192,7380,128,0,7719:0:0:0:0:
64,192,7380,1,0,0:0:0:0:
448,192,7634,1,0,0:0:0:0:
192,192,7719,128,0,8058:0:0:0:0:
64,192,7719,1,0,0:0:0:0:
448,192,7889,1,0,0:0:0:0:
64,192,8058,128,0,8143:0:0:0:0:
64,192,8228,128,0,8651:0:0:0:0:
192,192,8312,128,0,8651:0:0:0:0:
320,192,8397,128,0,8482:0:0:0:0:
448,192,8397,128,0,8482:0:0:0:0:
448,192,8567,128,0,8651:0:0:0:0:
320,192,8651,1,0,0:0:0:0:
192,192,8736,128,0,9075:0:0:0:0:
448,192,8736,1,0,0:0:0:0:
64,192,8990,1,0,0:0:0:0:
320,192,9075,128,0,9414:0:0:0:0:
448,192,9075,1,0,0:0:0:0:
192,192,9245,1,0,0:0:0:0:
192,192,9414,128,0,9753:0:0:0:0:
448,192,9414,1,0,0:0:0:0:
64,192,9668,1,0,0:0:0:0:
320,192,9753,128,0,10092:0:0:0:0:
448,192,9753,1,0,0:0:0:0:
64,192,9923,1,0,0:0:0:0:
64,192,10007,1,0,0:0:0:0:
192,192,10092,128,0,10431:0:0:0:0:
448,192,10092,1,0,0:0:0:0:
320,192,10431,128,0,10770:0:0:0:0:
448,192,10431,128,0,10770:0:0:0:0:
192,192,10601,128,0,10770:0:0:0:0:
64,192,10770,128,0,11363:0:0:0:0:
320,192,10939,128,0,11363:0:0:0:0:
192,192,11109,128,0,11363:0:0:0:0:
448,192,11278,128,0,11363:0:0:0:0:
192,192,11448,1,0,0:0:0:0:
320,192,11448,128,0,11617:0:0:0:0:
448,192,11448,128,0,11702:0:0:0:0:
320,192,11702,128,0,11872:0:0:0:0:
64,192,11787,1,0,0:0:0:0:
448,192,11787,128,0,12041:0:0:0:0:
320,192,11956,128,0,12295:0:0:0:0:
192,192,12126,1,0,0:0:0:0:
448,192,12126,128,0,12380:0:0:0:0:
320,192,12380,128,0,12550:0:0:0:0:
64,192,12465,1,0,0:0:0:0:
448,192,12465,128,0,12719:0:0:0:0:
320,192,12634,1,0,0:0:0:0:
320,192,12719,1,0,0:0:0:0:
64,192,12804,128,0,12889:0:0:0:0:
192,192,12804,128,0,12889:0:0:0:0:
64,192,12973,128,0,13397:0:0:0:0:
192,192,13058,128,0,13397:0:0:0:0:
448,192,13143,128,0,13228:0:0:0:0:
320,192,13143,128,0,13228:0:0:0:0:
448,192,13312,128,0,13736:0:0:0:0:
320,192,13397,128,0,13567:0:0:0:0:
64,192,13482,128,0,14075:0:0:0:0:
192,192,13482,128,0,13736:0:0:0:0:
320,192,13651,128,0,13906:0:0:0:0:
192,192,13821,128,0,14075:0:0:0:0:
448,192,13821,128,0,14075:0:0:0:0:
320,192,13990,128,0,14075:0:0:0:0:
320,192,14160,1,0,0:0:0:0:
64,192,14160,128,0,14414:0:0:0:0:
192,192,14160,128,0,14329:0:0:0:0:
192,192,14414,128,0,14584:0:0:0:0:
64,192,14499,128,0,14753:0:0:0:0:
448,192,14499,1,0,0:0:0:0:
192,192,14668,128,0,15007:0:0:0:0:
64,192,14838,128,0,15092:0:0:0:0:
320,192,14838,1,0,0:0:0:0:
192,192,15092,128,0,15262:0:0:0:0:
64,192,15177,128,0,15431:0:0:0:0:
448,192,15177,1,0,0:0:0:0:
192,192,15346,1,0,0:0:0:0:
192,192,15431,1,0,0:0:0:0:
320,192,15516,128,0,15601:0:0:0:0:
448,192,15516,128,0,15601:0:0:0:0:
448,192,15685,128,0,16109:0:0:0:0:
320,192,15770,128,0,16109:0:0:0:0:
64,192,15855,128,0,15939:0:0:0:0:
192,192,15855,128,0,15939:0:0:0:0:
64,192,16024,128,0,16448:0:0:0:0:
192,192,16109,128,0,16278:0:0:0:0:
320,192,16194,128,0,16787:0:0:0:0:
448,192,16194,128,0,16448:0:0:0:0:
192,192,16363,128,0,16787:0:0:0:0:
448,192,16533,128,0,16787:0:0:0:0:
64,192,16533,128,0,16787:0:0:0:0:
448,192,16872,128,0,17295:0:0:0:0:
320,192,16872,128,0,17041:0:0:0:0:
192,192,16872,128,0,17041:0:0:0:0:
64,192,17041,128,0,17465:0:0:0:0:
320,192,17126,128,0,17465:0:0:0:0:
192,192,17126,128,0,17295:0:0:0:0:
192,192,17380,128,0,17465:0:0:0:0:
448,192,17380,128,0,17465:0:0:0:0:
448,192,17550,128,0,17634:0:0:0:0:
320,192,17550,128,0,17719:0:0:0:0:
64,192,17550,128,0,17973:0:0:0:0:
448,192,17719,128,0,18143:0:0:0:0:
320,192,17804,128,0,17973:0:0:0:0:
192,192,17804,128,0,18143:0:0:0:0:
64,192,18058,128,0,18143:0:0:0:0:
320,192,18058,128,0,18143:0:0:0:0:
64,192,18228,128,0,18651:0:0:0:0:
192,192,18228,128,0,18397:0:0:0:0:
448,192,18228,128,0,18312:0:0:0:0:
448,192,18397,128,0,18821:0:0:0:0:
192,192,18482,128,0,18651:0:0:0:0:
320,192,18482,128,0,18821:0:0:0:0:
64,192,18736,128,0,18821:0:0:0:0:
192,192,18736,128,0,18821:0:0:0:0:
448,192,18906,128,0,19329:0:0:0:0:
320,192,18906,128,0,19160:0:0:0:0:
192,192,19075,128,0,19160:0:0:0:0:
64,192,19160,128,0,19499:0:0:0:0:
192,192,19245,128,0,19499:0:0:0:0:
320,192,19245,128,0,19414:0:0:0:0:
448,192,19414,128,0,19499:0:0:0:0:
320,192,19499,1,0,0:0:0:0:
64,192,19584,128,0,19668:0:0:0:0:
192,192,19584,128,0,19753:0:0:0:0:
64,192,19753,128,0,20177:0:0:0:0:
192,192,19838,128,0,20007:0:0:0:0:
320,192,19838,128,0,20177:0:0:0:0:
448,192,20092,128,0,20177:0:0:0:0:
192,192,20092,128,0,20177:0:0:0:0:
448,192,20262,128,0,20346:0:0:0:0:
320,192,20262,128,0,20431:0:0:0:0:
64,192,20262,128,0,20685:0:0:0:0:
448,192,20431,128,0,20685:0:0:0:0:
192,192,20516,128,0,20855:0:0:0:0:
320,192,20516,128,0,20685:0:0:0:0:
64,192,20770,128,0,20855:0:0:0:0:
320,192,20770,1,0,0:0:0:0:
320,192,20855,1,0,0:0:0:0:
448,192,20939,128,0,22211:0:0:0:0:
64,192,20939,1,0,0:0:0:0:
64,192,21109,1,0,0:0:0:0:
192,192,21194,1,0,0:0:0:0:
64,192,21278,1,0,0:0:0:0:
320,192,21448,1,0,0:0:0:0:
64,192,21448,1,0,0:0:0:0:
64,192,21617,1,0,0:0:0:0:
64,192,21702,1,0,0:0:0:0:
192,192,21787,1,0,0:0:0:0:
320,192,21872,1,0,0:0:0:0:
192,192,21956,1,0,0:0:0:0:
64,192,21956,128,0,22211:0:0:0:0:
64,192,22295,128,0,22550:0:0:0:0:
192,192,22295,128,0,22889:0:0:0:0:
320,192,22465,128,0,22719:0:0:0:0:
64,192,22634,128,0,22889:0:0:0:0:
448,192,22634,128,0,23058:0:0:0:0:
320,192,22804,128,0,23228:0:0:0:0:
192,192,22973,128,0,23228:0:0:0:0:
64,192,22973,128,0,23397:0:0:0:0:
448,192,23143,128,0,23567:0:0:0:0:
320,192,23312,128,0,23567:0:0:0:0:
192,192,23312,128,0,23736:0:0:0:0:
64,192,23482,128,0,23906:0:0:0:0:
320,192,23651,128,0,24245:0:0:0:0:
448,192,23651,128,0,23906:0:0:0:0:
192,192,23821,128,0,24075:0:0:0:0:
448,192,23990,128,0,24245:0:0:0:0:
64,192,23990,128,0,24414:0:0:0:0:
192,192,24160,128,0,24584:0:0:0:0:
320,192,24329,128,0,24584:0:0:0:0:
448,192,24329,128,0,24753:0:0:0:0:
64,192,24499,128,0,24923:0:0:0:0:
192,192,24668,128,0,24923:0:0:0:0:
320,192,24668,128,0,25431:0:0:0:0:
448,192,24838,128,0,25431:0:0:0:0:
192,192,25007,128,0,25262:0:0:0:0:
64,192,25007,128,0,25939:0:0:0:0:
192,192,25346,128,0,25939:0:0:0:0:
320,192,25516,128,0,25770:0:0:0:0:
448,192,25516,128,0,26448:0:0:0:0:
320,192,25855,128,0,26448:0:0:0:0:
192,192,26024,128,0,27295:0:0:0:0:
64,192,26024,128,0,26278:0:0:0:0:
64,192,26363,128,0,26956:0:0:0:0:
448,192,26533,128,0,26787:0:0:0:0:
320,192,26533,128,0,26956:0:0:0:0:
448,192,26872,128,0,27295:0:0:0:0:
320,192,27041,128,0,27634:0:0:0:0:
64,192,27041,128,0,27634:0:0:0:0:
448,192,27380,128,0,27634:0:0:0:0:
192,192,27380,128,0,27634:0:0:0:0:
320,192,27719,128,0,27973:0:0:0:0:
448,192,27719,128,0,28143:0:0:0:0:
192,192,27889,128,0,27973:0:0:0:0:
64,192,27973,128,0,28482:0:0:0:0:
320,192,28058,128,0,28312:0:0:0:0:
192,192,28058,128,0,28651:0:0:0:0:
448,192,28228,128,0,29160:0:0:0:0:
320,192,28397,128,0,28651:0:0:0:0:
64,192,28567,128,0,28821:0:0:0:0:
192,192,28736,128,0,28990:0:0:0:0:
320,192,28736,128,0,29668:0:0:0:0:
64,192,28906,128,0,29329:0:0:0:0:
192,192,29075,128,0,29329:0:0:0:0:
448,192,29245,128,0,30007:0:0:0:0:
192,192,29414,128,0,29499:0:0:0:0:
64,192,29414,128,0,30516:0:0:0:0:
192,192,29584,128,0,29668:0:0:0:0:
192,192,29753,128,0,30346:0:0:0:0:
320,192,29753,128,0,29838:0:0:0:0:
320,192,29923,128,0,30007:0:0:0:0:
448,192,30092,128,0,30177:0:0:0:0:
320,192,30092,128,0,30346:0:0:0:0:
448,192,30262,128,0,30685:0:0:0:0:
320,192,30431,128,0,30685:0:0:0:0:
192,192,30431,128,0,31024:0:0:0:0:
64,192,30601,128,0,31363:0:0:0:0:
448,192,30770,128,0,31702:0:0:0:0:
320,192,30770,128,0,30855:0:0:0:0:
320,192,30939,128,0,31024:0:0:0:0:
320,192,31109,128,0,32380:0:0:0:0:
192,192,31109,128,0,31194:0:0:0:0:
192,192,31278,128,0,31363:0:0:0:0:
192,192,31448,128,0,32041:0:0:0:0:
64,192,31448,128,0,31533:0:0:0:0:
64,192,31617,128,0,31702:0:0:0:0:
64,192,31787,128,0,32719:0:0:0:0:
448,192,31787,128,0,31872:0:0:0:0:
448,192,31956,128,0,32041:0:0:0:0:
192,192,32126,128,0,32211:0:0:0:0:
448,192,32126,128,0,33058:0:0:0:0:
192,192,32295,128,0,32380:0:0:0:0:
320,192,32465,128,0,32550:0:0:0:0:
192,192,32465,128,0,32719:0:0:0:0:
320,192,32634,128,0,33058:0:0:0:0:
64,192,32804,128,0,32889:0:0:0:0:
192,192,32804,128,0,32889:0:0:0:0:
64,192,32973,128,0,33058:0:0:0:0:
192,192,32973,128,0,33058:0:0:0:0:
192,192,33143,128,0,33397:0:0:0:0:
64,192,33143,128,0,33736:0:0:0:0:
320,192,33312,128,0,33567:0:0:0:0:
192,192,33482,128,0,33906:0:0:0:0:
448,192,33482,128,0,33736:0:0:0:0:
320,192,33651,128,0,34075:0:0:0:0:
448,192,33821,128,0,34075:0:0:0:0:
64,192,33821,128,0,34245:0:0:0:0:
192,192,33990,128,0,34414:0:0:0:0:
320,192,34160,128,0,34584:0:0:0:0:
448,192,34160,128,0,34414:0:0:0:0:
64,192,34329,128,0,34753:0:0:0:0:
192,192,34499,128,0,34668:0:0:0:0:
448,192,34499,128,0,34753:0:0:0:0:
320,192,34668,128,0,34923:0:0:0:0:
192,192,34753,128,0,35092:0:0:0:0:
64,192,34838,128,0,35092:0:0:0:0:
448,192,34838,128,0,35177:0:0:0:0:
320,192,35007,128,0,35177:0:0:0:0:
64,192,35177,128,0,35262:0:0:0:0:
192,192,35177,128,0,35262:0:0:0:0:
320,192,35262,128,0,35346:0:0:0:0:
448,192,35262,128,0,35346:0:0:0:0:
64,192,35346,128,0,35431:0:0:0:0:
192,192,35346,128,0,35431:0:0:0:0:
320,192,35431,128,0,35685:0:0:0:0:
448,192,35431,128,0,35601:0:0:0:0:
64,192,35516,128,0,35770:0:0:0:0:
192,192,35516,128,0,35770:0:0:0:0:
448,192,35685,128,0,36109:0:0:0:0:
320,192,35770,128,0,36109:0:0:0:0:
64,192,35855,128,0,35939:0:0:0:0:
192,192,35855,128,0,36024:0:0:0:0:
64,192,36024,128,0,36448:0:0:0:0:
192,192,36109,128,0,36617:0:0:0:0:
320,192,36194,128,0,36448:0:0:0:0:
448,192,36194,128,0,36617:0:0:0:0:
64,192,36533,128,0,37295:0:0:0:0:
320,192,36533,128,0,36956:0:0:0:0:
448,192,36702,128,0,37126:0:0:0:0:
192,192,36702,128,0,37295:0:0:0:0:
320,192,37041,128,0,37465:0:0:0:0:
448,192,37211,128,0,37804:0:0:0:0:
64,192,37380,128,0,37465:0:0:0:0:
192,192,37380,128,0,37465:0:0:0:0:
192,192,37550,128,0,37804:0:0:0:0:
320,192,37550,128,0,37889:0:0:0:0:
64,192,37550,128,0,38058:0:0:0:0:
192,192,37889,128,0,37973:0:0:0:0:
448,192,37889,128,0,38143:0:0:0:0:
320,192,37973,128,0,38058:0:0:0:0:
192,192,38058,128,0,38143:0:0:0:0:
320,192,38143,128,0,38482:0:0:0:0:
64,192,38143,128,0,38482:0:0:0:0:
448,192,38228,128,0,38482:0:0:0:0:
192,192,38228,128,0,38482:0:0:0:0:
192,192,38567,128,0,38736:0:0:0:0:
320,192,38567,128,0,38736:0:0:0:0:
448,192,38567,128,0,38651:0:0:0:0:
448,192,38736,128,0,39160:0:0:0:0:
320,192,38821,128,0,39160:0:0:0:0:
192,192,38821,128,0,38990:0:0:0:0:
64,192,39075,128,0,39160:0:0:0:0:
192,192,39075,128,0,39160:0:0:0:0:
64,192,39245,128,0,39329:0:0:0:0:
192,192,39245,128,0,39414:0:0:0:0:
320,192,39245,128,0,39414:0:0:0:0:
64,192,39414,128,0,39838:0:0:0:0:
192,192,39499,128,0,39838:0:0:0:0:
320,192,39499,128,0,39668:0:0:0:0:
320,192,39753,128,0,39838:0:0:0:0:
448,192,39753,128,0,39838:0:0:0:0:
448,192,39923,128,0,40007:0:0:0:0:
192,192,39923,128,0,40092:0:0:0:0:
320,192,39923,128,0,40092:0:0:0:0:
448,192,40092,128,0,40516:0:0:0:0:
192,192,40177,128,0,40346:0:0:0:0:
320,192,40177,128,0,40516:0:0:0:0:
64,192,40431,128,0,40516:0:0:0:0:
192,192,40431,128,0,40516:0:0:0:0:
64,192,40601,128,0,40855:0:0:0:0:
192,192,40601,128,0,40855:0:0:0:0:
320,192,40601,128,0,40685:0:0:0:0:
448,192,40601,128,0,40685:0:0:0:0:
320,192,40770,128,0,40855:0:0:0:0:
448,192,40770,128,0,40855:0:0:0:0:
64,192,40939,128,0,41024:0:0:0:0:
192,192,40939,128,0,41024:0:0:0:0:
320,192,40939,128,0,41194:0:0:0:0:
448,192,40939,128,0,41194:0:0:0:0:
64,192,41109,128,0,41194:0:0:0:0:
192,192,41109,128,0,41194:0:0:0:0:
64,192,41278,128,0,41363:0:0:0:0:
192,192,41278,128,0,41448:0:0:0:0:
320,192,41278,128,0,41448:0:0:0:0:
64,192,41448,128,0,41872:0:0:0:0:
320,192,41533,128,0,41702:0:0:0:0:
192,192,41533,128,0,41872:0:0:0:0:
320,192,41787,128,0,41872:0:0:0:0:
448,192,41787,128,0,41872:0:0:0:0:
320,192,41956,128,0,42126:0:0:0:0:
448,192,41956,128,0,42041:0:0:0:0:
192,192,41956,128,0,42126:0:0:0:0:
448,192,42126,128,0,42550:0:0:0:0:
320,192,42211,128,0,42550:0:0:0:0:
192,192,42211,128,0,42380:0:0:0:0:
64,192,42465,128,0,42550:0:0:0:0:
192,192,42465,128,0,42550:0:0:0:0:
64,192,42634,128,0,42889:0:0:0:0:
192,192,42634,128,0,42804:0:0:0:0:
448,192,42804,128,0,43228:0:0:0:0:
192,192,42889,128,0,43058:0:0:0:0:
320,192,42889,128,0,43058:0:0:0:0:
64,192,42973,128,0,43228:0:0:0:0:
192,192,43143,128,0,43906:0:0:0:0:
320,192,43143,128,0,43567:0:0:0:0:
448,192,43312,128,0,43651:0:0:0:0:
64,192,43312,128,0,43906:0:0:0:0:
320,192,43651,128,0,43736:0:0:0:0:
448,192,43736,128,0,43821:0:0:0:0:
320,192,43821,128,0,43990:0:0:0:0:
448,192,43906,128,0,43990:0:0:0:0:
64,192,43990,1,0,0:0:0:0:
192,192,43990,1,0,0:0:0:0:
64,192,46702,128,0,49329:0:0:0:0:
448,192,48058,128,0,51956:0:0:0:0:
320,192,48567,128,0,51872:0:0:0:0:
192,192,49075,128,0,51787:0:0:0:0:
64,192,49414,128,0,51702:0:0:0:0:
64,192,51787,128,0,52041:0:0:0:0:
192,192,51872,128,0,52041:0:0:0:0:
320,192,51956,128,0,53906:0:0:0:0:
448,192,52041,128,0,53397:0:0:0:0:
64,192,52126,128,0,53567:0:0:0:0:
192,192,52126,128,0,53397:0:0:0:0:
192,192,53482,128,0,53906:0:0:0:0:
448,192,53482,128,0,54075:0:0:0:0:
64,192,53651,128,0,54414:0:0:0:0:
320,192,53990,128,0,54414:0:0:0:0:
192,192,53990,128,0,54584:0:0:0:0:
448,192,54160,128,0,56109:0:0:0:0:
320,192,54499,128,0,54753:0:0:0:0:
64,192,54499,128,0,54951:0:0:0:0:
192,192,54668,128,0,54838:0:0:0:0:
320,192,54838,128,0,55064:0:0:0:0:
192,192,54951,128,0,55177:0:0:0:0:
64,192,55064,128,0,55290:0:0:0:0:
320,192,55177,128,0,55403:0:0:0:0:
192,192,55290,128,0,55516:0:0:0:0:
64,192,55403,128,0,55629:0:0:0:0:
320,192,55516,128,0,55742:0:0:0:0:
192,192,55629,128,0,55855:0:0:0:0:
64,192,55742,128,0,55968:0:0:0:0:
320,192,55855,128,0,56194:0:0:0:0:
192,192,55968,128,0,56307:0:0:0:0:
64,192,56081,128,0,57437:0:0:0:0:
448,192,56194,128,0,56420:0:0:0:0:
320,192,56307,128,0,56533:0:0:0:0:
192,192,56420,128,0,56646:0:0:0:0:
448,192,56533,128,0,56759:0:0:0:0:
320,192,56646,128,0,56872:0:0:0:0:
192,192,56759,128,0,56985:0:0:0:0:
448,192,56872,128,0,57098:0:0:0:0:
320,192,56985,128,0,57211:0:0:0:0:
192,192,57098,128,0,57324:0:0:0:0:
448,192,57211,128,0,57437:0:0:0:0:
320,192,57324,128,0,57437:0:0:0:0:
192,192,57437,1,0,0:0:0:0:
320,192,57550,128,0,58482:0:0:0:0:
448,192,57550,128,0,57634:0:0:0:0:
448,192,57719,128,0,58990:0:0:0:0:
192,192,58058,128,0,58990:0:0:0:0:
64,192,58058,128,0,58143:0:0:0:0:
64,192,58228,128,0,58482:0:0:0:0:
320,192,58567,128,0,58651:0:0:0:0:
64,192,58567,128,0,59838:0:0:0:0:
320,192,58736,128,0,59499:0:0:0:0:
192,192,59075,128,0,59160:0:0:0:0:
448,192,59075,128,0,59499:0:0:0:0:
192,192,59245,128,0,59499:0:0:0:0:
192,192,59584,128,0,59838:0:0:0:0:
320,192,59584,128,0,59838:0:0:0:0:
448,192,59584,128,0,60177:0:0:0:0:
64,192,59923,128,0,60177:0:0:0:0:
192,192,59923,128,0,60177:0:0:0:0:
320,192,59923,128,0,60177:0:0:0:0:
64,192,60262,128,0,60346:0:0:0:0:
192,192,60262,128,0,60685:0:0:0:0:
64,192,60431,128,0,61702:0:0:0:0:
192,192,60770,128,0,60855:0:0:0:0:
320,192,60770,128,0,61194:0:0:0:0:
192,192,60939,128,0,62211:0:0:0:0:
320,192,61278,128,0,61363:0:0:0:0:
448,192,61278,128,0,61702:0:0:0:0:
320,192,61448,128,0,62211:0:0:0:0:
64,192,61787,128,0,62211:0:0:0:0:
448,192,61787,128,0,61872:0:0:0:0:
448,192,61956,128,0,62550:0:0:0:0:
64,192,62295,128,0,62889:0:0:0:0:
192,192,62295,128,0,62550:0:0:0:0:
320,192,62295,128,0,62550:0:0:0:0:
192,192,62634,128,0,62889:0:0:0:0:
320,192,62634,128,0,62889:0:0:0:0:
448,192,62634,128,0,62889:0:0:0:0:
320,192,62973,128,0,63228:0:0:0:0:
448,192,62973,128,0,63906:0:0:0:0:
192,192,63143,128,0,63397:0:0:0:0:
320,192,63312,128,0,63567:0:0:0:0:
64,192,63482,128,0,63736:0:0:0:0:
192,192,63482,128,0,63906:0:0:0:0:
320,192,63651,128,0,64414:0:0:0:0:
64,192,63821,128,0,64075:0:0:0:0:
448,192,63990,128,0,64245:0:0:0:0:
192,192,63990,128,0,64923:0:0:0:0:
64,192,64160,128,0,64414:0:0:0:0:
448,192,64329,128,0,64584:0:0:0:0:
320,192,64499,128,0,64923:0:0:0:0:
64,192,64499,128,0,64753:0:0:0:0:
448,192,64668,128,0,64923:0:0:0:0:
64,192,64838,128,0,65262:0:0:0:0:
320,192,65007,128,0,65262:0:0:0:0:
448,192,65007,128,0,65601:0:0:0:0:
192,192,65007,128,0,65262:0:0:0:0:
64,192,65346,128,0,65601:0:0:0:0:
192,192,65346,128,0,65601:0:0:0:0:
320,192,65346,128,0,65601:0:0:0:0:
64,192,65685,128,0,66278:0:0:0:0:
192,192,65685,128,0,66109:0:0:0:0:
320,192,65855,128,0,66109:0:0:0:0:
448,192,66024,128,0,66617:0:0:0:0:
192,192,66194,128,0,66448:0:0:0:0:
320,192,66194,128,0,66617:0:0:0:0:
64,192,66363,128,0,66956:0:0:0:0:
192,192,66533,128,0,66787:0:0:0:0:
320,192,66702,128,0,67126:0:0:0:0:
448,192,66702,128,0,67295:0:0:0:0:
192,192,66872,128,0,67126:0:0:0:0:
64,192,67041,128,0,67634:0:0:0:0:
192,192,67211,128,0,67634:0:0:0:0:
320,192,67211,128,0,67465:0:0:0:0:
448,192,67380,128,0,67634:0:0:0:0:
320,192,67550,128,0,67973:0:0:0:0:
448,192,67719,128,0,67973:0:0:0:0:
64,192,67719,128,0,67973:0:0:0:0:
192,192,67719,128,0,68312:0:0:0:0:
64,192,68058,128,0,68312:0:0:0:0:
320,192,68058,128,0,68397:0:0:0:0:
448,192,68058,128,0,68397:0:0:0:0:
64,192,68397,1,0,0:0:0:0:
192,192,68397,1,0,0:0:0:0:
320,192,69075,5,0,0:0:0:0:
448,192,69075,1,0,0:0:0:0:
320,192,69245,1,0,0:0:0:0:
448,192,69245,1,0,0:0:0:0:
64,192,69753,128,0,69838:0:0:0:0:
192,192,69753,128,0,69923:0:0:0:0:
320,192,69753,128,0,70177:0:0:0:0:
64,192,69923,128,0,70346:0:0:0:0:
192,192,70007,128,0,70346:0:0:0:0:
448,192,70177,128,0,70346:0:0:0:0:
320,192,70262,128,0,70346:0:0:0:0:
192,192,70431,128,0,70855:0:0:0:0:
320,192,70431,128,0,70601:0:0:0:0:
448,192,70431,128,0,70516:0:0:0:0:
448,192,70601,128,0,71024:0:0:0:0:
320,192,70685,128,0,71024:0:0:0:0:
64,192,70855,128,0,71024:0:0:0:0:
192,192,70939,128,0,71024:0:0:0:0:
64,192,71109,128,0,71702:0:0:0:0:
192,192,71109,128,0,71448:0:0:0:0:
320,192,71109,128,0,71194:0:0:0:0:
320,192,71278,128,0,71533:0:0:0:0:
448,192,71363,128,0,71702:0:0:0:0:
192,192,71533,128,0,71702:0:0:0:0:
320,192,71617,128,0,71702:0:0:0:0:
64,192,71787,128,0,72041:0:0:0:0:
448,192,71787,128,0,71956:0:0:0:0:
192,192,71872,128,0,72041:0:0:0:0:
320,192,71956,128,0,72126:0:0:0:0:
448,192,72041,128,0,72211:0:0:0:0:
64,192,72126,128,0,72380:0:0:0:0:
192,192,72126,128,0,72380:0:0:0:0:
320,192,72211,128,0,72295:0:0:0:0:
448,192,72295,128,0,72380:0:0:0:0:
320,192,72380,1,0,0:0:0:0:
448,192,72465,128,0,72550:0:0:0:0:
320,192,72465,128,0,72634:0:0:0:0:
192,192,72465,128,0,72889:0:0:0:0:
448,192,72634,128,0,73058:0:0:0:0:
320,192,72719,128,0,73058:0:0:0:0:
64,192,72889,128,0,73058:0:0:0:0:
192,192,72973,128,0,73058:0:0:0:0:
320,192,73143,128,0,73567:0:0:0:0:
192,192,73143,128,0,73312:0:0:0:0:
64,192,73143,128,0,73228:0:0:0:0:
64,192,73312,128,0,73736:0:0:0:0:
192,192,73397,128,0,73736:0:0:0:0:
448,192,73567,128,0,73736:0:0:0:0:
320,192,73651,128,0,73736:0:0:0:0:
320,192,73821,128,0,74160:0:0:0:0:
448,192,73821,128,0,74414:0:0:0:0:
192,192,73821,128,0,73906:0:0:0:0:
192,192,73990,128,0,74245:0:0:0:0:
64,192,74075,128,0,74414:0:0:0:0:
320,192,74245,128,0,74414:0:0:0:0:
192,192,74329,128,0,74414:0:0:0:0:
448,192,74499,128,0,75092:0:0:0:0:
320,192,74499,128,0,74753:0:0:0:0:
64,192,74668,128,0,74923:0:0:0:0:
192,192,74838,128,0,75092:0:0:0:0:
320,192,74838,128,0,75092:0:0:0:0:
64,192,75007,128,0,75092:0:0:0:0:
64,192,75177,128,0,75346:0:0:0:0:
448,192,75177,128,0,75770:0:0:0:0:
192,192,75346,128,0,75601:0:0:0:0:
64,192,75431,128,0,75770:0:0:0:0:
320,192,75601,128,0,75770:0:0:0:0:
192,192,75685,128,0,75770:0:0:0:0:
448,192,75855,128,0,76024:0:0:0:0:
64,192,75855,128,0,76448:0:0:0:0:
320,192,76024,128,0,76278:0:0:0:0:
448,192,76109,128,0,76448:0:0:0:0:
320,192,76363,128,0,76448:0:0:0:0:
192,192,76448,1,0,0:0:0:0:
64,192,76533,128,0,77126:0:0:0:0:
448,192,76533,128,0,76872:0:0:0:0:
320,192,76702,128,0,76956:0:0:0:0:
192,192,76787,128,0,77126:0:0:0:0:
448,192,76956,128,0,77126:0:0:0:0:
320,192,77041,128,0,77126:0:0:0:0:
64,192,77211,128,0,77465:0:0:0:0:
192,192,77295,128,0,77465:0:0:0:0:
320,192,77380,128,0,77634:0:0:0:0:
448,192,77465,128,0,77550:0:0:0:0:
64,192,77550,128,0,77804:0:0:0:0:
192,192,77550,128,0,77719:0:0:0:0:
448,192,77634,128,0,77804:0:0:0:0:
320,192,77719,128,0,77804:0:0:0:0:
192,192,77804,1,0,0:0:0:0:
64,192,77889,128,0,78058:0:0:0:0:
448,192,77889,128,0,78228:0:0:0:0:
320,192,78058,128,0,78482:0:0:0:0:
64,192,78143,128,0,78482:0:0:0:0:
448,192,78312,128,0,78482:0:0:0:0:
192,192,78397,128,0,78482:0:0:0:0:
64,192,78567,128,0,78906:0:0:0:0:
448,192,78567,128,0,78736:0:0:0:0:
192,192,78736,128,0,79075:0:0:0:0:
448,192,78821,128,0,79160:0:0:0:0:
64,192,78990,128,0,79160:0:0:0:0:
320,192,79075,128,0,79160:0:0:0:0:
192,192,79160,1,0,0:0:0:0:
64,192,79245,128,0,79414:0:0:0:0:
320,192,79245,1,0,0:0:0:0:
448,192,79245,1,0,0:0:0:0:
192,192,79414,1,0,0:0:0:0:
64,192,79499,1,0,0:0:0:0:
320,192,79584,1,0,0:0:0:0:
448,192,79584,1,0,0:0:0:0:
192,192,79753,1,0,0:0:0:0:
320,192,79923,128,0,80092:0:0:0:0:
64,192,79923,1,0,0:0:0:0:
448,192,79923,1,0,0:0:0:0:
448,192,80177,1,0,0:0:0:0:
64,192,80262,1,0,0:0:0:0:
192,192,80262,1,0,0:0:0:0:
448,192,80431,1,0,0:0:0:0:
64,192,80601,128,0,81024:0:0:0:0:
192,192,80601,128,0,80855:0:0:0:0:
448,192,80855,128,0,81194:0:0:0:0:
320,192,80939,128,0,81194:0:0:0:0:
192,192,80939,128,0,81533:0:0:0:0:
64,192,81109,128,0,81448:0:0:0:0:
320,192,81278,128,0,81533:0:0:0:0:
448,192,81278,128,0,81702:0:0:0:0:
64,192,81533,128,0,81872:0:0:0:0:
192,192,81617,128,0,81872:0:0:0:0:
320,192,81617,128,0,82211:0:0:0:0:
448,192,81787,1,0,0:0:0:0:
448,192,81872,128,0,82126:0:0:0:0:
192,192,81956,128,0,82211:0:0:0:0:
64,192,81956,128,0,82380:0:0:0:0:
448,192,82211,128,0,82550:0:0:0:0:
192,192,82295,128,0,82550:0:0:0:0:
320,192,82295,128,0,82550:0:0:0:0:
64,192,82465,128,0,82550:0:0:0:0:
192,192,82634,128,0,82719:0:0:0:0:
448,192,82634,128,0,82889:0:0:0:0:
320,192,82719,128,0,82889:0:0:0:0:
192,192,82804,128,0,82973:0:0:0:0:
64,192,82889,128,0,83228:0:0:0:0:
320,192,82973,128,0,83058:0:0:0:0:
448,192,82973,128,0,83143:0:0:0:0:
192,192,83058,128,0,83228:0:0:0:0:
320,192,83143,128,0,83228:0:0:0:0:
448,192,83228,1,0,0:0:0:0:
64,192,83312,128,0,83906:0:0:0:0:
192,192,83312,128,0,83567:0:0:0:0:
320,192,83567,128,0,83736:0:0:0:0:
192,192,83651,128,0,84160:0:0:0:0:
448,192,83651,128,0,83906:0:0:0:0:
320,192,83821,128,0,84245:0:0:0:0:
448,192,83990,128,0,84584:0:0:0:0:
64,192,83990,128,0,84245:0:0:0:0:
192,192,84245,128,0,84414:0:0:0:0:
320,192,84329,128,0,84584:0:0:0:0:
64,192,84329,128,0,84838:0:0:0:0:
192,192,84499,1,0,0:0:0:0:
192,192,84584,128,0,84923:0:0:0:0:
320,192,84668,128,0,84923:0:0:0:0:
448,192,84668,128,0,85262:0:0:0:0:
64,192,84923,128,0,85092:0:0:0:0:
192,192,85007,128,0,85262:0:0:0:0:
320,192,85007,128,0,85262:0:0:0:0:
64,192,85177,128,0,85262:0:0:0:0:
448,192,85346,128,0,85939:0:0:0:0:
320,192,85346,128,0,85601:0:0:0:0:
192,192,85516,128,0,85939:0:0:0:0:
320,192,85685,128,0,85939:0:0:0:0:
64,192,85685,128,0,85939:0:0:0:0:
64,192,86024,128,0,86194:0:0:0:0:
192,192,86024,128,0,86194:0:0:0:0:
320,192,86024,128,0,86109:0:0:0:0:
320,192,86194,128,0,86617:0:0:0:0:
192,192,86278,128,0,86617:0:0:0:0:
64,192,86278,128,0,87126:0:0:0:0:
448,192,86533,128,0,86617:0:0:0:0:
192,192,86702,128,0,86787:0:0:0:0:
320,192,86702,128,0,86872:0:0:0:0:
448,192,86702,128,0,86872:0:0:0:0:
192,192,86872,128,0,87295:0:0:0:0:
320,192,86956,128,0,87295:0:0:0:0:
448,192,86956,128,0,87211:0:0:0:0:
64,192,87211,128,0,87295:0:0:0:0:
448,192,87295,128,0,87550:0:0:0:0:
320,192,87380,128,0,87550:0:0:0:0:
192,192,87380,128,0,87465:0:0:0:0:
64,192,87380,128,0,87804:0:0:0:0:
192,192,87550,128,0,87973:0:0:0:0:
320,192,87634,128,0,87973:0:0:0:0:
448,192,87634,128,0,87973:0:0:0:0:
64,192,87889,128,0,87973:0:0:0:0:
192,192,88058,128,0,88143:0:0:0:0:
448,192,88058,128,0,88312:0:0:0:0:
320,192,88143,128,0,88397:0:0:0:0:
192,192,88228,128,0,88312:0:0:0:0:
64,192,88312,128,0,88567:0:0:0:0:
448,192,88397,128,0,88651:0:0:0:0:
192,192,88397,128,0,88482:0:0:0:0:
320,192,88482,128,0,88651:0:0:0:0:
192,192,88567,128,0,88651:0:0:0:0:
64,192,88651,1,0,0:0:0:0:
192,192,88736,128,0,88906:0:0:0:0:
320,192,88736,128,0,88906:0:0:0:0:
448,192,88736,128,0,89160:0:0:0:0:
64,192,88906,128,0,89329:0:0:0:0:
320,192,88990,128,0,89329:0:0:0:0:
192,192,88990,128,0,89329:0:0:0:0:
448,192,89245,128,0,89499:0:0:0:0:
320,192,89414,128,0,89584:0:0:0:0:
192,192,89414,128,0,89584:0:0:0:0:
64,192,89414,128,0,89838:0:0:0:0:
448,192,89584,128,0,90007:0:0:0:0:
192,192,89668,128,0,90007:0:0:0:0:
320,192,89668,128,0,90007:0:0:0:0:
64,192,89923,1,0,0:0:0:0:
64,192,90007,1,0,0:0:0:0:
320,192,90092,1,0,0:0:0:0:
448,192,90092,1,0,0:0:0:0:
192,192,90262,128,0,90431:0:0:0:0:
64,192,90601,1,0,0:0:0:0:
192,192,90601,128,0,90685:0:0:0:0:
320,192,90770,128,0,90939:0:0:0:0:
192,192,90770,128,0,90939:0:0:0:0:
448,192,91024,1,0,0:0:0:0:
320,192,91024,128,0,91109:0:0:0:0:
448,192,91278,1,0,0:0:0:0:
320,192,91278,128,0,91363:0:0:0:0:
64,192,91448,128,0,91533:0:0:0:0:
192,192,91448,128,0,91617:0:0:0:0:
320,192,91448,128,0,91617:0:0:0:0:
64,192,91617,128,0,92041:0:0:0:0:
192,192,91702,128,0,91787:0:0:0:0:
320,192,91702,128,0,91872:0:0:0:0:
192,192,91872,128,0,92041:0:0:0:0:
320,192,91956,128,0,92041:0:0:0:0:
448,192,91956,128,0,92041:0:0:0:0:
192,192,92126,128,0,92295:0:0:0:0:
320,192,92126,128,0,92295:0:0:0:0:
448,192,92126,128,0,92211:0:0:0:0:
448,192,92295,128,0,92719:0:0:0:0:
320,192,92380,128,0,92465:0:0:0:0:
192,192,92380,128,0,92550:0:0:0:0:
320,192,92550,128,0,92719:0:0:0:0:
64,192,92634,128,0,92719:0:0:0:0:
192,192,92634,128,0,92719:0:0:0:0:
64,192,92804,128,0,92889:0:0:0:0:
192,192,92804,128,0,92973:0:0:0:0:
320,192,92804,128,0,92973:0:0:0:0:
64,192,92973,128,0,93397:0:0:0:0:
192,192,93058,128,0,93143:0:0:0:0:
320,192,93058,128,0,93228:0:0:0:0:
192,192,93228,128,0,93397:0:0:0:0:
320,192,93312,128,0,93397:0:0:0:0:
448,192,93312,128,0,93397:0:0:0:0:
192,192,93482,128,0,93567:0:0:0:0:
448,192,93482,128,0,93567:0:0:0:0:
64,192,93482,128,0,93736:0:0:0:0:
320,192,93567,128,0,93651:0:0:0:0:
192,192,93651,128,0,93736:0:0:0:0:
448,192,93651,128,0,94075:0:0:0:0:
320,192,93736,128,0,93821:0:0:0:0:
64,192,93821,128,0,93906:0:0:0:0:
192,192,93821,128,0,93906:0:0:0:0:
320,192,93906,128,0,93990:0:0:0:0:
64,192,93990,128,0,94075:0:0:0:0:
192,192,93990,128,0,94075:0:0:0:0:
320,192,94075,128,0,94160:0:0:0:0:
64,192,94160,128,0,94584:0:0:0:0:
192,192,94160,128,0,94329:0:0:0:0:
448,192,94160,128,0,94245:0:0:0:0:
448,192,94329,128,0,94753:0:0:0:0:
192,192,94414,128,0,94584:0:0:0:0:
320,192,94414,128,0,94499:0:0:0:0:
320,192,94584,128,0,94753:0:0:0:0:
64,192,94668,128,0,94753:0:0:0:0:
192,192,94668,128,0,94753:0:0:0:0:
64,192,94838,128,0,94923:0:0:0:0:
320,192,94838,128,0,95007:0:0:0:0:
448,192,94838,128,0,95262:0:0:0:0:
64,192,95007,128,0,95431:0:0:0:0:
192,192,95092,128,0,95177:0:0:0:0:
320,192,95092,128,0,95262:0:0:0:0:
192,192,95262,128,0,95431:0:0:0:0:
320,192,95346,128,0,95431:0:0:0:0:
448,192,95346,128,0,95431:0:0:0:0:
448,192,95516,128,0,95601:0:0:0:0:
64,192,95516,128,0,95939:0:0:0:0:
192,192,95516,128,0,95685:0:0:0:0:
448,192,95685,128,0,96109:0:0:0:0:
192,192,95770,128,0,95939:0:0:0:0:
320,192,95770,128,0,95855:0:0:0:0:
320,192,95939,128,0,96109:0:0:0:0:
64,192,96024,128,0,96109:0:0:0:0:
192,192,96024,128,0,96109:0:0:0:0:
192,192,96194,128,0,96278:0:0:0:0:
320,192,96194,128,0,96363:0:0:0:0:
64,192,96194,128,0,96787:0:0:0:0:
192,192,96363,128,0,96533:0:0:0:0:
320,192,96448,128,0,96617:0:0:0:0:
448,192,96448,128,0,96617:0:0:0:0:
192,192,96617,128,0,96787:0:0:0:0:
320,192,96702,128,0,96787:0:0:0:0:
448,192,96702,128,0,96787:0:0:0:0:
192,192,96872,128,0,97041:0:0:0:0:
320,192,96872,128,0,96956:0:0:0:0:
64,192,96872,128,0,97295:0:0:0:0:
320,192,97041,128,0,97211:0:0:0:0:
192,192,97126,128,0,97295:0:0:0:0:
448,192,97126,128,0,97465:0:0:0:0:
320,192,97295,128,0,97465:0:0:0:0:
192,192,97380,128,0,97465:0:0:0:0:
64,192,97380,128,0,97465:0:0:0:0:
192,192,97550,128,0,97634:0:0:0:0:
320,192,97550,128,0,97719:0:0:0:0:
448,192,97550,128,0,97973:0:0:0:0:
192,192,97719,128,0,97889:0:0:0:0:
64,192,97804,128,0,98143:0:0:0:0:
320,192,97804,128,0,97973:0:0:0:0:
192,192,97973,128,0,98143:0:0:0:0:
320,192,98058,128,0,98143:0:0:0:0:
448,192,98058,128,0,98143:0:0:0:0:
64,192,98228,128,0,98397:0:0:0:0:
192,192,98228,128,0,98651:0:0:0:0:
448,192,98228,128,0,98312:0:0:0:0:
448,192,98397,128,0,98651:0:0:0:0:
64,192,98482,128,0,98567:0:0:0:0:
320,192,98482,128,0,98821:0:0:0:0:
64,192,98651,128,0,98821:0:0:0:0:
448,192,98736,128,0,98821:0:0:0:0:
192,192,98736,128,0,98821:0:0:0:0:
320,192,98906,128,0,98990:0:0:0:0:
448,192,98906,128,0,99160:0:0:0:0:
64,192,98906,128,0,98990:0:0:0:0:
192,192,98990,128,0,99075:0:0:0:0:
320,192,99075,128,0,99245:0:0:0:0:
64,192,99075,128,0,99160:0:0:0:0:
192,192,99160,128,0,99329:0:0:0:0:
64,192,99245,128,0,99499:0:0:0:0:
448,192,99245,128,0,99329:0:0:0:0:
320,192,99329,128,0,99414:0:0:0:0:
192,192,99414,128,0,99499:0:0:0:0:
448,192,99414,128,0,99499:0:0:0:0:
320,192,99499,1,0,0:0:0:0:
192,192,99584,128,0,99753:0:0:0:0:
320,192,99584,128,0,99753:0:0:0:0:
448,192,99584,128,0,99668:0:0:0:0:
448,192,99753,128,0,100177:0:0:0:0:
192,192,99838,128,0,100007:0:0:0:0:
320,192,99838,128,0,100177:0:0:0:0:
64,192,100092,128,0,100177:0:0:0:0:
192,192,100092,128,0,100177:0:0:0:0:
64,192,100262,128,0,100346:0:0:0:0:
192,192,100262,128,0,100431:0:0:0:0:
320,192,100262,128,0,100431:0:0:0:0:
64,192,100431,128,0,100855:0:0:0:0:
192,192,100516,128,0,100855:0:0:0:0:
320,192,100516,128,0,100685:0:0:0:0:
320,192,100770,128,0,100855:0:0:0:0:
448,192,100770,128,0,100855:0:0:0:0:
192,192,100939,128,0,101194:0:0:0:0:
64,192,100939,128,0,101533:0:0:0:0:
448,192,101109,128,0,101533:0:0:0:0:
320,192,101194,128,0,101363:0:0:0:0:
192,192,101278,128,0,101533:0:0:0:0:
320,192,101448,128,0,101533:0:0:0:0:
192,192,101617,128,0,101872:0:0:0:0:
448,192,101617,128,0,101787:0:0:0:0:
448,192,101872,128,0,102041:0:0:0:0:
64,192,101956,128,0,102211:0:0:0:0:
192,192,101956,128,0,102211:0:0:0:0:
448,192,102126,128,0,102211:0:0:0:0:
64,192,102295,128,0,102550:0:0:0:0:
192,192,102295,128,0,102380:0:0:0:0:
320,192,102295,128,0,102465:0:0:0:0:
192,192,102465,128,0,102719:0:0:0:0:
320,192,102550,128,0,102889:0:0:0:0:
448,192,102550,128,0,102719:0:0:0:0:
64,192,102634,128,0,102889:0:0:0:0:
192,192,102804,128,0,102889:0:0:0:0:
448,192,102804,128,0,103058:0:0:0:0:
64,192,102973,128,0,103228:0:0:0:0:
192,192,102973,128,0,103143:0:0:0:0:
320,192,102973,128,0,103143:0:0:0:0:
448,192,103143,128,0,103397:0:0:0:0:
192,192,103228,128,0,103397:0:0:0:0:
320,192,103228,128,0,103567:0:0:0:0:
64,192,103312,128,0,103567:0:0:0:0:
448,192,103482,128,0,103567:0:0:0:0:
192,192,103482,128,0,103821:0:0:0:0:
64,192,103651,128,0,103736:0:0:0:0:
320,192,103651,128,0,103821:0:0:0:0:
448,192,103651,128,0,103906:0:0:0:0:
64,192,103821,128,0,104075:0:0:0:0:
192,192,103906,128,0,104329:0:0:0:0:
320,192,103906,128,0,104075:0:0:0:0:
448,192,103990,128,0,104245:0:0:0:0:
64,192,104160,128,0,104329:0:0:0:0:
320,192,104160,128,0,104245:0:0:0:0:
320,192,104329,128,0,104414:0:0:0:0:
448,192,104329,128,0,104414:0:0:0:0:
64,192,104414,128,0,104499:0:0:0:0:
192,192,104414,128,0,104499:0:0:0:0:
320,192,104499,128,0,104584:0:0:0:0:
448,192,104499,128,0,104584:0:0:0:0:
192,192,104584,128,0,104668:0:0:0:0:
64,192,104584,128,0,104753:0:0:0:0:
320,192,104668,128,0,104753:0:0:0:0:
448,192,104668,128,0,104753:0:0:0:0:
192,192,104753,128,0,104838:0:0:0:0:
320,192,104838,128,0,104923:0:0:0:0:
448,192,104838,128,0,104923:0:0:0:0:
64,192,104838,128,0,104923:0:0:0:0:
192,192,104923,1,0,0:0:0:0:
64,192,105007,128,0,105262:0:0:0:0:
320,192,105007,128,0,105177:0:0:0:0:
448,192,105007,128,0,105092:0:0:0:0:
448,192,105177,128,0,105431:0:0:0:0:
192,192,105262,128,0,105431:0:0:0:0:
320,192,105262,128,0,105601:0:0:0:0:
64,192,105346,128,0,105601:0:0:0:0:
192,192,105516,128,0,105601:0:0:0:0:
448,192,105516,128,0,105939:0:0:0:0:
64,192,105685,128,0,105770:0:0:0:0:
192,192,105685,128,0,105855:0:0:0:0:
320,192,105685,128,0,105855:0:0:0:0:
64,192,105855,128,0,106109:0:0:0:0:
192,192,105939,128,0,106278:0:0:0:0:
320,192,105939,128,0,106109:0:0:0:0:
448,192,106024,128,0,106278:0:0:0:0:
320,192,106194,128,0,106278:0:0:0:0:
64,192,106194,128,0,106617:0:0:0:0:
448,192,106363,128,0,106448:0:0:0:0:
320,192,106363,128,0,106533:0:0:0:0:
192,192,106363,128,0,106533:0:0:0:0:
448,192,106533,128,0,106787:0:0:0:0:
192,192,106617,128,0,106787:0:0:0:0:
320,192,106617,128,0,106956:0:0:0:0:
64,192,106702,128,0,106956:0:0:0:0:
192,192,106872,128,0,107211:0:0:0:0:
448,192,106872,128,0,106956:0:0:0:0:
64,192,107041,128,0,107211:0:0:0:0:
320,192,107041,128,0,107634:0:0:0:0:
448,192,107041,128,0,107126:0:0:0:0:
448,192,107211,128,0,107295:0:0:0:0:
64,192,107295,128,0,107465:0:0:0:0:
192,192,107295,128,0,107465:0:0:0:0:
448,192,107380,128,0,107634:0:0:0:0:
192,192,107550,128,0,107634:0:0:0:0:
64,192,107550,128,0,107634:0:0:0:0:
192,192,107719,128,0,107973:0:0:0:0:
320,192,107719,128,0,107889:0:0:0:0:
64,192,107719,128,0,107889:0:0:0:0:
448,192,107889,128,0,108143:0:0:0:0:
320,192,107973,128,0,108143:0:0:0:0:
64,192,107973,128,0,108312:0:0:0:0:
192,192,108058,128,0,108312:0:0:0:0:
448,192,108228,128,0,108312:0:0:0:0:
320,192,108228,128,0,108651:0:0:0:0:
64,192,108397,128,0,108482:0:0:0:0:
192,192,108397,128,0,108567:0:0:0:0:
448,192,108397,128,0,108567:0:0:0:0:
64,192,108567,128,0,108821:0:0:0:0:
192,192,108651,128,0,108821:0:0:0:0:
448,192,108651,128,0,108990:0:0:0:0:
320,192,108736,128,0,108990:0:0:0:0:
64,192,108906,128,0,108990:0:0:0:0:
192,192,108906,128,0,109245:0:0:0:0:
64,192,109075,128,0,109329:0:0:0:0:
320,192,109075,128,0,109245:0:0:0:0:
448,192,109075,128,0,109160:0:0:0:0:
448,192,109245,128,0,109499:0:0:0:0:
192,192,109329,128,0,109499:0:0:0:0:
320,192,109329,128,0,109753:0:0:0:0:
64,192,109414,128,0,109668:0:0:0:0:
192,192,109584,128,0,109668:0:0:0:0:
448,192,109584,128,0,109753:0:0:0:0:
64,192,109753,128,0,109838:0:0:0:0:
192,192,109753,128,0,109838:0:0:0:0:
448,192,109838,128,0,109923:0:0:0:0:
320,192,109838,128,0,109923:0:0:0:0:
192,192,109923,128,0,110007:0:0:0:0:
64,192,109923,128,0,110007:0:0:0:0:
320,192,110007,128,0,110092:0:0:0:0:
448,192,110007,128,0,110177:0:0:0:0:
192,192,110092,128,0,110177:0:0:0:0:
64,192,110092,128,0,110177:0:0:0:0:
320,192,110177,128,0,110262:0:0:0:0:
64,192,110262,128,0,110346:0:0:0:0:
192,192,110262,128,0,110346:0:0:0:0:
448,192,110262,128,0,110346:0:0:0:0:
320,192,110346,1,0,0:0:0:0:
64,192,110431,1,0,0:0:0:0:
192,192,110431,1,0,0:0:0:0:
448,192,110431,128,0,110601:0:0:0:0:
64,192,110601,1,0,0:0:0:0:
320,192,110601,128,0,110685:0:0:0:0:
192,192,110685,1,0,0:0:0:0:
448,192,110685,128,0,111024:0:0:0:0:
64,192,110770,1,0,0:0:0:0:
320,192,110770,128,0,110855:0:0:0:0:
64,192,110939,1,0,0:0:0:0:
192,192,110939,1,0,0:0:0:0:
320,192,110939,128,0,111109:0:0:0:0:
192,192,111109,1,0,0:0:0:0:
64,192,111109,1,0,0:0:0:0:
448,192,111109,128,0,111194:0:0:0:0:
320,192,111194,128,0,111278:0:0:0:0:
64,192,111278,1,0,0:0:0:0:
448,192,111278,128,0,111363:0:0:0:0:
192,192,111363,1,0,0:0:0:0:
320,192,111363,128,0,111448:0:0:0:0:
448,192,111448,128,0,111533:0:0:0:0:
64,192,111533,1,0,0:0:0:0:
320,192,111533,128,0,111617:0:0:0:0:
192,192,111617,1,0,0:0:0:0:
448,192,111617,128,0,111702:0:0:0:0:
320,192,111702,1,0,0:0:0:0:
64,192,111787,128,0,111956:0:0:0:0:
320,192,111956,128,0,112211:0:0:0:0:
64,192,112041,128,0,112380:0:0:0:0:
320,192,112295,128,0,112380:0:0:0:0:
192,192,112465,128,0,112719:0:0:0:0:
448,192,112719,128,0,112889:0:0:0:0:
192,192,112804,128,0,113058:0:0:0:0:
448,192,112973,128,0,113058:0:0:0:0:
64,192,113143,1,0,0:0:0:0:
192,192,113143,1,0,0:0:0:0:
320,192,113143,1,0,0:0:0:0:
