osu file format v14

[General]
AudioFilename: Firestorm.mp3
AudioLeadIn: 0
PreviewTime: 91448
Countdown: 0
SampleSet: Normal
StackLeniency: 0.7
Mode: 3
LetterboxInBreaks: 0
SpecialStyle: 1
WidescreenStoryboard: 1

[Editor]
DistanceSpacing: 0.8
BeatDivisor: 4
GridSize: 8
TimelineZoom: 2

[Metadata]
Title:Firestorm
TitleUnicode:Firestorm
Artist:ETIA.
ArtistUnicode:ETIA.
Creator:PiraTom
Version:LNAVITY
Source:SOUND VOLTEX III GRAVITY WARS
Tags:sdvx gravity wars sound_voltex inteliser
BeatmapID:790563
BeatmapSetID:359554

[Difficulty]
HPDrainRate:9
CircleSize:4
OverallDifficulty:5
ApproachRate:5
SliderMultiplier:1.4
SliderTickRate:1

[Events]
//Background and Video events
0,0,"bg.jpg",0,0
//Break Periods
//Storyboard Layer 0 (Background)
//Storyboard Layer 1 (Fail)
//Storyboard Layer 2 (Pass)
//Storyboard Layer 3 (Foreground)
//Storyboard Sound Samples

[TimingPoints]
601,338.983050847458,4,1,0,0,1,0

[HitObjects]
64,192,601,5,0,0:0:0:0:
448,192,601,1,0,0:0:0:0:
192,192,939,1,0,0:0:0:0:
320,192,939,1,0,0:0:0:0:
64,192,1278,1,0,0:0:0:0:
448,192,1278,1,0,0:0:0:0:
192,192,1617,1,0,0:0:0:0:
320,192,1617,1,0,0:0:0:0:
64,192,1956,1,0,0:0:0:0:
448,192,1956,1,0,0:0:0:0:
192,192,2295,1,0,0:0:0:0:
320,192,2295,1,0,0:0:0:0:
64,192,2634,128,0,2973:0:0:0:0:
448,192,2634,128,0,2804:0:0:0:0:
320,192,2804,128,0,2973:0:0:0:0:
192,192,2973,128,0,3143:0:0:0:0:
448,192,2973,128,0,3312:0:0:0:0:
64,192,3143,128,0,3312:0:0:0:0:
320,192,3312,1,0,0:0:0:0:
192,192,3312,1,0,0:0:0:0:
64,192,3651,1,0,0:0:0:0:
448,192,3651,1,0,0:0:0:0:
320,192,3990,1,0,0:0:0:0:
192,192,3990,1,0,0:0:0:0:
448,192,4329,1,0,0:0:0:0:
64,192,4329,1,0,0:0:0:0:
192,192,4668,1,0,0:0:0:0:
320,192,4668,1,0,0:0:0:0:
64,192,5007,1,0,0:0:0:0:
448,192,5007,1,0,0:0:0:0:
192,192,5346,1,0,0:0:0:0:
320,192,5346,1,0,0:0:0:0:
64,192,5346,1,0,0:0:0:0:
448,192,5346,1,0,0:0:0:0:
192,192,5685,128,0,5939:0:0:0:0:
320,192,5685,128,0,5939:0:0:0:0:
448,192,5685,128,0,5939:0:0:0:0:
64,192,5685,128,0,5939:0:0:0:0:
64,192,6024,1,0,0:0:0:0:
448,192,6024,1,0,0:0:0:0:
192,192,6363,1,0,0:0:0:0:
320,192,6363,1,0,0:0:0:0:
64,192,6702,1,0,0:0:0:0:
448,192,6702,1,0,0:0:0:0:
192,192,7041,1,0,0:0:0:0:
320,192,7041,1,0,0:0:0:0:
64,192,7380,1,0,0:0:0:0:
448,192,7380,1,0,0:0:0:0:
192,192,7719,128,0,8058:0:0:0:0:
320,192,7719,128,0,8058:0:0:0:0:
64,192,8058,1,0,0:0:0:0:
448,192,8058,128,0,8228:0:0:0:0:
192,192,8228,128,0,8397:0:0:0:0:
320,192,8397,128,0,8567:0:0:0:0:
448,192,8397,1,0,0:0:0:0:
64,192,8567,128,0,8736:0:0:0:0:
192,192,8736,1,0,0:0:0:0:
448,192,8736,1,0,0:0:0:0:
64,192,9075,1,0,0:0:0:0:
320,192,9075,1,0,0:0:0:0:
192,192,9414,1,0,0:0:0:0:
448,192,9414,1,0,0:0:0:0:
64,192,9753,1,0,0:0:0:0:
320,192,9753,1,0,0:0:0:0:
64,192,10092,1,0,0:0:0:0:
192,192,10092,128,0,10770:0:0:0:0:
448,192,10092,128,0,10431:0:0:0:0:
320,192,10431,128,0,10770:0:0:0:0:
64,192,10770,128,0,10939:0:0:0:0:
448,192,10770,1,0,0:0:0:0:
192,192,10939,1,0,0:0:0:0:
448,192,11109,128,0,11278:0:0:0:0:
64,192,11109,1,0,0:0:0:0:
320,192,11278,1,0,0:0:0:0:
64,192,11448,1,0,0:0:0:0:
192,192,11448,1,0,0:0:0:0:
448,192,11448,1,0,0:0:0:0:
64,192,11787,1,0,0:0:0:0:
320,192,11787,1,0,0:0:0:0:
448,192,11787,1,0,0:0:0:0:
64,192,12126,1,0,0:0:0:0:
192,192,12126,1,0,0:0:0:0:
448,192,12126,1,0,0:0:0:0:
64,192,12465,1,0,0:0:0:0:
320,192,12465,1,0,0:0:0:0:
448,192,12465,1,0,0:0:0:0:
64,192,12804,1,0,0:0:0:0:
448,192,12804,1,0,0:0:0:0:
192,192,12804,128,0,12973:0:0:0:0:
320,192,12973,128,0,13143:0:0:0:0:
64,192,13143,128,0,13312:0:0:0:0:
192,192,13143,1,0,0:0:0:0:
448,192,13143,1,0,0:0:0:0:
448,192,13312,128,0,13482:0:0:0:0:
320,192,13482,128,0,13651:0:0:0:0:
192,192,13482,1,0,0:0:0:0:
64,192,13482,1,0,0:0:0:0:
64,192,13651,128,0,13821:0:0:0:0:
192,192,13821,128,0,13990:0:0:0:0:
448,192,13821,1,0,0:0:0:0:
320,192,13821,1,0,0:0:0:0:
448,192,13990,128,0,14160:0:0:0:0:
64,192,14160,1,0,0:0:0:0:
192,192,14160,1,0,0:0:0:0:
320,192,14160,1,0,0:0:0:0:
192,192,14499,1,0,0:0:0:0:
320,192,14499,1,0,0:0:0:0:
448,192,14499,1,0,0:0:0:0:
64,192,14838,1,0,0:0:0:0:
192,192,14838,1,0,0:0:0:0:
320,192,14838,1,0,0:0:0:0:
192,192,15177,1,0,0:0:0:0:
320,192,15177,1,0,0:0:0:0:
448,192,15177,1,0,0:0:0:0:
192,192,15516,1,0,0:0:0:0:
320,192,15516,1,0,0:0:0:0:
64,192,15516,128,0,15685:0:0:0:0:
320,192,15685,128,0,15855:0:0:0:0:
448,192,15855,1,0,0:0:0:0:
192,192,15855,128,0,16024:0:0:0:0:
64,192,15855,1,0,0:0:0:0:
448,192,16024,128,0,16194:0:0:0:0:
320,192,16194,128,0,16363:0:0:0:0:
64,192,16194,1,0,0:0:0:0:
192,192,16194,1,0,0:0:0:0:
64,192,16363,128,0,16533:0:0:0:0:
448,192,16533,128,0,16872:0:0:0:0:
192,192,16533,1,0,0:0:0:0:
320,192,16533,1,0,0:0:0:0:
64,192,16872,1,0,0:0:0:0:
192,192,16872,128,0,17126:0:0:0:0:
320,192,16872,1,0,0:0:0:0:
64,192,17126,128,0,17380:0:0:0:0:
320,192,17126,1,0,0:0:0:0:
448,192,17126,1,0,0:0:0:0:
192,192,17380,1,0,0:0:0:0:
320,192,17380,1,0,0:0:0:0:
448,192,17380,1,0,0:0:0:0:
320,192,17550,128,0,17804:0:0:0:0:
64,192,17550,1,0,0:0:0:0:
192,192,17550,1,0,0:0:0:0:
192,192,17804,128,0,18058:0:0:0:0:
64,192,17804,1,0,0:0:0:0:
448,192,17804,1,0,0:0:0:0:
320,192,18058,1,0,0:0:0:0:
448,192,18058,1,0,0:0:0:0:
64,192,18058,1,0,0:0:0:0:
448,192,18228,128,0,18482:0:0:0:0:
320,192,18228,1,0,0:0:0:0:
64,192,18228,1,0,0:0:0:0:
64,192,18482,128,0,18736:0:0:0:0:
320,192,18482,1,0,0:0:0:0:
192,192,18482,1,0,0:0:0:0:
320,192,18736,1,0,0:0:0:0:
192,192,18736,1,0,0:0:0:0:
448,192,18736,1,0,0:0:0:0:
64,192,18906,1,0,0:0:0:0:
192,192,18906,1,0,0:0:0:0:
448,192,18906,1,0,0:0:0:0:
320,192,18906,1,0,0:0:0:0:
64,192,19245,1,0,0:0:0:0:
192,192,19245,1,0,0:0:0:0:
320,192,19245,1,0,0:0:0:0:
448,192,19245,1,0,0:0:0:0:
448,192,19584,128,0,19838:0:0:0:0:
64,192,19584,1,0,0:0:0:0:
192,192,19584,1,0,0:0:0:0:
192,192,19838,128,0,20092:0:0:0:0:
64,192,19838,1,0,0:0:0:0:
320,192,19838,1,0,0:0:0:0:
64,192,20092,1,0,0:0:0:0:
320,192,20092,1,0,0:0:0:0:
448,192,20092,1,0,0:0:0:0:
320,192,20262,128,0,20516:0:0:0:0:
64,192,20262,1,0,0:0:0:0:
192,192,20262,1,0,0:0:0:0:
64,192,20516,128,0,20770:0:0:0:0:
192,192,20516,1,0,0:0:0:0:
448,192,20516,1,0,0:0:0:0:
192,192,20770,1,0,0:0:0:0:
320,192,20770,1,0,0:0:0:0:
448,192,20770,1,0,0:0:0:0:
448,192,20939,128,0,21956:0:0:0:0:
192,192,20939,128,0,21617:0:0:0:0:
64,192,20939,1,0,0:0:0:0:
320,192,20939,1,0,0:0:0:0:
64,192,21617,128,0,21956:0:0:0:0:
320,192,21787,1,0,0:0:0:0:
192,192,21956,128,0,22295:0:0:0:0:
320,192,21956,128,0,22295:0:0:0:0:
448,192,22295,128,0,22465:0:0:0:0:
64,192,22295,128,0,22634:0:0:0:0:
192,192,22465,128,0,22634:0:0:0:0:
320,192,22634,128,0,22804:0:0:0:0:
192,192,22804,128,0,23143:0:0:0:0:
448,192,22804,128,0,22973:0:0:0:0:
64,192,22973,128,0,23143:0:0:0:0:
320,192,23143,128,0,23482:0:0:0:0:
192,192,23312,128,0,23482:0:0:0:0:
448,192,23312,128,0,23482:0:0:0:0:
64,192,23482,128,0,23821:0:0:0:0:
448,192,23651,128,0,23990:0:0:0:0:
192,192,23821,128,0,23990:0:0:0:0:
320,192,23990,128,0,24329:0:0:0:0:
64,192,24160,128,0,24329:0:0:0:0:
192,192,24329,128,0,24668:0:0:0:0:
448,192,24329,128,0,24499:0:0:0:0:
320,192,24499,128,0,24838:0:0:0:0:
64,192,24668,128,0,25007:0:0:0:0:
448,192,24838,128,0,25007:0:0:0:0:
192,192,25007,128,0,25516:0:0:0:0:
320,192,25007,128,0,25346:0:0:0:0:
64,192,25346,128,0,25855:0:0:0:0:
448,192,25516,128,0,26024:0:0:0:0:
320,192,25516,128,0,25855:0:0:0:0:
192,192,25855,128,0,26024:0:0:0:0:
64,192,26024,128,0,26533:0:0:0:0:
320,192,26024,128,0,26363:0:0:0:0:
192,192,26363,128,0,26533:0:0:0:0:
448,192,26363,128,0,26956:0:0:0:0:
320,192,26533,128,0,26956:0:0:0:0:
64,192,26872,128,0,26956:0:0:0:0:
192,192,26872,128,0,26956:0:0:0:0:
64,192,27041,128,0,27295:0:0:0:0:
192,192,27041,128,0,27295:0:0:0:0:
448,192,27041,128,0,27295:0:0:0:0:
64,192,27380,128,0,27719:0:0:0:0:
320,192,27380,128,0,27719:0:0:0:0:
448,192,27380,128,0,27719:0:0:0:0:
192,192,27719,128,0,28058:0:0:0:0:
320,192,27889,128,0,28228:0:0:0:0:
448,192,28058,128,0,28567:0:0:0:0:
64,192,28058,128,0,28228:0:0:0:0:
192,192,28228,128,0,28397:0:0:0:0:
64,192,28397,128,0,28736:0:0:0:0:
192,192,28567,128,0,28736:0:0:0:0:
320,192,28736,128,0,28906:0:0:0:0:
448,192,28736,128,0,29245:0:0:0:0:
192,192,28906,128,0,29075:0:0:0:0:
64,192,29075,128,0,29414:0:0:0:0:
320,192,29075,1,0,0:0:0:0:
192,192,29245,1,0,0:0:0:0:
320,192,29414,128,0,29753:0:0:0:0:
448,192,29414,128,0,29584:0:0:0:0:
192,192,29414,128,0,29584:0:0:0:0:
64,192,29584,1,0,0:0:0:0:
192,192,29753,128,0,30092:0:0:0:0:
64,192,29753,128,0,29923:0:0:0:0:
448,192,29753,128,0,29923:0:0:0:0:
320,192,29923,1,0,0:0:0:0:
448,192,30092,128,0,30431:0:0:0:0:
64,192,30092,128,0,30262:0:0:0:0:
320,192,30092,128,0,30262:0:0:0:0:
192,192,30262,1,0,0:0:0:0:
64,192,30431,128,0,30770:0:0:0:0:
192,192,30431,128,0,30601:0:0:0:0:
448,192,30601,128,0,30770:0:0:0:0:
192,192,30770,128,0,31109:0:0:0:0:
320,192,30770,128,0,31109:0:0:0:0:
64,192,30939,1,0,0:0:0:0:
448,192,31109,128,0,31448:0:0:0:0:
64,192,31109,128,0,31448:0:0:0:0:
320,192,31278,1,0,0:0:0:0:
192,192,31448,128,0,31787:0:0:0:0:
320,192,31448,128,0,31617:0:0:0:0:
64,192,31617,128,0,31787:0:0:0:0:
448,192,31787,128,0,31956:0:0:0:0:
320,192,31787,128,0,32126:0:0:0:0:
64,192,31956,1,0,0:0:0:0:
64,192,32126,128,0,32380:0:0:0:0:
192,192,32126,128,0,32295:0:0:0:0:
448,192,32126,1,0,0:0:0:0:
320,192,32295,1,0,0:0:0:0:
192,192,32380,1,0,0:0:0:0:
448,192,32465,1,0,0:0:0:0:
64,192,32465,1,0,0:0:0:0:
320,192,32465,128,0,32804:0:0:0:0:
64,192,32804,1,0,0:0:0:0:
192,192,32804,1,0,0:0:0:0:
448,192,32804,1,0,0:0:0:0:
64,192,32973,1,0,0:0:0:0:
192,192,32973,1,0,0:0:0:0:
448,192,32973,1,0,0:0:0:0:
448,192,33143,128,0,33482:0:0:0:0:
320,192,33143,1,0,0:0:0:0:
64,192,33143,128,0,33312:0:0:0:0:
192,192,33312,128,0,33482:0:0:0:0:
64,192,33482,128,0,33821:0:0:0:0:
320,192,33482,128,0,33651:0:0:0:0:
448,192,33651,128,0,33821:0:0:0:0:
192,192,33651,1,0,0:0:0:0:
192,192,33821,128,0,34160:0:0:0:0:
320,192,33821,128,0,33990:0:0:0:0:
448,192,34160,128,0,34499:0:0:0:0:
320,192,34160,1,0,0:0:0:0:
64,192,34160,128,0,34499:0:0:0:0:
320,192,34329,128,0,34499:0:0:0:0:
192,192,34499,128,0,34838:0:0:0:0:
448,192,34668,1,0,0:0:0:0:
320,192,34838,1,0,0:0:0:0:
448,192,34838,128,0,35177:0:0:0:0:
64,192,34838,128,0,35177:0:0:0:0:
192,192,35177,128,0,35262:0:0:0:0:
320,192,35177,128,0,35262:0:0:0:0:
64,192,35262,128,0,35346:0:0:0:0:
448,192,35262,128,0,35346:0:0:0:0:
192,192,35346,128,0,35431:0:0:0:0:
320,192,35346,128,0,35431:0:0:0:0:
64,192,35431,128,0,35516:0:0:0:0:
448,192,35431,128,0,35516:0:0:0:0:
192,192,35516,128,0,36194:0:0:0:0:
320,192,35516,128,0,35685:0:0:0:0:
448,192,35685,128,0,35855:0:0:0:0:
320,192,35855,128,0,36024:0:0:0:0:
64,192,36024,128,0,36363:0:0:0:0:
448,192,36194,128,0,36533:0:0:0:0:
320,192,36194,128,0,36363:0:0:0:0:
64,192,36533,1,0,0:0:0:0:
320,192,36533,1,0,0:0:0:0:
192,192,36533,128,0,36702:0:0:0:0:
64,192,36702,128,0,37041:0:0:0:0:
448,192,36702,128,0,37041:0:0:0:0:
320,192,36702,128,0,37041:0:0:0:0:
192,192,37041,1,0,0:0:0:0:
320,192,37211,1,0,0:0:0:0:
64,192,37211,1,0,0:0:0:0:
448,192,37211,128,0,37380:0:0:0:0:
192,192,37211,128,0,37380:0:0:0:0:
320,192,37380,128,0,37550:0:0:0:0:
64,192,37380,128,0,37550:0:0:0:0:
448,192,37550,128,0,37889:0:0:0:0:
192,192,37550,128,0,37889:0:0:0:0:
320,192,37889,1,0,0:0:0:0:
64,192,37889,1,0,0:0:0:0:
192,192,37973,1,0,0:0:0:0:
448,192,38058,1,0,0:0:0:0:
64,192,38058,1,0,0:0:0:0:
320,192,38143,1,0,0:0:0:0:
192,192,38228,1,0,0:0:0:0:
64,192,38228,128,0,38567:0:0:0:0:
448,192,38228,1,0,0:0:0:0:
192,192,38567,128,0,38651:0:0:0:0:
320,192,38567,128,0,38736:0:0:0:0:
448,192,38567,128,0,38821:0:0:0:0:
64,192,38821,128,0,39075:0:0:0:0:
192,192,38821,128,0,38990:0:0:0:0:
320,192,38821,128,0,38906:0:0:0:0:
192,192,39075,128,0,39160:0:0:0:0:
320,192,39075,128,0,39160:0:0:0:0:
448,192,39075,128,0,39160:0:0:0:0:
192,192,39245,128,0,39414:0:0:0:0:
320,192,39245,128,0,39499:0:0:0:0:
64,192,39245,128,0,39329:0:0:0:0:
448,192,39499,128,0,39584:0:0:0:0:
192,192,39499,128,0,39668:0:0:0:0:
64,192,39499,128,0,39753:0:0:0:0:
192,192,39753,128,0,39838:0:0:0:0:
320,192,39753,128,0,39838:0:0:0:0:
448,192,39753,128,0,39838:0:0:0:0:
64,192,39923,128,0,40177:0:0:0:0:
320,192,39923,128,0,40007:0:0:0:0:
192,192,39923,128,0,40092:0:0:0:0:
192,192,40177,128,0,40262:0:0:0:0:
320,192,40177,128,0,40346:0:0:0:0:
448,192,40177,128,0,40431:0:0:0:0:
64,192,40431,128,0,40601:0:0:0:0:
192,192,40431,128,0,40516:0:0:0:0:
320,192,40431,128,0,40601:0:0:0:0:
448,192,40601,128,0,40939:0:0:0:0:
192,192,40601,128,0,40939:0:0:0:0:
320,192,40939,128,0,41194:0:0:0:0:
64,192,40939,128,0,41194:0:0:0:0:
192,192,41278,128,0,41533:0:0:0:0:
320,192,41278,128,0,41448:0:0:0:0:
448,192,41278,128,0,41363:0:0:0:0:
64,192,41533,128,0,41617:0:0:0:0:
320,192,41533,128,0,41702:0:0:0:0:
448,192,41533,128,0,41787:0:0:0:0:
64,192,41787,128,0,41872:0:0:0:0:
192,192,41787,128,0,41872:0:0:0:0:
320,192,41787,128,0,41872:0:0:0:0:
448,192,41956,128,0,42041:0:0:0:0:
192,192,41956,128,0,42126:0:0:0:0:
64,192,41956,128,0,42211:0:0:0:0:
192,192,42211,128,0,42295:0:0:0:0:
320,192,42211,128,0,42380:0:0:0:0:
448,192,42211,128,0,42465:0:0:0:0:
64,192,42465,128,0,42550:0:0:0:0:
192,192,42465,128,0,42550:0:0:0:0:
320,192,42465,128,0,42550:0:0:0:0:
320,192,42634,1,0,0:0:0:0:
192,192,42634,1,0,0:0:0:0:
448,192,42634,128,0,43567:0:0:0:0:
64,192,42804,128,0,43143:0:0:0:0:
320,192,42973,128,0,43651:0:0:0:0:
192,192,43143,128,0,43906:0:0:0:0:
64,192,43312,128,0,43906:0:0:0:0:
448,192,43651,128,0,43736:0:0:0:0:
320,192,43736,128,0,43821:0:0:0:0:
448,192,43821,128,0,43906:0:0:0:0:
320,192,43906,128,0,43990:0:0:0:0:
64,192,43990,1,0,0:0:0:0:
192,192,43990,1,0,0:0:0:0:
448,192,43990,1,0,0:0:0:0:
64,192,46702,128,0,47973:0:0:0:0:
192,192,46702,128,0,48482:0:0:0:0:
320,192,46702,128,0,48990:0:0:0:0:
448,192,46702,128,0,49329:0:0:0:0:
64,192,48058,128,0,51872:0:0:0:0:
192,192,48567,128,0,51956:0:0:0:0:
320,192,49075,128,0,51787:0:0:0:0:
448,192,49414,128,0,51702:0:0:0:0:
448,192,51787,128,0,51956:0:0:0:0:
320,192,51872,128,0,52041:0:0:0:0:
64,192,51956,128,0,53906:0:0:0:0:
192,192,52041,128,0,53397:0:0:0:0:
320,192,52126,128,0,53906:0:0:0:0:
448,192,52126,128,0,53397:0:0:0:0:
192,192,53482,128,0,54414:0:0:0:0:
448,192,53482,128,0,54753:0:0:0:0:
64,192,53990,128,0,54414:0:0:0:0:
320,192,53990,128,0,54753:0:0:0:0:
64,192,54499,128,0,54951:0:0:0:0:
192,192,54499,128,0,54838:0:0:0:0:
320,192,54838,128,0,55064:0:0:0:0:
448,192,54838,128,0,56307:0:0:0:0:
192,192,54951,128,0,55177:0:0:0:0:
64,192,55064,128,0,55290:0:0:0:0:
320,192,55177,128,0,55403:0:0:0:0:
192,192,55290,128,0,55516:0:0:0:0:
64,192,55403,128,0,55629:0:0:0:0:
320,192,55516,128,0,55742:0:0:0:0:
192,192,55629,128,0,55855:0:0:0:0:
64,192,55742,128,0,55968:0:0:0:0:
320,192,55855,128,0,56194:0:0:0:0:
192,192,55968,128,0,56081:0:0:0:0:
64,192,56081,128,0,57493:0:0:0:0:
192,192,56194,128,0,56420:0:0:0:0:
320,192,56307,128,0,56533:0:0:0:0:
448,192,56420,128,0,56646:0:0:0:0:
192,192,56533,128,0,56759:0:0:0:0:
320,192,56646,128,0,56872:0:0:0:0:
448,192,56759,128,0,56985:0:0:0:0:
192,192,56872,128,0,57098:0:0:0:0:
320,192,56985,128,0,57211:0:0:0:0:
448,192,57098,128,0,57324:0:0:0:0:
192,192,57211,128,0,57493:0:0:0:0:
320,192,57324,128,0,57493:0:0:0:0:
448,192,57437,128,0,57493:0:0:0:0:
320,192,57550,1,0,0:0:0:0:
448,192,57550,1,0,0:0:0:0:
64,192,57550,128,0,58482:0:0:0:0:
192,192,57550,128,0,57973:0:0:0:0:
320,192,58058,128,0,58990:0:0:0:0:
192,192,58058,1,0,0:0:0:0:
448,192,58058,1,0,0:0:0:0:
192,192,58567,128,0,59499:0:0:0:0:
64,192,58567,1,0,0:0:0:0:
448,192,58567,1,0,0:0:0:0:
448,192,59075,128,0,59584:0:0:0:0:
320,192,59075,1,0,0:0:0:0:
64,192,59075,1,0,0:0:0:0:
64,192,59584,128,0,59923:0:0:0:0:
320,192,59584,128,0,59923:0:0:0:0:
192,192,59584,1,0,0:0:0:0:
448,192,59923,128,0,61194:0:0:0:0:
192,192,59923,128,0,60177:0:0:0:0:
64,192,60262,1,0,0:0:0:0:
192,192,60262,1,0,0:0:0:0:
320,192,60262,128,0,60685:0:0:0:0:
64,192,60770,128,0,61702:0:0:0:0:
192,192,60770,1,0,0:0:0:0:
320,192,60770,1,0,0:0:0:0:
320,192,61278,128,0,62211:0:0:0:0:
192,192,61278,1,0,0:0:0:0:
448,192,61278,1,0,0:0:0:0:
192,192,61787,128,0,62295:0:0:0:0:
64,192,61787,1,0,0:0:0:0:
448,192,61787,1,0,0:0:0:0:
64,192,62295,1,0,0:0:0:0:
320,192,62295,128,0,62634:0:0:0:0:
448,192,62295,128,0,62634:0:0:0:0:
64,192,62634,128,0,62889:0:0:0:0:
192,192,62634,128,0,63397:0:0:0:0:
448,192,62973,128,0,63906:0:0:0:0:
320,192,62973,128,0,63143:0:0:0:0:
64,192,62973,1,0,0:0:0:0:
320,192,63482,128,0,64414:0:0:0:0:
64,192,63482,128,0,63651:0:0:0:0:
192,192,63482,1,0,0:0:0:0:
64,192,63990,128,0,64923:0:0:0:0:
192,192,63990,128,0,64160:0:0:0:0:
448,192,63990,1,0,0:0:0:0:
192,192,64499,128,0,65007:0:0:0:0:
448,192,64499,128,0,64668:0:0:0:0:
320,192,64499,1,0,0:0:0:0:
64,192,65007,128,0,65346:0:0:0:0:
448,192,65007,128,0,65346:0:0:0:0:
320,192,65007,1,0,0:0:0:0:
192,192,65346,128,0,65601:0:0:0:0:
320,192,65346,128,0,66109:0:0:0:0:
64,192,65685,128,0,65855:0:0:0:0:
192,192,65685,128,0,65855:0:0:0:0:
448,192,65685,128,0,66617:0:0:0:0:
64,192,66194,128,0,67126:0:0:0:0:
192,192,66194,128,0,66363:0:0:0:0:
320,192,66194,128,0,66363:0:0:0:0:
192,192,66702,128,0,67719:0:0:0:0:
320,192,66702,128,0,66872:0:0:0:0:
448,192,66702,128,0,66872:0:0:0:0:
448,192,67211,128,0,67719:0:0:0:0:
320,192,67211,128,0,67380:0:0:0:0:
64,192,67211,128,0,67380:0:0:0:0:
64,192,67719,128,0,68312:0:0:0:0:
320,192,67719,128,0,68312:0:0:0:0:
192,192,68058,128,0,68312:0:0:0:0:
448,192,68058,128,0,68312:0:0:0:0:
64,192,68397,1,0,0:0:0:0:
192,192,68397,1,0,0:0:0:0:
320,192,68397,1,0,0:0:0:0:
448,192,68397,1,0,0:0:0:0:
192,192,69075,1,0,0:0:0:0:
320,192,69075,1,0,0:0:0:0:
192,192,69245,1,0,0:0:0:0:
320,192,69245,1,0,0:0:0:0:
448,192,69753,128,0,70007:0:0:0:0:
64,192,69753,1,0,0:0:0:0:
192,192,69753,1,0,0:0:0:0:
192,192,70007,128,0,70262:0:0:0:0:
64,192,70007,1,0,0:0:0:0:
320,192,70007,1,0,0:0:0:0:
448,192,70262,1,0,0:0:0:0:
320,192,70262,1,0,0:0:0:0:
64,192,70262,1,0,0:0:0:0:
320,192,70431,128,0,70685:0:0:0:0:
192,192,70431,1,0,0:0:0:0:
64,192,70431,1,0,0:0:0:0:
64,192,70685,128,0,70939:0:0:0:0:
192,192,70685,1,0,0:0:0:0:
448,192,70685,1,0,0:0:0:0:
320,192,70939,1,0,0:0:0:0:
448,192,70939,1,0,0:0:0:0:
192,192,70939,1,0,0:0:0:0:
64,192,71024,1,0,0:0:0:0:
448,192,71024,1,0,0:0:0:0:
192,192,71109,128,0,71363:0:0:0:0:
320,192,71109,1,0,0:0:0:0:
448,192,71363,128,0,71617:0:0:0:0:
64,192,71363,128,0,71617:0:0:0:0:
320,192,71363,1,0,0:0:0:0:
192,192,71617,1,0,0:0:0:0:
320,192,71617,1,0,0:0:0:0:
192,192,71787,1,0,0:0:0:0:
448,192,71787,1,0,0:0:0:0:
320,192,71872,1,0,0:0:0:0:
192,192,71956,1,0,0:0:0:0:
64,192,72041,1,0,0:0:0:0:
192,192,72126,1,0,0:0:0:0:
448,192,72126,1,0,0:0:0:0:
320,192,72211,1,0,0:0:0:0:
192,192,72295,1,0,0:0:0:0:
64,192,72380,1,0,0:0:0:0:
320,192,72465,128,0,72719:0:0:0:0:
192,192,72465,1,0,0:0:0:0:
448,192,72465,1,0,0:0:0:0:
192,192,72719,128,0,72973:0:0:0:0:
64,192,72719,1,0,0:0:0:0:
448,192,72719,1,0,0:0:0:0:
320,192,72973,1,0,0:0:0:0:
448,192,72973,1,0,0:0:0:0:
64,192,72973,1,0,0:0:0:0:
64,192,73143,128,0,73397:0:0:0:0:
192,192,73143,1,0,0:0:0:0:
448,192,73143,1,0,0:0:0:0:
448,192,73397,128,0,73651:0:0:0:0:
192,192,73397,1,0,0:0:0:0:
320,192,73397,1,0,0:0:0:0:
64,192,73651,1,0,0:0:0:0:
192,192,73651,1,0,0:0:0:0:
320,192,73651,1,0,0:0:0:0:
192,192,73821,128,0,74075:0:0:0:0:
448,192,73821,1,0,0:0:0:0:
320,192,73821,1,0,0:0:0:0:
320,192,74075,128,0,74329:0:0:0:0:
448,192,74075,1,0,0:0:0:0:
64,192,74075,128,0,74329:0:0:0:0:
192,192,74329,1,0,0:0:0:0:
448,192,74329,1,0,0:0:0:0:
192,192,74499,128,0,74838:0:0:0:0:
64,192,74499,1,0,0:0:0:0:
320,192,74499,1,0,0:0:0:0:
448,192,74499,128,0,74668:0:0:0:0:
320,192,74668,1,0,0:0:0:0:
64,192,74838,1,0,0:0:0:0:
320,192,74838,128,0,75177:0:0:0:0:
448,192,74838,1,0,0:0:0:0:
64,192,75177,128,0,75431:0:0:0:0:
192,192,75177,1,0,0:0:0:0:
448,192,75177,1,0,0:0:0:0:
192,192,75431,128,0,75685:0:0:0:0:
320,192,75431,1,0,0:0:0:0:
448,192,75431,1,0,0:0:0:0:
64,192,75685,1,0,0:0:0:0:
320,192,75685,1,0,0:0:0:0:
448,192,75685,1,0,0:0:0:0:
448,192,75855,128,0,76109:0:0:0:0:
192,192,75855,1,0,0:0:0:0:
320,192,75855,1,0,0:0:0:0:
320,192,76109,128,0,76363:0:0:0:0:
64,192,76109,1,0,0:0:0:0:
192,192,76109,1,0,0:0:0:0:
64,192,76363,1,0,0:0:0:0:
192,192,76363,1,0,0:0:0:0:
448,192,76363,1,0,0:0:0:0:
192,192,76448,1,0,0:0:0:0:
320,192,76448,1,0,0:0:0:0:
320,192,76533,1,0,0:0:0:0:
448,192,76533,1,0,0:0:0:0:
64,192,76533,128,0,76787:0:0:0:0:
448,192,76787,128,0,77041:0:0:0:0:
192,192,76787,1,0,0:0:0:0:
320,192,76787,128,0,77041:0:0:0:0:
64,192,77041,1,0,0:0:0:0:
192,192,77041,1,0,0:0:0:0:
64,192,77211,1,0,0:0:0:0:
448,192,77211,1,0,0:0:0:0:
320,192,77295,1,0,0:0:0:0:
192,192,77380,1,0,0:0:0:0:
448,192,77380,1,0,0:0:0:0:
320,192,77465,1,0,0:0:0:0:
64,192,77550,1,0,0:0:0:0:
448,192,77550,1,0,0:0:0:0:
192,192,77634,1,0,0:0:0:0:
64,192,77719,1,0,0:0:0:0:
320,192,77719,1,0,0:0:0:0:
192,192,77804,1,0,0:0:0:0:
64,192,77889,128,0,78143:0:0:0:0:
320,192,77889,1,0,0:0:0:0:
448,192,77889,1,0,0:0:0:0:
320,192,78143,128,0,78397:0:0:0:0:
192,192,78143,1,0,0:0:0:0:
448,192,78143,1,0,0:0:0:0:
64,192,78397,1,0,0:0:0:0:
192,192,78397,1,0,0:0:0:0:
448,192,78397,1,0,0:0:0:0:
448,192,78567,128,0,78821:0:0:0:0:
192,192,78567,1,0,0:0:0:0:
320,192,78567,1,0,0:0:0:0:
192,192,78821,128,0,79075:0:0:0:0:
64,192,78821,1,0,0:0:0:0:
320,192,78821,1,0,0:0:0:0:
64,192,79075,1,0,0:0:0:0:
320,192,79075,1,0,0:0:0:0:
448,192,79075,1,0,0:0:0:0:
64,192,79245,1,0,0:0:0:0:
192,192,79245,1,0,0:0:0:0:
320,192,79245,1,0,0:0:0:0:
448,192,79245,1,0,0:0:0:0:
64,192,79414,128,0,79584:0:0:0:0:
192,192,79584,1,0,0:0:0:0:
320,192,79584,1,0,0:0:0:0:
448,192,79584,1,0,0:0:0:0:
320,192,79753,128,0,79923:0:0:0:0:
64,192,79923,1,0,0:0:0:0:
448,192,79923,1,0,0:0:0:0:
192,192,79923,128,0,80007:0:0:0:0:
192,192,80177,128,0,80262:0:0:0:0:
192,192,80431,128,0,80601:0:0:0:0:
64,192,80601,128,0,80855:0:0:0:0:
448,192,80601,128,0,80855:0:0:0:0:
320,192,80601,1,0,0:0:0:0:
192,192,80855,1,0,0:0:0:0:
320,192,80855,1,0,0:0:0:0:
448,192,80939,1,0,0:0:0:0:
64,192,80939,1,0,0:0:0:0:
192,192,81109,1,0,0:0:0:0:
448,192,81109,1,0,0:0:0:0:
320,192,81109,1,0,0:0:0:0:
64,192,81278,128,0,81533:0:0:0:0:
320,192,81278,128,0,81533:0:0:0:0:
192,192,81278,1,0,0:0:0:0:
192,192,81533,1,0,0:0:0:0:
448,192,81533,1,0,0:0:0:0:
64,192,81617,1,0,0:0:0:0:
320,192,81617,1,0,0:0:0:0:
192,192,81787,128,0,81872:0:0:0:0:
320,192,81787,128,0,81872:0:0:0:0:
64,192,81872,128,0,81956:0:0:0:0:
448,192,81872,128,0,81956:0:0:0:0:
192,192,81956,1,0,0:0:0:0:
320,192,81956,128,0,82211:0:0:0:0:
64,192,82211,128,0,82465:0:0:0:0:
448,192,82211,128,0,82465:0:0:0:0:
320,192,82465,1,0,0:0:0:0:
192,192,82465,1,0,0:0:0:0:
64,192,82634,1,0,0:0:0:0:
320,192,82634,1,0,0:0:0:0:
192,192,82719,1,0,0:0:0:0:
320,192,82804,1,0,0:0:0:0:
448,192,82889,1,0,0:0:0:0:
64,192,82973,1,0,0:0:0:0:
320,192,82973,1,0,0:0:0:0:
192,192,83058,1,0,0:0:0:0:
320,192,83143,1,0,0:0:0:0:
448,192,83228,1,0,0:0:0:0:
64,192,83312,1,0,0:0:0:0:
192,192,83312,128,0,83567:0:0:0:0:
320,192,83312,128,0,83567:0:0:0:0:
64,192,83567,1,0,0:0:0:0:
448,192,83567,1,0,0:0:0:0:
192,192,83651,1,0,0:0:0:0:
320,192,83651,1,0,0:0:0:0:
64,192,83821,1,0,0:0:0:0:
320,192,83821,1,0,0:0:0:0:
448,192,83821,1,0,0:0:0:0:
192,192,83990,128,0,84245:0:0:0:0:
448,192,83990,128,0,84245:0:0:0:0:
64,192,83990,1,0,0:0:0:0:
64,192,84245,1,0,0:0:0:0:
320,192,84245,1,0,0:0:0:0:
192,192,84329,1,0,0:0:0:0:
448,192,84329,1,0,0:0:0:0:
320,192,84499,128,0,84584:0:0:0:0:
64,192,84499,128,0,84584:0:0:0:0:
192,192,84584,128,0,84668:0:0:0:0:
448,192,84584,128,0,84668:0:0:0:0:
320,192,84668,1,0,0:0:0:0:
64,192,84668,128,0,85177:0:0:0:0:
192,192,84923,128,0,85177:0:0:0:0:
448,192,84923,128,0,85177:0:0:0:0:
320,192,84923,1,0,0:0:0:0:
320,192,85177,128,0,85601:0:0:0:0:
192,192,85346,128,0,85601:0:0:0:0:
448,192,85346,128,0,85685:0:0:0:0:
320,192,85685,1,0,0:0:0:0:
64,192,85685,128,0,85855:0:0:0:0:
192,192,85685,128,0,85855:0:0:0:0:
64,192,86024,128,0,86448:0:0:0:0:
448,192,86024,128,0,86448:0:0:0:0:
192,192,86024,128,0,86194:0:0:0:0:
320,192,86024,128,0,86194:0:0:0:0:
192,192,86278,128,0,86617:0:0:0:0:
320,192,86278,128,0,86617:0:0:0:0:
64,192,86533,128,0,86617:0:0:0:0:
448,192,86533,128,0,86617:0:0:0:0:
64,192,86702,128,0,87126:0:0:0:0:
448,192,86702,128,0,87126:0:0:0:0:
192,192,86702,128,0,86872:0:0:0:0:
320,192,86702,128,0,86872:0:0:0:0:
192,192,86956,128,0,87295:0:0:0:0:
320,192,86956,128,0,87295:0:0:0:0:
64,192,87211,128,0,87295:0:0:0:0:
448,192,87211,128,0,87295:0:0:0:0:
64,192,87380,128,0,87550:0:0:0:0:
448,192,87380,128,0,87550:0:0:0:0:
192,192,87380,128,0,87804:0:0:0:0:
320,192,87380,128,0,87804:0:0:0:0:
448,192,87634,128,0,87973:0:0:0:0:
64,192,87634,128,0,87973:0:0:0:0:
192,192,87889,128,0,87973:0:0:0:0:
320,192,87889,128,0,87973:0:0:0:0:
320,192,88058,1,0,0:0:0:0:
448,192,88058,1,0,0:0:0:0:
64,192,88143,1,0,0:0:0:0:
192,192,88143,1,0,0:0:0:0:
320,192,88228,1,0,0:0:0:0:
192,192,88312,1,0,0:0:0:0:
320,192,88397,1,0,0:0:0:0:
448,192,88397,1,0,0:0:0:0:
64,192,88482,1,0,0:0:0:0:
192,192,88482,1,0,0:0:0:0:
448,192,88567,1,0,0:0:0:0:
64,192,88651,1,0,0:0:0:0:
320,192,88736,128,0,88906:0:0:0:0:
192,192,88736,128,0,89160:0:0:0:0:
448,192,88736,128,0,88906:0:0:0:0:
64,192,88736,128,0,89160:0:0:0:0:
320,192,88990,128,0,89329:0:0:0:0:
448,192,88990,128,0,89329:0:0:0:0:
64,192,89245,128,0,89329:0:0:0:0:
192,192,89245,128,0,89329:0:0:0:0:
448,192,89414,128,0,89584:0:0:0:0:
192,192,89414,128,0,89584:0:0:0:0:
320,192,89414,128,0,89838:0:0:0:0:
64,192,89414,128,0,89838:0:0:0:0:
448,192,89668,128,0,90007:0:0:0:0:
192,192,89668,128,0,90007:0:0:0:0:
320,192,89923,128,0,90007:0:0:0:0:
64,192,89923,128,0,90007:0:0:0:0:
64,192,90092,1,0,0:0:0:0:
448,192,90092,1,0,0:0:0:0:
320,192,90092,1,0,0:0:0:0:
192,192,90092,1,0,0:0:0:0:
320,192,90262,128,0,90431:0:0:0:0:
192,192,90431,1,0,0:0:0:0:
64,192,90601,128,0,90770:0:0:0:0:
448,192,90770,128,0,90855:0:0:0:0:
192,192,90770,128,0,90855:0:0:0:0:
192,192,91024,128,0,91194:0:0:0:0:
448,192,91024,128,0,91194:0:0:0:0:
192,192,91278,128,0,91363:0:0:0:0:
448,192,91278,128,0,91363:0:0:0:0:
64,192,91448,128,0,91617:0:0:0:0:
320,192,91448,128,0,91617:0:0:0:0:
448,192,91448,128,0,91617:0:0:0:0:
64,192,91702,1,0,0:0:0:0:
192,192,91702,1,0,0:0:0:0:
320,192,91702,1,0,0:0:0:0:
448,192,91787,1,0,0:0:0:0:
192,192,91787,128,0,91956:0:0:0:0:
64,192,91956,1,0,0:0:0:0:
320,192,91956,1,0,0:0:0:0:
448,192,91956,128,0,92126:0:0:0:0:
64,192,92126,128,0,92295:0:0:0:0:
192,192,92126,128,0,92295:0:0:0:0:
320,192,92126,128,0,92295:0:0:0:0:
64,192,92380,1,0,0:0:0:0:
320,192,92380,1,0,0:0:0:0:
448,192,92380,1,0,0:0:0:0:
192,192,92465,1,0,0:0:0:0:
320,192,92465,128,0,92634:0:0:0:0:
192,192,92634,1,0,0:0:0:0:
448,192,92634,1,0,0:0:0:0:
64,192,92634,128,0,92804:0:0:0:0:
192,192,92804,128,0,92973:0:0:0:0:
320,192,92804,128,0,92973:0:0:0:0:
448,192,92804,128,0,92973:0:0:0:0:
64,192,93058,1,0,0:0:0:0:
192,192,93058,1,0,0:0:0:0:
320,192,93058,1,0,0:0:0:0:
448,192,93143,1,0,0:0:0:0:
64,192,93143,128,0,93312:0:0:0:0:
448,192,93312,1,0,0:0:0:0:
192,192,93312,1,0,0:0:0:0:
320,192,93312,128,0,93482:0:0:0:0:
64,192,93482,128,0,93567:0:0:0:0:
192,192,93482,128,0,93567:0:0:0:0:
448,192,93567,128,0,93651:0:0:0:0:
320,192,93567,128,0,93651:0:0:0:0:
64,192,93651,128,0,93736:0:0:0:0:
192,192,93651,128,0,93736:0:0:0:0:
448,192,93736,128,0,93821:0:0:0:0:
320,192,93736,128,0,93821:0:0:0:0:
64,192,93821,128,0,93906:0:0:0:0:
192,192,93821,128,0,93906:0:0:0:0:
448,192,93906,128,0,93990:0:0:0:0:
320,192,93906,128,0,93990:0:0:0:0:
64,192,93990,128,0,94075:0:0:0:0:
192,192,93990,128,0,94075:0:0:0:0:
448,192,94075,1,0,0:0:0:0:
320,192,94075,1,0,0:0:0:0:
192,192,94160,128,0,94329:0:0:0:0:
448,192,94160,128,0,94329:0:0:0:0:
64,192,94160,128,0,94329:0:0:0:0:
192,192,94414,1,0,0:0:0:0:
320,192,94414,1,0,0:0:0:0:
448,192,94414,1,0,0:0:0:0:
64,192,94499,1,0,0:0:0:0:
320,192,94499,128,0,94668:0:0:0:0:
192,192,94668,1,0,0:0:0:0:
448,192,94668,1,0,0:0:0:0:
64,192,94668,128,0,94838:0:0:0:0:
192,192,94838,128,0,95007:0:0:0:0:
320,192,94838,128,0,95007:0:0:0:0:
448,192,94838,128,0,95007:0:0:0:0:
64,192,95092,1,0,0:0:0:0:
192,192,95092,1,0,0:0:0:0:
320,192,95092,1,0,0:0:0:0:
448,192,95177,1,0,0:0:0:0:
64,192,95177,128,0,95346:0:0:0:0:
192,192,95346,1,0,0:0:0:0:
320,192,95346,1,0,0:0:0:0:
448,192,95346,128,0,95516:0:0:0:0:
64,192,95516,128,0,95685:0:0:0:0:
192,192,95516,128,0,95685:0:0:0:0:
320,192,95516,128,0,95685:0:0:0:0:
64,192,95770,1,0,0:0:0:0:
320,192,95770,1,0,0:0:0:0:
448,192,95770,1,0,0:0:0:0:
448,192,95855,1,0,0:0:0:0:
192,192,95855,128,0,96024:0:0:0:0:
64,192,96024,1,0,0:0:0:0:
448,192,96024,1,0,0:0:0:0:
320,192,96024,128,0,96194:0:0:0:0:
64,192,96194,128,0,96448:0:0:0:0:
192,192,96194,128,0,96702:0:0:0:0:
448,192,96194,128,0,96448:0:0:0:0:
320,192,96448,128,0,96702:0:0:0:0:
64,192,96702,1,0,0:0:0:0:
448,192,96702,1,0,0:0:0:0:
64,192,96872,128,0,97041:0:0:0:0:
192,192,96872,128,0,97041:0:0:0:0:
448,192,96872,128,0,97041:0:0:0:0:
192,192,97126,1,0,0:0:0:0:
320,192,97126,1,0,0:0:0:0:
448,192,97126,1,0,0:0:0:0:
64,192,97211,1,0,0:0:0:0:
192,192,97211,128,0,97380:0:0:0:0:
320,192,97380,1,0,0:0:0:0:
448,192,97380,1,0,0:0:0:0:
64,192,97380,128,0,97550:0:0:0:0:
192,192,97550,128,0,97719:0:0:0:0:
320,192,97550,128,0,97719:0:0:0:0:
448,192,97550,128,0,97719:0:0:0:0:
64,192,97804,1,0,0:0:0:0:
192,192,97804,1,0,0:0:0:0:
320,192,97804,1,0,0:0:0:0:
448,192,97889,1,0,0:0:0:0:
320,192,97889,128,0,98058:0:0:0:0:
64,192,98058,1,0,0:0:0:0:
192,192,98058,1,0,0:0:0:0:
448,192,98058,128,0,98228:0:0:0:0:
192,192,98228,128,0,98397:0:0:0:0:
64,192,98228,128,0,98397:0:0:0:0:
320,192,98228,128,0,98397:0:0:0:0:
64,192,98482,1,0,0:0:0:0:
320,192,98482,1,0,0:0:0:0:
448,192,98482,1,0,0:0:0:0:
320,192,98567,128,0,98736:0:0:0:0:
192,192,98567,1,0,0:0:0:0:
192,192,98736,128,0,98906:0:0:0:0:
64,192,98736,1,0,0:0:0:0:
448,192,98736,1,0,0:0:0:0:
448,192,98906,128,0,98990:0:0:0:0:
64,192,98906,128,0,98990:0:0:0:0:
192,192,98990,128,0,99075:0:0:0:0:
320,192,98990,128,0,99075:0:0:0:0:
448,192,99075,128,0,99160:0:0:0:0:
64,192,99075,128,0,99160:0:0:0:0:
192,192,99160,128,0,99245:0:0:0:0:
320,192,99160,128,0,99245:0:0:0:0:
448,192,99245,128,0,99329:0:0:0:0:
64,192,99245,128,0,99329:0:0:0:0:
192,192,99329,128,0,99414:0:0:0:0:
320,192,99329,128,0,99414:0:0:0:0:
64,192,99414,128,0,99499:0:0:0:0:
448,192,99414,128,0,99499:0:0:0:0:
192,192,99499,1,0,0:0:0:0:
320,192,99499,1,0,0:0:0:0:
64,192,99584,128,0,99753:0:0:0:0:
320,192,99584,128,0,99753:0:0:0:0:
448,192,99584,128,0,99753:0:0:0:0:
64,192,99838,128,0,100007:0:0:0:0:
192,192,99838,128,0,100007:0:0:0:0:
320,192,99838,128,0,100007:0:0:0:0:
192,192,100092,128,0,100177:0:0:0:0:
320,192,100092,128,0,100177:0:0:0:0:
448,192,100092,128,0,100177:0:0:0:0:
64,192,100262,128,0,100431:0:0:0:0:
192,192,100262,128,0,100431:0:0:0:0:
448,192,100262,128,0,100431:0:0:0:0:
64,192,100516,128,0,100685:0:0:0:0:
320,192,100516,128,0,100685:0:0:0:0:
448,192,100516,128,0,100685:0:0:0:0:
64,192,100770,128,0,100855:0:0:0:0:
192,192,100770,128,0,100855:0:0:0:0:
320,192,100770,128,0,100855:0:0:0:0:
448,192,100939,128,0,101109:0:0:0:0:
192,192,100939,128,0,101109:0:0:0:0:
320,192,100939,1,0,0:0:0:0:
64,192,101109,1,0,0:0:0:0:
64,192,101278,128,0,101448:0:0:0:0:
320,192,101278,128,0,101448:0:0:0:0:
192,192,101278,1,0,0:0:0:0:
192,192,101448,128,0,101617:0:0:0:0:
448,192,101448,128,0,101617:0:0:0:0:
320,192,101617,128,0,101872:0:0:0:0:
64,192,101872,128,0,102126:0:0:0:0:
448,192,101872,128,0,102126:0:0:0:0:
192,192,102126,128,0,102211:0:0:0:0:
320,192,102126,128,0,102211:0:0:0:0:
192,192,102295,128,0,102465:0:0:0:0:
64,192,102295,128,0,102465:0:0:0:0:
320,192,102295,128,0,102465:0:0:0:0:
448,192,102295,128,0,102973:0:0:0:0:
64,192,102550,1,0,0:0:0:0:
192,192,102550,1,0,0:0:0:0:
192,192,102634,128,0,102804:0:0:0:0:
320,192,102634,1,0,0:0:0:0:
64,192,102804,1,0,0:0:0:0:
64,192,102973,128,0,103651:0:0:0:0:
192,192,102973,128,0,103143:0:0:0:0:
320,192,102973,128,0,103143:0:0:0:0:
320,192,103228,1,0,0:0:0:0:
448,192,103228,1,0,0:0:0:0:
192,192,103312,1,0,0:0:0:0:
320,192,103312,128,0,103482:0:0:0:0:
448,192,103482,1,0,0:0:0:0:
320,192,103651,128,0,104329:0:0:0:0:
192,192,103651,128,0,103821:0:0:0:0:
448,192,103651,128,0,103821:0:0:0:0:
64,192,103906,1,0,0:0:0:0:
192,192,103906,1,0,0:0:0:0:
448,192,103990,1,0,0:0:0:0:
64,192,103990,128,0,104160:0:0:0:0:
192,192,104160,1,0,0:0:0:0:
64,192,104329,128,0,104414:0:0:0:0:
192,192,104329,128,0,104414:0:0:0:0:
448,192,104329,128,0,104414:0:0:0:0:
320,192,104414,128,0,104499:0:0:0:0:
64,192,104499,128,0,104584:0:0:0:0:
448,192,104499,128,0,104584:0:0:0:0:
192,192,104584,128,0,104668:0:0:0:0:
64,192,104668,128,0,104753:0:0:0:0:
320,192,104668,128,0,104753:0:0:0:0:
448,192,104668,128,0,104753:0:0:0:0:
192,192,104753,128,0,104838:0:0:0:0:
64,192,104838,128,0,104923:0:0:0:0:
448,192,104838,128,0,104923:0:0:0:0:
64,192,105007,128,0,105177:0:0:0:0:
320,192,105007,128,0,105177:0:0:0:0:
448,192,105007,128,0,105177:0:0:0:0:
192,192,105007,128,0,105685:0:0:0:0:
64,192,105262,1,0,0:0:0:0:
320,192,105262,1,0,0:0:0:0:
448,192,105346,1,0,0:0:0:0:
320,192,105346,128,0,105516:0:0:0:0:
64,192,105516,1,0,0:0:0:0:
448,192,105685,128,0,106363:0:0:0:0:
64,192,105685,128,0,105855:0:0:0:0:
320,192,105685,128,0,105855:0:0:0:0:
192,192,105939,1,0,0:0:0:0:
320,192,105939,1,0,0:0:0:0:
192,192,106024,128,0,106194:0:0:0:0:
64,192,106024,1,0,0:0:0:0:
320,192,106194,1,0,0:0:0:0:
64,192,106363,128,0,107041:0:0:0:0:
320,192,106363,128,0,106533:0:0:0:0:
192,192,106363,128,0,106533:0:0:0:0:
320,192,106617,1,0,0:0:0:0:
448,192,106617,1,0,0:0:0:0:
192,192,106702,1,0,0:0:0:0:
448,192,106702,128,0,106872:0:0:0:0:
320,192,106872,1,0,0:0:0:0:
192,192,107041,128,0,107211:0:0:0:0:
320,192,107041,128,0,107211:0:0:0:0:
448,192,107041,128,0,107380:0:0:0:0:
64,192,107211,1,0,0:0:0:0:
320,192,107380,128,0,107550:0:0:0:0:
192,192,107380,1,0,0:0:0:0:
64,192,107380,1,0,0:0:0:0:
448,192,107550,1,0,0:0:0:0:
192,192,107550,1,0,0:0:0:0:
192,192,107719,128,0,108397:0:0:0:0:
64,192,107719,128,0,107889:0:0:0:0:
320,192,107719,128,0,107889:0:0:0:0:
448,192,107719,128,0,107889:0:0:0:0:
64,192,107973,1,0,0:0:0:0:
448,192,107973,1,0,0:0:0:0:
320,192,108058,1,0,0:0:0:0:
448,192,108058,128,0,108228:0:0:0:0:
64,192,108228,1,0,0:0:0:0:
64,192,108397,128,0,109075:0:0:0:0:
320,192,108397,128,0,108567:0:0:0:0:
448,192,108397,128,0,108567:0:0:0:0:
192,192,108651,1,0,0:0:0:0:
448,192,108651,1,0,0:0:0:0:
192,192,108736,128,0,108906:0:0:0:0:
320,192,108736,1,0,0:0:0:0:
448,192,108906,1,0,0:0:0:0:
448,192,109075,128,0,109753:0:0:0:0:
192,192,109075,128,0,109245:0:0:0:0:
320,192,109075,128,0,109245:0:0:0:0:
64,192,109329,1,0,0:0:0:0:
192,192,109329,1,0,0:0:0:0:
320,192,109414,1,0,0:0:0:0:
64,192,109414,128,0,109584:0:0:0:0:
192,192,109584,1,0,0:0:0:0:
64,192,109753,128,0,109838:0:0:0:0:
192,192,109753,128,0,109838:0:0:0:0:
320,192,109753,128,0,109838:0:0:0:0:
448,192,109838,128,0,109923:0:0:0:0:
192,192,109923,128,0,110007:0:0:0:0:
320,192,109923,128,0,110007:0:0:0:0:
64,192,110007,128,0,110092:0:0:0:0:
320,192,110092,128,0,110177:0:0:0:0:
448,192,110092,128,0,110177:0:0:0:0:
192,192,110092,128,0,110177:0:0:0:0:
64,192,110177,128,0,110262:0:0:0:0:
192,192,110262,128,0,110346:0:0:0:0:
320,192,110262,128,0,110346:0:0:0:0:
448,192,110346,128,0,110431:0:0:0:0:
64,192,110431,1,0,0:0:0:0:
192,192,110431,1,0,0:0:0:0:
320,192,110431,1,0,0:0:0:0:
64,192,110601,1,0,0:0:0:0:
320,192,110601,1,0,0:0:0:0:
448,192,110601,1,0,0:0:0:0:
64,192,110770,1,0,0:0:0:0:
192,192,110770,1,0,0:0:0:0:
320,192,110770,1,0,0:0:0:0:
192,192,110939,1,0,0:0:0:0:
320,192,110939,1,0,0:0:0:0:
448,192,110939,1,0,0:0:0:0:
64,192,111109,1,0,0:0:0:0:
192,192,111109,1,0,0:0:0:0:
448,192,111109,1,0,0:0:0:0:
320,192,111194,1,0,0:0:0:0:
192,192,111278,1,0,0:0:0:0:
448,192,111278,1,0,0:0:0:0:
64,192,111363,1,0,0:0:0:0:
320,192,111448,1,0,0:0:0:0:
448,192,111448,1,0,0:0:0:0:
192,192,111448,1,0,0:0:0:0:
448,192,111533,1,0,0:0:0:0:
64,192,111617,1,0,0:0:0:0:
320,192,111617,1,0,0:0:0:0:
192,192,111702,1,0,0:0:0:0:
64,192,111787,1,0,0:0:0:0:
320,192,111787,1,0,0:0:0:0:
448,192,111787,128,0,112465:0:0:0:0:
192,192,111956,128,0,112465:0:0:0:0:
320,192,112295,128,0,112465:0:0:0:0:
64,192,112465,128,0,112550:0:0:0:0:
64,192,112719,128,0,112889:0:0:0:0:
64,192,112973,128,0,113058:0:0:0:0:
192,192,113143,1,0,0:0:0:0:
320,192,113143,1,0,0:0:0:0:
448,192,113143,1,0,0:0:0:0:
64,192,113143,1,0,0:0:0:0:
