osu file format v14

[General]
AudioFilename: enkan no okotowari.mp3
AudioLeadIn: 0
PreviewTime: 108731
Countdown: 0
SampleSet: Normal
StackLeniency: 0.4
Mode: 0
LetterboxInBreaks: 1
WidescreenStoryboard: 0

[Editor]
Bookmarks: 44064,65481,76064,86731,119981,130731
DistanceSpacing: 1.4
BeatDivisor: 4
GridSize: 16
TimelineZoom: 1

[Metadata]
Title:Enkan no oKotowari
TitleUnicode:Enkan no oKotowari
Artist:ETIA.
ArtistUnicode:ETIA.
Creator:mayosiiiiii
Version:harapan
Source:
Tags:
BeatmapID:171647
BeatmapSetID:48444

[Difficulty]
HPDrainRate:8
CircleSize:5
OverallDifficulty:9
ApproachRate:9
SliderMultiplier:1.9
SliderTickRate:1

[Events]
//Background and Video events
0,0,"bg.jpg",0,0
//Break Periods
2,65607,74136
2,130935,140136
//Storyboard Layer 0 (Background)
//Storyboard Layer 1 (Fail)
//Storyboard Layer 2 (Pass)
//Storyboard Layer 3 (Foreground)
//Storyboard Sound Samples

[TimingPoints]
70,333.333333333333,4,1,1,81,1,0
10236,-100,4,1,1,5,0,0
12069,-200,4,1,1,82,0,0
21069,-100,4,1,1,82,0,0
74736,-100,4,1,1,5,0,0
76069,-100,4,1,1,81,0,0
85403,-100,4,1,1,5,0,0
86736,-100,4,1,1,81,0,1
86819,-100,4,2,1,93,0,0
87236,-100,4,1,1,81,0,1
87319,-100,4,2,1,93,0,0
87736,-100,4,1,1,81,0,1
87819,-100,4,2,1,93,0,0
88236,-100,4,1,1,81,0,1
88319,-100,4,2,1,93,0,0
88736,-100,4,1,1,81,0,1
88819,-100,4,2,1,93,0,0
89069,-100,4,1,1,81,0,1
89153,-100,4,2,1,93,0,0
89403,-100,4,1,1,81,0,1
89486,-100,4,2,1,93,0,0
89903,-100,4,1,1,81,0,1
89986,-100,4,2,1,93,0,0
90403,-100,4,1,1,81,0,1
90486,-100,4,2,1,93,0,0
90903,-100,4,1,1,81,0,1
90986,-100,4,2,1,93,0,0
91403,-100,4,1,1,81,0,1
91486,-100,4,2,1,93,0,0
91736,-100,4,1,1,81,0,1
91819,-100,4,2,1,93,0,0
92069,-100,4,1,1,81,0,1
92153,-100,4,2,1,93,0,0
92569,-100,4,1,1,81,0,1
92653,-100,4,2,1,93,0,0
93069,-100,4,1,1,81,0,1
93153,-100,4,2,1,93,0,0
93569,-100,4,1,1,81,0,1
93653,-100,4,2,1,93,0,0
94069,-100,4,1,1,81,0,1
94153,-100,4,2,1,93,0,0
94403,-100,4,1,1,81,0,1
94486,-100,4,2,1,93,0,0
94736,-100,4,1,1,81,0,1
94819,-100,4,2,1,93,0,0
95236,-100,4,1,1,81,0,1
95319,-100,4,2,1,93,0,0
95736,-100,4,1,1,81,0,1
95819,-100,4,2,1,93,0,0
96236,-100,4,1,1,81,0,1
96319,-100,4,2,1,93,0,0
96736,-100,4,1,1,81,0,0
96819,-100,4,2,1,93,0,0
96903,-100,4,1,1,81,0,0
96986,-100,4,2,1,93,0,0
97069,-100,4,1,1,81,0,0
97153,-100,4,2,1,93,0,0
97236,-100,4,1,1,81,0,0
99486,-100,4,2,1,93,0,0
99736,-100,4,1,1,81,0,0
99819,-100,4,2,1,93,0,0
100069,-100,4,1,1,81,0,0
102153,-100,4,2,1,93,0,0
102403,-100,4,1,1,81,0,0
102486,-100,4,2,1,93,0,0
102736,-100,4,1,1,81,0,0
107403,-100,4,2,1,93,0,0
107486,-100,4,1,1,81,0,0
107736,-100,4,2,1,93,0,0
107819,-100,4,1,1,81,0,0
108069,-100,4,1,1,5,0,0
109403,-100,4,1,1,81,0,0
118236,-100,4,2,1,93,0,0
118403,-100,4,1,1,81,0,0
118486,-100,4,2,1,93,0,0
118736,-100,4,1,1,81,0,0
118819,-100,4,2,1,93,0,0
119069,-100,4,1,1,81,0,0
119236,-100,4,2,1,93,0,0
119403,-100,4,1,1,81,0,0
119486,-100,4,2,1,93,0,0
119736,-100,4,1,1,81,0,0
120069,-100,4,1,1,81,0,1
120153,-100,4,2,1,93,0,1
120403,-100,4,1,1,81,0,1
120486,-100,4,2,1,93,0,1
120736,-100,4,1,1,81,0,1
120819,-100,4,2,1,93,0,1
121069,-100,4,1,1,81,0,1
121153,-100,4,2,1,93,0,1
121403,-100,4,1,1,81,0,1
121486,-100,4,2,1,93,0,1
121736,-100,4,1,1,81,0,1
121819,-100,4,2,1,93,0,1
122069,-100,4,1,1,81,0,1
122153,-100,4,2,1,93,0,1
122403,-100,4,1,1,81,0,1
122486,-100,4,2,1,93,0,1
122569,-100,4,1,1,81,0,1
122653,-100,4,2,1,93,0,0
122736,-100,4,1,1,81,0,1
122819,-100,4,2,1,93,0,1
123069,-100,4,1,1,81,0,1
123153,-100,4,2,1,93,0,1
123403,-100,4,1,1,81,0,1
123486,-100,4,2,1,93,0,1
123736,-100,4,1,1,81,0,1
123819,-100,4,2,1,93,0,1
124069,-100,4,1,1,81,0,1
124153,-100,4,2,1,93,0,1
124403,-100,4,1,1,81,0,1
124486,-100,4,2,1,93,0,1
124736,-100,4,1,1,81,0,1
124819,-100,4,2,1,93,0,1
125069,-100,4,1,1,81,0,1
125153,-100,4,2,1,93,0,1
125236,-100,4,1,1,81,0,1
125319,-100,4,2,1,93,0,0
125403,-100,4,1,1,81,0,1
126653,-100,4,1,1,81,0,0
126736,-100,4,1,1,81,0,1
127986,-100,4,1,1,81,0,0
128069,-100,4,1,1,81,0,1
130736,-100,4,1,1,81,0,0
140736,-100,4,2,1,5,0,0

[Colours]
Combo1 : 255,255,0
Combo2 : 255,255,255
Combo3 : 0,255,255
Combo4 : 255,0,128

[HitObjects]
256,192,10236,12,0,11903,0:0:0:0:
256,68,12070,6,0,B|296:92|336:64|336:64|392:96|376:164,1,190
504,168,13403,1,0,0:0:0:0:
488,244,13736,1,0,0:0:0:0:
472,320,14069,1,0,0:0:0:0:
304,368,14736,6,0,B|200:312|276:192,1,190
480,240,15903,1,0,0:0:0:0:
312,360,16236,1,0,0:0:0:0:
312,360,16570,1,0,0:0:0:0:
232,328,16736,2,0,B|200:340|200:340|176:328|176:328|136:344,1,95
12,211,17403,6,0,B|80:232|80:232|120:208|120:208|200:232,1,190
416,216,18570,1,0,0:0:0:0:
400,236,18903,1,0,0:0:0:0:
380,244,19069,1,0,0:0:0:0:
356,240,19236,1,0,0:0:0:0:
336,248,19403,1,0,0:0:0:0:
308,260,19569,1,0,0:0:0:0:
301,264,19736,1,0,0:0:0:0:
295,268,19903,1,0,0:0:0:0:
224,232,20069,6,0,B|192:188|192:188|248:100,1,142.5
288,52,20736,1,0,0:0:0:0:
344,112,20903,1,0,0:0:0:0:
420,84,21069,2,0,B|456:69|456:69|432:196,1,142.5
416,200,21403,5,4,0:0:0:0:
296,132,21736,1,0,0:0:0:0:
296,132,21903,1,4,0:0:0:0:
268,352,22236,1,0,0:0:0:0:
208,308,22403,2,0,B|196:268,7,23.75,4|0|0|0|0|0|0|0,0:0|0:0|0:0|0:0|0:0|0:0|0:0|0:0,0:0:0:0:
184,340,22736,5,4,0:0:0:0:
112,368,22903,1,0,0:0:0:0:
40,340,23069,1,0,0:0:0:0:
12,268,23236,1,2,0:0:0:0:
32,196,23403,1,0,0:0:0:0:
100,228,23569,1,0,0:0:0:0:
176,212,23736,1,2,0:0:0:0:
216,148,23903,1,0,0:0:0:0:
204,72,24069,1,2,0:0:0:0:
144,24,24236,1,0,0:0:0:0:
144,24,24319,1,0,0:0:0:0:
144,24,24403,1,2,0:0:0:0:
68,36,24569,1,2,0:0:0:0:
20,96,24736,2,0,B|37:194,3,95,0|2|0|2,0:0|0:0|0:0|0:0,0:0:0:0:
52,264,25403,5,0,0:0:0:0:
124,240,25569,1,0,0:0:0:0:
196,220,25736,1,0,0:0:0:0:
240,280,25903,1,2,0:0:0:0:
312,256,26069,1,0,0:0:0:0:
384,236,26236,1,0,0:0:0:0:
448,280,26403,1,2,0:0:0:0:
496,220,26569,1,0,0:0:0:0:
432,176,26736,1,2,0:0:0:0:
460,104,26903,1,0,0:0:0:0:
460,104,26986,1,0,0:0:0:0:
460,104,27069,1,2,0:0:0:0:
384,108,27236,2,2,B|324:84|324:84|280:104|280:104|224:36,2,190
432,176,28069,6,0,B|404:364,3,190,4|0|0|0,0:0|0:0|0:0|0:0,0:0:0:0:
308,216,29403,2,0,B|336:28,3,190
224,316,30736,2,0,B|36:344,3,190
36,343,31903,1,0,0:0:0:0:
152,216,32069,6,2,B|340:188,1,190,2|2,0:0|0:0,0:0:0:0:
488,280,32569,2,2,B|300:308,1,190,0|2,0:0|0:0,0:0:0:0:
300,307,33069,1,0,0:0:0:0:
224,316,33236,5,2,0:0:0:0:
224,316,33319,1,0,0:0:0:0:
224,316,33403,2,0,B|116:336,1,95,4|0,0:0|0:0,0:0:0:0:
8,272,33736,2,0,B|116:252,1,95,0|2,0:0|0:0,0:0:0:0:
176,240,34069,1,0,0:0:0:0:
252,224,34236,1,0,0:0:0:0:
328,208,34403,1,2,0:0:0:0:
396,244,34569,1,0,0:0:0:0:
468,220,34736,1,2,0:0:0:0:
504,152,34903,1,0,0:0:0:0:
504,152,34986,1,0,0:0:0:0:
504,152,35069,1,2,0:0:0:0:
480,80,35236,1,2,0:0:0:0:
416,36,35403,2,0,B|308:36,3,95,0|2|0|2,0:0|0:0|0:0|0:0,0:0:0:0:
248,72,36069,5,0,0:0:0:0:
184,32,36236,1,0,0:0:0:0:
108,24,36403,1,0,0:0:0:0:
48,72,36569,1,2,0:0:0:0:
20,144,36736,1,0,0:0:0:0:
76,196,36903,1,0,0:0:0:0:
152,184,37069,1,2,0:0:0:0:
228,172,37236,1,0,0:0:0:0:
296,208,37403,1,2,0:0:0:0:
336,144,37569,1,0,0:0:0:0:
336,144,37653,1,0,0:0:0:0:
336,144,37736,1,2,0:0:0:0:
400,188,37903,2,2,B|508:144|508:144|420:88,2,190
296,208,38736,6,0,B|280:304,7,95,4|0|0|0|0|0|0|0,0:0|0:0|0:0|0:0|0:0|0:0|0:0|0:0,0:0:0:0:
168,292,40070,2,0,B|236:384,3,95,4|0|0|0,0:0|0:0|0:0|0:0,0:0:0:0:
280,300,40736,2,0,B|308:152,2,142.5
168,292,41403,6,0,B|176:352,3,47.5,4|0|0|0,0:0|0:0|0:0|0:0,0:0:0:0:
120,240,41736,2,0,B|128:300,3,47.5
72,184,42070,2,0,B|80:244,3,47.5,4|0|0|0,0:0|0:0|0:0|0:0,0:0:0:0:
24,128,42403,2,0,B|32:188,3,47.5
56,64,42736,5,4,0:0:0:0:
184,92,43070,1,0,0:0:0:0:
184,92,43236,1,0,0:0:0:0:
320,112,43570,1,0,0:0:0:0:
456,136,43903,1,0,0:0:0:0:
456,136,44070,5,4,0:0:0:0:
384,56,44403,2,0,B|80:56,1,285
99,56,45070,1,0,0:0:0:0:
48,256,45403,5,0,0:0:0:0:
120,176,45736,2,0,B|432:176,1,285
405,176,46403,1,0,0:0:0:0:
440,368,46736,5,0,0:0:0:0:
368,288,47070,2,0,B|64:288,1,285
83,288,47736,1,0,0:0:0:0:
176,160,48070,5,0,0:0:0:0:
256,160,48403,1,0,0:0:0:0:
256,160,48570,1,0,0:0:0:0:
336,160,48903,1,0,0:0:0:0:
336,160,49070,1,0,0:0:0:0:
296,272,49403,5,0,0:0:0:0:
440,320,49736,2,0,B|536:184|432:40,1,285
441,54,50403,1,0,0:0:0:0:
216,112,50736,5,0,0:0:0:0:
72,64,51070,2,0,B|-24:200|80:344,1,285
70,329,51736,1,0,0:0:0:0:
296,272,52070,5,0,0:0:0:0:
440,320,52403,2,0,B|536:184|432:40,1,285
441,54,53070,1,0,0:0:0:0:
336,160,53403,5,4,0:0:0:0:
256,160,53736,1,0,0:0:0:0:
256,160,53903,1,4,0:0:0:0:
176,160,54236,1,0,0:0:0:0:
176,160,54403,1,4,0:0:0:0:
256,192,54736,12,4,55070,0:0:0:0:
208,320,55236,6,0,B|88:340,1,95
44,284,55570,1,0,0:0:0:0:
96,216,55736,2,0,B|288:188,1,190
368,176,56236,2,0,B|476:160,1,95
504,88,56570,1,0,0:0:0:0:
448,24,56736,2,0,B|340:40,1,95
308,108,57070,2,0,B|336:296,1,190
260,340,57570,6,0,B|244:240,1,95
180,192,57903,2,0,B|-8:236,2,190
236,128,58736,1,0,0:0:0:0:
300,188,58903,1,0,0:0:0:0:
292,208,58986,1,0,0:0:0:0:
284,228,59070,2,0,B|304:332,1,95
301,321,59320,1,0,0:0:0:0:
301,321,59403,1,0,0:0:0:0:
380,356,59570,1,0,0:0:0:0:
380,356,59903,1,0,0:0:0:0:
444,300,60070,5,4,0:0:0:0:
364,264,60236,1,2,0:0:0:0:
432,208,60403,1,0,0:0:0:0:
348,172,60570,1,0,0:0:0:0:
412,116,60736,1,2,0:0:0:0:
332,80,60903,1,0,0:0:0:0:
396,24,61070,1,2,0:0:0:0:
472,60,61236,5,0,0:0:0:0:
472,60,61320,1,0,0:0:0:0:
472,60,61403,1,4,0:0:0:0:
388,77,61570,1,2,0:0:0:0:
304,94,61736,1,0,0:0:0:0:
220,111,61903,1,0,0:0:0:0:
136,127,62069,1,2,0:0:0:0:
60,88,62236,6,0,B|52:52,4,23.75,0|0|0|0|0,0:0|0:0|0:0|0:0|0:0,0:0:0:0:
19,160,62486,2,0,B|11:200,5,23.75
47,180,62736,5,4,0:0:0:0:
236,36,62986,1,4,0:0:0:0:
160,356,63236,1,4,0:0:0:0:
452,304,63570,5,0,0:0:0:0:
368,284,63736,1,4,0:0:0:0:
284,264,63903,1,0,0:0:0:0:
204,292,64070,5,4,0:0:0:0:
80,112,64320,1,4,0:0:0:0:
460,240,64570,1,4,0:0:0:0:
288,88,64736,5,4,0:0:0:0:
104,224,64903,1,4,0:0:0:0:
392,286,65070,1,4,0:0:0:0:
378,274,65153,1,0,0:0:0:0:
366,262,65236,2,0,B|370:218,4,23.75,0|0|0|0|4,0:0|0:0|0:0|0:0|0:0,0:0:0:0:
256,192,74736,12,0,75903,0:0:0:0:
120,320,76070,5,0,0:0:0:0:
148,308,76736,1,0,0:0:0:0:
176,296,77403,1,0,0:0:0:0:
252,312,77736,1,0,0:0:0:0:
328,328,78070,1,0,0:0:0:0:
480,272,78569,5,0,0:0:0:0:
464,236,78736,5,0,0:0:0:0:
436,248,79403,1,0,0:0:0:0:
408,260,79903,1,0,0:0:0:0:
408,260,80069,1,0,0:0:0:0:
332,244,80403,1,0,0:0:0:0:
256,228,80736,1,0,0:0:0:0:
180,212,81069,1,0,0:0:0:0:
60,136,81403,5,0,0:0:0:0:
88,124,82069,1,0,0:0:0:0:
116,112,82736,1,0,0:0:0:0:
192,128,83069,1,0,0:0:0:0:
268,144,83403,1,0,0:0:0:0:
452,124,83903,5,0,0:0:0:0:
436,88,84069,5,0,0:0:0:0:
360,72,84403,1,0,0:0:0:0:
284,56,84736,1,0,0:0:0:0:
208,40,85069,1,0,0:0:0:0:
208,40,85236,1,0,0:0:0:0:
256,192,85403,12,0,86569,0:0:0:0:
444,297,86736,5,4,0:0:0:0:
431,314,86819,1,0,0:0:0:0:
409,324,86903,1,2,0:0:0:0:
385,324,86986,1,0,0:0:0:0:
362,317,87069,1,2,0:0:0:0:
342,302,87153,1,0,0:0:0:0:
332,285,87236,2,0,B|313:266|318:234,5,47.5,4|0|2|0|2|0,0:0|0:0|0:0|0:0|0:0|0:0,0:0:0:0:
302,212,87736,5,4,0:0:0:0:
280,202,87819,1,0,0:0:0:0:
256,197,87903,1,2,0:0:0:0:
232,199,87986,1,0,0:0:0:0:
209,207,88069,1,2,0:0:0:0:
189,221,88153,1,0,0:0:0:0:
173,241,88236,2,0,B|151:301,5,47.5,4|0|2|0|2|0,0:0|0:0|0:0|0:0|0:0|0:0,0:0:0:0:
151,318,88736,5,4,0:0:0:0:
129,343,88819,1,0,0:0:0:0:
98,358,88903,1,2,0:0:0:0:
72,335,88986,1,0,0:0:0:0:
56,303,89069,1,4,0:0:0:0:
55,269,89153,1,0,0:0:0:0:
64,237,89236,1,2,0:0:0:0:
84,211,89319,1,0,0:0:0:0:
117,197,89403,5,4,0:0:0:0:
139,191,89486,1,0,0:0:0:0:
158,177,89569,1,2,0:0:0:0:
168,155,89653,1,0,0:0:0:0:
173,132,89736,1,2,0:0:0:0:
168,108,89819,1,0,0:0:0:0:
157,86,89903,2,0,B|141:23,5,47.5,4|0|2|0|2|0,0:0|0:0|0:0|0:0|0:0|0:0,0:0:0:0:
119,52,90403,5,4,0:0:0:0:
101,35,90486,1,0,0:0:0:0:
78,29,90569,1,2,0:0:0:0:
54,30,90653,1,0,0:0:0:0:
35,44,90736,1,2,0:0:0:0:
27,66,90819,1,0,0:0:0:0:
27,89,90903,2,0,B|23:120|43:139,5,47.5,4|0|2|0|2|0,0:0|0:0|0:0|0:0|0:0|0:0,0:0:0:0:
66,151,91403,5,4,0:0:0:0:
96,163,91486,1,0,0:0:0:0:
129,163,91569,1,2,0:0:0:0:
149,136,91653,1,0,0:0:0:0:
172,112,91736,1,4,0:0:0:0:
202,99,91819,1,0,0:0:0:0:
235,101,91903,1,2,0:0:0:0:
266,111,91986,1,0,0:0:0:0:
290,133,92069,5,4,0:0:0:0:
305,151,92153,1,0,0:0:0:0:
315,172,92236,1,2,0:0:0:0:
321,194,92319,1,0,0:0:0:0:
320,217,92403,1,2,0:0:0:0:
314,239,92486,1,0,0:0:0:0:
302,259,92569,2,0,B|321:321,5,47.5,4|0|2|0|2|0,0:0|0:0|0:0|0:0|0:0|0:0,0:0:0:0:
347,316,93069,5,4,0:0:0:0:
367,331,93153,1,0,0:0:0:0:
388,340,93236,1,2,0:0:0:0:
411,342,93319,1,0,0:0:0:0:
435,334,93403,1,2,0:0:0:0:
453,319,93486,1,0,0:0:0:0:
467,301,93569,2,0,B|478:281|476:242,5,47.5,4|0|2|0|2|0,0:0|0:0|0:0|0:0|0:0|0:0,0:0:0:0:
489,223,94069,5,4,0:0:0:0:
476,192,94153,1,0,0:0:0:0:
448,173,94236,1,2,0:0:0:0:
417,159,94319,1,0,0:0:0:0:
383,156,94403,1,4,0:0:0:0:
408,134,94486,1,0,0:0:0:0:
418,102,94569,1,2,0:0:0:0:
419,68,94653,1,0,0:0:0:0:
398,41,94736,5,4,0:0:0:0:
380,25,94819,1,0,0:0:0:0:
356,18,94903,1,2,0:0:0:0:
332,18,94986,1,0,0:0:0:0:
309,26,95069,1,2,0:0:0:0:
293,44,95153,1,0,0:0:0:0:
283,65,95236,2,0,B|275:99|292:125,5,47.5,4|0|2|0|2|0,0:0|0:0|0:0|0:0|0:0|0:0,0:0:0:0:
292,145,95736,5,4,0:0:0:0:
281,166,95819,1,0,0:0:0:0:
264,183,95903,1,2,0:0:0:0:
242,193,95986,1,0,0:0:0:0:
218,198,96069,1,2,0:0:0:0:
194,192,96153,1,0,0:0:0:0:
176,176,96236,2,0,B|154:113,5,47.5,4|0|2|0|2|0,0:0|0:0|0:0|0:0|0:0|0:0,0:0:0:0:
96,56,96736,6,0,B|83:111,1,47.5,4|0,0:0|0:0,0:0:0:0:
0,168,96903,2,0,B|68:186,1,47.5,0|0,0:0|0:0,0:0:0:0:
128,224,97069,2,0,B|111:285,1,47.5,4|0,0:0|0:0,0:0:0:0:
48,320,97236,2,0,B|11:311,4,23.75,0|0|0|0|0,0:0|0:0|0:0|0:0|0:0,0:0:0:0:
189,338,97736,5,4,0:0:0:0:
189,338,97903,1,2,0:0:0:0:
272,324,98069,1,0,0:0:0:0:
272,324,98236,1,0,0:0:0:0:
356,312,98403,1,2,0:0:0:0:
435,342,98569,1,0,0:0:0:0:
467,262,98736,1,0,0:0:0:0:
387,230,98903,1,2,0:0:0:0:
356,312,99069,1,0,0:0:0:0:
435,342,99236,1,2,0:0:0:0:
467,262,99403,5,0,0:0:0:0:
435,233,99486,1,0,0:0:0:0:
472,212,99569,1,2,0:0:0:0:
487,171,99653,1,0,0:0:0:0:
447,156,99736,1,0,0:0:0:0:
405,149,99819,1,0,0:0:0:0:
425,112,99903,1,2,0:0:0:0:
461,87,99986,1,0,0:0:0:0:
423,64,100069,5,4,0:0:0:0:
423,64,100236,1,0,0:0:0:0:
338,77,100403,1,0,0:0:0:0:
338,77,100569,1,2,0:0:0:0:
254,89,100736,1,0,0:0:0:0:
254,89,100903,1,0,0:0:0:0:
174,57,101069,1,2,0:0:0:0:
90,33,101236,1,0,0:0:0:0:
30,97,101403,1,0,0:0:0:0:
114,121,101569,1,2,0:0:0:0:
54,185,101736,1,0,0:0:0:0:
138,209,101903,1,2,0:0:0:0:
196,146,102069,5,0,0:0:0:0:
230,172,102153,1,0,0:0:0:0:
271,180,102236,1,2,0:0:0:0:
268,137,102319,1,0,0:0:0:0:
282,96,102403,1,0,0:0:0:0:
320,112,102486,1,0,0:0:0:0:
344,144,102569,1,2,0:0:0:0:
368,104,102653,1,0,0:0:0:0:
400,80,102736,6,0,L|431:140,5,47.5,4|0|0|0|0|0,0:0|0:0|0:0|0:0|0:0|0:0,0:0:0:0:
504,160,103236,2,0,L|472:224,5,47.5
456,288,103736,2,0,B|360:319,1,95
334,296,103986,1,0,0:0:0:0:
334,296,104069,2,0,B|301:330|301:330|244:315,1,95,4|0,0:0|0:0,0:0:0:0:
200,269,104319,2,0,B|176:320,1,47.5
95,352,104569,1,0,0:0:0:0:
24,304,104736,1,0,0:0:0:0:
80,240,104903,1,0,0:0:0:0:
8,192,105069,1,0,0:0:0:0:
64,128,105236,1,0,0:0:0:0:
136,176,105403,5,4,0:0:0:0:
145,174,105486,1,0,0:0:0:0:
154,172,105569,1,0,0:0:0:0:
163,170,105653,1,0,0:0:0:0:
172,168,105736,1,0,0:0:0:0:
181,166,105819,1,0,0:0:0:0:
190,164,105903,1,4,0:0:0:0:
199,162,105986,1,0,0:0:0:0:
208,160,106069,1,0,0:0:0:0:
217,159,106153,1,0,0:0:0:0:
226,156,106236,2,0,B|239:125,3,23.75
249,189,106403,5,4,0:0:0:0:
253,197,106486,1,0,0:0:0:0:
256,205,106569,1,0,0:0:0:0:
259,214,106653,1,0,0:0:0:0:
262,222,106736,1,0,0:0:0:0:
265,230,106819,1,0,0:0:0:0:
268,238,106903,1,4,0:0:0:0:
271,246,106986,1,0,0:0:0:0:
275,254,107069,1,0,0:0:0:0:
348,302,107236,1,0,0:0:0:0:
424,208,107403,5,4,0:0:0:0:
424,208,107486,1,0,0:0:0:0:
424,208,107569,2,0,B|440:144,1,47.5
424,208,107736,2,0,B|448:248,1,47.5,4|0,0:0|0:0,0:0:0:0:
420,208,107903,2,0,B|372:216,1,47.5
256,192,108069,12,0,109236,0:0:0:0:
272,88,109403,6,0,B|248:160|248:160|264:192|264:192|232:292,1,190,4|0,0:0|0:0,0:0:0:0:
176,324,109903,2,0,B|56:304,1,95
20,248,110236,1,0,0:0:0:0:
96,204,110403,2,0,B|112:108,1,95
156,268,110736,2,0,B|352:292,1,190
412,344,111236,1,0,0:0:0:0:
476,288,111403,1,0,0:0:0:0:
424,220,111569,2,0,B|300:204,1,95
256,256,111903,6,0,P|56:264|120:48,1,475
152,136,112903,1,0,0:0:0:0:
152,136,113069,1,0,0:0:0:0:
152,136,113236,1,0,0:0:0:0:
216,72,113403,2,0,B|412:32,1,190
480,104,113903,2,0,B|292:144,1,190
260,236,114403,1,0,0:0:0:0:
260,236,114569,2,0,B|448:196,1,190
512,272,115069,1,0,0:0:0:0:
512,272,115236,2,0,B|324:312,1,190
326,311,115736,1,0,0:0:0:0:
244,344,115903,5,0,0:0:0:0:
228,336,115986,1,0,0:0:0:0:
212,328,116069,1,0,0:0:0:0:
128,348,116236,1,0,0:0:0:0:
56,304,116403,1,0,0:0:0:0:
72,220,116569,1,0,0:0:0:0:
156,208,116736,1,0,0:0:0:0:
192,284,116903,1,0,0:0:0:0:
276,264,117069,1,0,0:0:0:0:
312,340,117236,1,0,0:0:0:0:
388,300,117403,6,0,B|450:327|508:284|412:208|392:252|464:272|544:240|602:120|408:52,1,380
364,116,118236,2,0,B|382:177,4,47.5,0|0|0|0|0,0:0|0:0|0:0|0:0|0:0,0:0:0:0:
288,80,118736,1,0,0:0:0:0:
268,60,118819,1,0,0:0:0:0:
240,48,118903,1,0,0:0:0:0:
212,44,118986,1,0,0:0:0:0:
184,48,119069,1,0,0:0:0:0:
144,124,119236,5,0,0:0:0:0:
132,148,119319,1,0,0:0:0:0:
108,164,119403,1,0,0:0:0:0:
80,172,119486,1,0,0:0:0:0:
52,168,119569,1,0,0:0:0:0:
28,156,119653,1,0,0:0:0:0:
12,132,119736,1,0,0:0:0:0:
36,48,119903,1,0,0:0:0:0:
116,76,120069,5,4,0:0:0:0:
136,96,120153,1,0,0:0:0:0:
148,120,120236,1,2,0:0:0:0:
148,148,120319,1,0,0:0:0:0:
140,176,120403,1,0,0:0:0:0:
127,200,120486,1,0,0:0:0:0:
100,216,120569,1,2,0:0:0:0:
72,216,120653,1,0,0:0:0:0:
47,201,120736,1,0,0:0:0:0:
25,222,120819,1,0,0:0:0:0:
16,251,120903,1,2,0:0:0:0:
18,280,120986,1,0,0:0:0:0:
29,306,121069,1,0,0:0:0:0:
51,326,121153,1,0,0:0:0:0:
76,337,121236,1,2,0:0:0:0:
106,340,121319,1,0,0:0:0:0:
136,336,121403,5,0,0:0:0:0:
167,324,121486,1,0,0:0:0:0:
194,305,121569,1,2,0:0:0:0:
208,274,121653,1,0,0:0:0:0:
216,241,121736,1,0,0:0:0:0:
209,208,121819,1,0,0:0:0:0:
196,176,121903,1,2,0:0:0:0:
171,153,121986,1,0,0:0:0:0:
201,165,122069,1,0,0:0:0:0:
234,161,122153,1,0,0:0:0:0:
259,140,122236,1,2,0:0:0:0:
273,110,122319,1,0,0:0:0:0:
276,76,122403,1,0,0:0:0:0:
261,46,122486,1,0,0:0:0:0:
235,25,122569,1,0,0:0:0:0:
201,25,122653,1,0,0:0:0:0:
177,52,122736,5,4,0:0:0:0:
181,89,122819,1,0,0:0:0:0:
204,119,122903,1,2,0:0:0:0:
241,136,122986,1,0,0:0:0:0:
278,139,123069,1,0,0:0:0:0:
314,127,123153,1,0,0:0:0:0:
345,106,123236,1,2,0:0:0:0:
371,79,123319,1,0,0:0:0:0:
404,62,123403,1,0,0:0:0:0:
439,65,123486,1,0,0:0:0:0:
472,82,123569,1,2,0:0:0:0:
497,112,123653,1,0,0:0:0:0:
512,152,123736,1,0,0:0:0:0:
512,189,123819,1,0,0:0:0:0:
497,226,123903,1,2,0:0:0:0:
476,256,123986,1,0,0:0:0:0:
438,276,124069,5,0,0:0:0:0:
395,280,124153,1,0,0:0:0:0:
353,269,124236,1,2,0:0:0:0:
330,232,124319,1,0,0:0:0:0:
323,189,124403,1,0,0:0:0:0:
346,153,124486,1,0,0:0:0:0:
385,137,124569,1,2,0:0:0:0:
425,149,124653,1,0,0:0:0:0:
443,188,124736,1,0,0:0:0:0:
438,225,124819,1,0,0:0:0:0:
418,257,124903,1,2,0:0:0:0:
386,272,124986,1,0,0:0:0:0:
353,276,125069,1,0,0:0:0:0:
320,273,125153,1,0,0:0:0:0:
292,263,125236,1,0,0:0:0:0:
275,249,125319,1,0,0:0:0:0:
266,236,125403,5,4,0:0:0:0:
261,224,125486,1,0,0:0:0:0:
258,214,125569,1,0,0:0:0:0:
257,204,125653,1,0,0:0:0:0:
258,194,125736,1,0,0:0:0:0:
259,184,125819,1,0,0:0:0:0:
262,175,125903,1,0,0:0:0:0:
266,166,125986,1,0,0:0:0:0:
271,158,126069,1,0,0:0:0:0:
276,150,126153,1,0,0:0:0:0:
282,143,126236,1,0,0:0:0:0:
290,138,126319,1,0,0:0:0:0:
298,133,126403,1,0,0:0:0:0:
307,130,126486,1,0,0:0:0:0:
316,129,126569,1,0,0:0:0:0:
325,130,126653,1,0,0:0:0:0:
333,133,126736,1,4,0:0:0:0:
341,137,126819,1,0,0:0:0:0:
348,143,126903,1,0,0:0:0:0:
353,150,126986,1,0,0:0:0:0:
358,157,127069,1,0,0:0:0:0:
362,165,127153,1,0,0:0:0:0:
365,173,127236,1,0,0:0:0:0:
367,182,127319,1,0,0:0:0:0:
368,191,127403,1,0,0:0:0:0:
368,200,127486,1,0,0:0:0:0:
366,209,127569,1,0,0:0:0:0:
361,217,127653,1,0,0:0:0:0:
355,224,127736,1,0,0:0:0:0:
349,231,127819,1,0,0:0:0:0:
341,237,127903,1,0,0:0:0:0:
332,241,127986,1,0,0:0:0:0:
324,242,128069,5,4,0:0:0:0:
324,242,128236,1,0,0:0:0:0:
240,224,128403,1,0,0:0:0:0:
240,224,128569,1,0,0:0:0:0:
152,204,128736,1,4,0:0:0:0:
152,204,128903,1,0,0:0:0:0:
69,184,129069,1,0,0:0:0:0:
69,184,129236,1,0,0:0:0:0:
170,96,129403,5,4,0:0:0:0:
217,51,129486,1,0,0:0:0:0:
282,35,129569,1,0,0:0:0:0:
349,39,129653,1,0,0:0:0:0:
412,58,129736,1,4,0:0:0:0:
455,107,129819,1,0,0:0:0:0:
478,169,129903,1,0,0:0:0:0:
473,235,129986,1,0,0:0:0:0:
452,298,130069,1,4,0:0:0:0:
360,256,130236,6,0,B|344:220,4,23.75
304,328,130569,2,0,B|288:364,4,23.75,0|0|0|0|4,0:0|0:0|0:0|0:0|0:0,0:0:0:0:
256,192,140736,12,0,143403,0:0:0:0:
