osu file format v13

[General]
AudioFilename: 09. Claiomh Solais.mp3
AudioLeadIn: 0
PreviewTime: 21772
Countdown: 0
SampleSet: None
StackLeniency: 0.7
Mode: 0
LetterboxInBreaks: 0
WidescreenStoryboard: 0

[Editor]
Bookmarks: 11469,21682,31895,42118,47224,57437,67649,72760,77852,88065,98278,102760,108491,118703,130193
DistanceSpacing: 1.2
BeatDivisor: 4
GridSize: 4
TimelineZoom: 1.2

[Metadata]
Title:Claiomh Solais
TitleUnicode:Claiomh Solais
Artist:ETIA.
ArtistUnicode:ETIA.
Creator:Zare
Version:Hard
Source:
Tags:Dubu Zexous inverness Jihadvent Frozen System Lilium Records Cyberaser
BeatmapID:434988
BeatmapSetID:165664

[Difficulty]
HPDrainRate:5
CircleSize:4
OverallDifficulty:6
ApproachRate:8
SliderMultiplier:1.2
SliderTickRate:2

[Events]
//Background and Video events
0,0,"Background_by_reaper_123.jpg",0,0
//Break Periods
2,47516,56767
//Storyboard Layer 0 (Background)
Sprite,Background,TopLeft,"Background_by_reaper_123.jpg",0,0
Sprite,Background,Centre,"whoop\BG1.jpg",320,240 C,0,1347,,255,255,255 F,0,1347,3900,0,0.4 S,0,1347,21772,0.66,0.76 R,0,1347,21772,-0.021,0.071 F,0,3900,6134,0.4,0 F,0,6453,9006,0,0.6 F,0,9006,10921,0.6,0 C,0,11559,,255,94,55 F,0,11559,11639,0,1 F,0,11639,12198,1,0.8 F,0,13793,14112,0.8,0.9 F,0,14112,15389,0.9,0.8 F,0,16374,16666,0.8,0.9 F,0,16666,18581,0.9,0.8 F,0,21772,,0 F,0,109538,111134,0,0.7 S,0,109538,129964,0.86,0.96 R,0,109538,129964,0.091,0.181 C,0,118793,129964,255,94,55,255,255,255 F,0,129644,,0
Sprite,Background,Centre,"whoop\BG1-blur.jpg",320,240 S,0,1347,21772,1.584,1.824 R,0,1347,21772,-0.021,0.071 C,0,11559,,255,94,55 F,0,19219,21772,0,1 F,0,21442,,0 S,0,109538,129964,2.064,2.304 R,0,109538,129964,0.091,0.181 C,0,118793,129964,255,94,55,255,255,255 F,0,125176,126772,0,1 F,0,129644,129964,1,0
Sprite,Background,Centre,"whoop\BG2.jpg",320,240 C,0,21692,,255,94,55 F,0,21692,21772,0,0.9 S,0,21692,21772,0.65,0.72 R,0,21692,42118,0.021,-0.081 S,0,21772,42198,0.72,0.92 F,0,42198,,0
Sprite,Background,Centre,"whoop\BG2-blur.jpg",320,240 C,0,21692,,255,94,55 R,0,21692,42118,0.031,-0.091 S,0,21772,42198,1.728,2.208 F,0,30708,31985,0,0.9 F,0,31985,32065,0.9,0
Sprite,Background,Centre,"whoop\BG3.jpg",320,240 C,0,42118,,255,94,55 F,0,42118,42198,0,1 S,0,42118,42198,0.85,0.74 R,0,42118,47384,-0.031,0.021 S,1,42198,47384,0.74,0.67 F,0,47384,,0 C,0,56240,,255,255,255 F,0,56240,57517,0,1 S,0,56240,67729,0.67,0.74 R,0,56240,67729,0.021,-0.031 C,0,65176,67729,255,255,255,255,94,55 F,0,67729,,0
Sprite,Background,Centre,"whoop\BG3-blur.jpg",320,240 C,0,42118,,255,94,55 R,0,42118,47384,-0.031,0.021 S,1,42198,47384,1.776,1.608 F,0,46027,47304,0,1 F,0,47304,47942,1,0
Sprite,Background,Centre,"whoop\BG4.jpg",320,240 C,0,67650,,255,94,55 F,0,67650,67729,0,1 S,0,67650,67729,0.66,0.72 R,0,67650,88155,0.031,-0.071 S,0,67729,88155,0.72,0.88 F,0,88155,,0
Sprite,Background,Centre,"whoop\BG4-lighten.jpg",320,240 F,0,67650,,0 R,0,67650,88155,0.031,-0.071 S,0,67729,88155,1.728,2.112 F,0,83049,88155,0,0.3
Sprite,Background,Centre,"whoop\BG5.jpg",320,240 C,0,88075,,255,94,55 F,0,88075,88155,0,0.9 S,0,88075,88155,0.86,0.78 R,0,88075,108581,-0.101,0.041 S,0,88155,108581,0.78,0.67 F,0,102836,103155,0.9,0 F,0,103793,104112,1,0.9 C,0,103793,104751,255,255,255,255,94,55 F,0,106027,108581,0.9,0
//Storyboard Layer 1 (Fail)
//Storyboard Layer 2 (Pass)
//Storyboard Layer 3 (Foreground)
Sprite,Foreground,TopLeft,"whoop\white.png",0,0 P,0,1347,132836,A V,0,21134,,640,480 F,0,21134,21772,0,0.1 F,0,21772,22410,0.1,0 F,0,31347,31985,0,0.03 F,0,31985,32304,0.03,0 F,0,87517,88155,0,0.1 F,0,88155,89432,0.1,0
//Storyboard Sound Samples
//Background Colour Transformations
3,100,163,162,255

[TimingPoints]
1347,319.148936170213,4,2,0,40,1,0
11559,-100,4,2,0,40,0,0
20495,-100,4,2,0,40,0,0
21772,-83.3333333333333,4,3,0,90,0,1
42198,-100,4,3,0,90,0,0
57517,-100,4,2,0,50,0,0
67729,-100,4,3,0,80,0,0
83049,-100,4,2,0,65,0,0
88155,-83.3333333333333,4,3,0,90,0,1
108581,-166.666666666667,4,2,0,90,0,0
109857,-166.666666666667,4,2,0,40,0,0
126453,-100,4,2,0,5,0,0

[Colours]
Combo1 : 253,207,123
Combo2 : 254,101,35
Combo3 : 255,159,136
Combo4 : 252,169,95

[HitObjects]
79,165,11559,6,0,P|139:153|211:169,1,120,2|0,0:0|0:0,0:0:0:0:
237,222,12038,2,0,P|294:242|360:231,1,120,2|0,0:0|0:0,0:0:0:0:
424,215,12517,2,0,L|430:149,1,60,0|0,0:0|0:0,0:0:0:0:
470,95,12836,5,0,1:0:0:0:
335,42,13155,2,0,P|305:46|275:43,1,60,0|0,0:0|0:0,0:0:0:0:
205,24,13474,1,8,0:0:0:0:
145,65,13634,2,0,P|115:62|85:65,2,60,2|2|0,0:0|0:0|0:0,0:0:0:0:
209,95,14112,2,0,P|215:154|207:213,1,120,2|0,0:0|0:0,0:0:0:0:
146,251,14591,2,0,P|224:282|278:217,1,180,2|0,0:0|0:0,0:0:0:0:
267,78,15389,5,0,1:0:0:0:
351,194,15708,2,0,L|422:185,2,60,0|0|8,0:0|0:0|0:0,0:0:0:0:
307,251,16187,1,2,0:0:0:0:
237,270,16347,1,2,0:0:0:0:
169,245,16506,1,2,0:0:0:0:
140,178,16666,2,0,L|155:57,1,120,2|0,0:0|0:0,0:0:0:0:
84,46,17144,2,0,L|69:167,1,120,2|0,0:0|0:0,0:0:0:0:
31,227,17623,1,2,0:0:0:0:
116,342,17942,5,0,1:0:0:0:
257,330,18261,2,0,B|286:320|286:320|316:320,1,60,0|0,0:0|0:0,0:0:0:0:
387,334,18581,1,8,0:0:0:0:
427,274,18740,2,0,L|498:284,2,60,2|2|2,0:0|0:0|0:0,0:0:0:0:
403,205,19219,5,2,0:0:0:0:
192,253,19698,2,0,P|179:165|226:91,1,180,2|2,0:0|0:0,0:0:0:0:
332,188,20495,1,2,0:0:0:0:
325,210,21134,1,2,0:0:0:0:
318,234,21772,6,0,L|168:220,1,143.999995605469,6|8,0:3|0:0,0:0:0:0:
101,267,22251,1,2,0:3:0:0:
98,180,22410,1,0,0:3:0:0:
172,29,22729,1,8,0:0:0:0:
259,178,23049,6,0,L|427:183,2,143.999995605469,0|8|0,0:0|0:0|0:0,0:0:0:0:
200,114,23847,2,0,P|164:112|131:97,2,71.9999978027344,10|10|2,0:0|0:0|0:0,0:0:0:0:
282,90,24325,5,6,0:0:0:0:
453,113,24644,1,8,0:0:0:0:
489,191,24804,1,2,0:0:0:0:
402,185,24964,2,0,P|389:255|404:325,1,143.999995605469,0|8,0:0|0:0,0:0:0:0:
480,364,25442,1,0,0:0:0:0:
477,277,25602,5,0,0:0:0:0:
325,360,25921,2,0,B|253:367|253:367|182:352,1,143.999995605469,8|0,0:0|0:0,0:0:0:0:
214,272,26400,1,10,0:0:0:0:
173,196,26559,1,10,0:0:0:0:
205,115,26719,1,2,0:0:0:0:
163,37,26878,6,0,P|263:50|284:149,2,215.999993408203,6|2|8,0:0|0:0|0:0,0:0:0:0:
226,200,28155,2,0,P|289:226|350:189,2,143.999995605469,0|8|0,0:0|0:0|0:0,0:0:0:0:
158,145,28953,2,0,L|70:155,1,71.9999978027344,10|10,0:0|0:0,0:0:0:0:
0,140,29272,1,2,0:0:0:0:
33,220,29432,5,6,0:0:0:0:
200,262,29751,1,8,0:0:0:0:
141,325,29910,2,0,P|207:347|268:312,1,143.999995605469,2|0,0:0|0:0,0:0:0:0:
353,302,30389,2,0,L|363:228,1,71.9999978027344,10|0,0:0|0:0,0:0:0:0:
440,193,30708,6,0,L|427:50,1,143.999995605469,2|8,0:0|0:0,0:0:0:0:
265,113,31347,2,0,L|278:256,1,143.999995605469,2|8,0:0|0:0,0:0:0:0:
125,338,31985,5,6,0:0:0:0:
38,188,32304,1,8,0:0:0:0:
123,199,32464,1,2,0:0:0:0:
90,119,32623,2,0,L|102:42,1,71.9999978027344,0|0,0:0|0:0,0:0:0:0:
187,54,32942,2,0,P|222:47|257:48,1,71.9999978027344,8|0,0:0|0:0,0:0:0:0:
298,125,33261,2,0,P|368:136|435:112,2,143.999995605469,0|8|0,0:0|0:0|0:0,0:0:0:0:
240,189,34059,2,0,L|158:195,2,71.9999978027344,10|10|2,0:0|0:0|0:0,0:0:0:0:
313,234,34538,6,0,P|373:314|469:282,1,215.999993408203,6|2,0:0|0:0,0:0:0:0:
399,231,35176,2,0,L|414:82,1,143.999995605469,0|8,0:0|0:0,0:0:0:0:
250,28,35815,5,0,0:0:0:0:
320,185,36134,2,0,L|296:333,1,143.999995605469,8|0,0:0|0:0,0:0:0:0:
212,310,36612,1,10,0:0:0:0:
132,345,36772,1,10,0:0:0:0:
61,294,36932,1,2,0:0:0:0:
141,262,37091,6,0,L|151:118,1,143.999995605469,6|8,0:0|0:0,0:0:0:0:
69,93,37570,2,0,P|147:33|234:94,1,215.999993408203,2|8,0:0|0:0,0:0:0:0:
273,258,38368,2,0,P|345:276|413:267,2,143.999995605469,0|8|0,0:0|0:0|0:0,0:0:0:0:
215,194,39166,1,10,0:0:0:0:
235,110,39325,1,10,0:0:0:0:
320,93,39485,1,2,0:0:0:0:
387,39,39644,6,0,L|415:197,1,143.999995605469,6|8,0:0|0:0,0:0:0:0:
484,228,40123,2,0,L|473:376,1,143.999995605469,2|0,0:0|0:0,0:0:0:0:
386,377,40602,1,10,0:0:0:0:
234,291,40921,6,0,P|165:308|94:300,1,143.999995605469,2|8,0:0|0:0,0:0:0:0:
111,215,41400,1,0,0:0:0:0:
114,193,41479,1,8,0:0:0:0:
117,171,41559,2,0,L|119:81,1,71.9999978027344,2|8,0:0|0:0,0:0:0:0:
200,71,41878,2,0,L|198:161,1,71.9999978027344,8|8,0:0|0:0,0:0:0:0:
280,168,42198,6,0,P|365:171|396:92,1,180,4|4,0:2|0:0,0:0:0:0:
326,110,42836,1,8,0:0:0:0:
231,215,43474,2,0,P|146:213|114:290,1,180,4|4,0:2|0:0,0:0:0:0:
186,274,44112,1,8,0:0:0:0:
257,283,44272,2,0,L|388:306,1,120,8|4,0:0|0:0,0:0:0:0:
443,278,44751,5,8,0:0:0:0:
342,174,45070,1,0,0:0:0:0:
360,104,45229,1,8,0:0:0:0:
357,86,45309,1,0,0:0:0:0:
354,68,45389,6,0,P|314:35|168:131,1,240,0|4,0:0|0:0,0:0:0:0:
178,206,47304,5,12,0:0:0:0:
268,89,57517,5,4,0:0:0:0:
338,100,57676,2,0,L|458:75,2,120,2|2|2,0:0|0:0|0:0,0:0:0:0:
389,235,58634,1,2,0:0:0:0:
374,305,58793,1,4,0:0:0:0:
317,260,58953,2,0,P|259:243|199:244,1,120,2|2,0:0|0:0,0:0:0:0:
81,162,59591,2,0,B|140:173|140:173|199:169,1,120,2|2,0:0|0:0,0:0:0:0:
207,97,60070,6,0,L|287:90,2,60,4|2|0,0:0|0:0|0:0,0:0:0:0:
134,91,60549,2,0,P|160:39|216:24,1,120,2|0,0:0|0:0,0:0:0:0:
359,54,61187,1,2,0:0:0:0:
376,56,61267,1,0,0:0:0:0:
393,58,61347,2,0,P|401:104|393:182,1,120,4|0,0:0|0:0,0:0:0:0:
359,239,61825,1,2,0:0:0:0:
289,220,61985,2,0,P|230:210|167:227,1,120,0|0,0:0|0:0,0:0:0:0:
30,199,62623,6,0,L|41:79,1,120,4|0,0:0|0:0,0:0:0:0:
113,73,63102,2,0,P|142:73|172:74,1,60,2|0,0:0|0:0,0:0:0:0:
243,59,63421,1,6,0:0:0:0:
346,159,63740,1,2,0:0:0:0:
413,133,63900,2,0,P|410:191|365:228,1,120,4|0,0:0|0:0,0:0:0:0:
313,277,64378,2,0,L|193:273,1,120,6|2,0:0|0:0,0:0:0:0:
121,282,64857,1,4,0:0:0:0:
109,138,65176,6,0,L|56:82,2,60,6|2|8,0:0|0:0|0:0,0:0:0:0:
180,145,65655,1,2,0:0:0:0:
188,73,65815,2,0,L|170:-1,2,60,0|2|8,0:0|0:0|0:0,0:0:0:0:
246,114,66293,1,2,0:0:0:0:
289,56,66453,2,0,L|310:-17,2,60,6|2|8,0:0|0:0|0:0,0:0:0:0:
318,121,66932,2,0,L|354:122,8,30,2|8|0|0|10|0|8|0|10,0:0|0:0|0:0|0:0|0:0|0:0|0:0|0:0|0:0,0:0:0:0:
274,178,67729,6,0,P|253:233|255:293,1,120,6|4,0:0|0:0,0:0:0:0:
315,334,68208,2,0,P|336:278|334:218,1,120,10|4,0:0|0:0,0:0:0:0:
342,146,68687,1,10,0:0:0:0:
201,176,69006,1,4,0:0:0:0:
181,245,69166,2,0,L|59:233,1,120,10|4,0:0|0:0,0:0:0:0:
20,174,69644,2,0,B|6:117|6:117|6:85,2,90,0|0|0,1:0|1:0|1:0,0:0:0:0:
91,162,70283,5,10,0:0:0:0:
124,301,70602,1,4,0:0:0:0:
195,310,70761,2,0,L|320:323,1,120,10|4,0:0|0:0,0:0:0:0:
343,256,71240,2,0,L|218:243,1,120,10|4,0:0|0:0,0:0:0:0:
189,179,71719,1,10,0:0:0:0:
326,137,72038,1,4,0:0:0:0:
374,190,72198,2,0,B|434:197|434:197|463:191,2,90,0|0|0,1:0|1:0|1:0,0:0:0:0:
326,136,72836,6,0,P|310:80|258:53,1,120,10|4,0:0|0:0,0:0:0:0:
187,42,73315,2,0,P|202:98|254:125,1,120,10|4,0:0|0:0,0:0:0:0:
280,192,73793,1,10,0:0:0:0:
279,335,74112,1,4,0:0:0:0:
210,313,74272,2,0,P|150:319|92:303,1,120,10|4,0:0|0:0,0:0:0:0:
124,238,74751,2,0,B|146:184|146:184|141:152,2,90,0|0|0,1:0|1:0|1:0,0:0:0:0:
53,252,75389,5,10,0:0:0:0:
10,114,75708,1,4,0:0:0:0:
45,51,75868,2,0,B|104:53|104:53|158:26,1,120,10|4,0:0|0:0,0:0:0:0:
183,94,76347,2,0,B|236:66|236:66|296:69,1,120,10|4,0:0|0:0,0:0:0:0:
354,26,76825,2,0,P|367:82|334:131,1,120,10|4,0:0|0:0,0:0:0:0:
302,196,77304,2,0,B|294:256|294:256|302:284,2,90,0|0|0,1:0|1:0|1:0,0:0:0:0:
374,194,77942,6,0,L|406:199,2,30,10|0|0,0:0|0:0|0:0,0:0:0:0:
336,131,78261,2,0,P|278:126|234:168,1,120,8|0,0:0|0:0,0:0:0:0:
96,200,78900,2,0,L|93:262,1,60,10|0,0:0|0:0,0:0:0:0:
25,284,79219,2,0,P|63:327|123:326,1,120,10|0,0:0|0:0,0:0:0:0:
168,191,79857,2,0,B|228:195|228:195|257:218,2,90,0|0|0,1:0|1:0|1:0,0:0:0:0:
124,133,80495,6,0,L|128:11,2,120,10|0|10,0:0|0:0|0:0,0:0:0:0:
184,264,81453,1,0,0:0:0:0:
320,310,81772,2,0,P|377:313|451:309,1,120,10|0,0:0|0:0,0:0:0:0:
410,169,82410,2,0,B|412:108|412:108|420:80,2,90,0|0|0,1:0|1:0|1:0,0:0:0:0:
346,204,83049,5,6,0:0:0:0:
278,181,83208,2,0,P|219:170|159:179,1,120,2|2,0:0|0:0,0:0:0:0:
33,249,83847,2,0,P|91:259|151:250,1,120,2|2,0:0|0:0,0:0:0:0:
159,179,84325,1,2,0:0:0:0:
138,110,84485,2,0,L|146:26,1,60,2|0,0:0|0:0,0:0:0:0:
215,41,84804,1,2,0:0:0:0:
283,17,84964,2,0,P|330:10|381:47,2,90,2|2|0,0:0|0:0|0:0,0:0:0:0:
317,80,85602,5,6,0:0:0:0:
324,151,85761,2,0,L|389:271,2,120,2|2|2,0:0|0:0|0:0,0:0:0:0:
185,108,86719,1,2,0:0:0:0:
218,247,87038,2,0,L|207:313,1,60,2|0,0:0|0:0,0:0:0:0:
137,320,87357,1,2,0:0:0:0:
119,324,87437,1,0,0:0:0:0:
101,328,87517,2,0,L|5:339,2,90,2|2|0,0:0|0:0|0:0,0:0:0:0:
95,241,88155,6,0,P|113:171|100:101,1,143.999995605469,6|8,0:0|0:0,0:0:0:0:
30,50,88634,1,0,0:0:0:0:
108,15,88793,2,0,L|179:20,1,71.9999978027344,6|0,0:0|0:0,0:0:0:0:
266,27,89112,1,8,0:0:0:0:
193,184,89432,2,0,L|181:337,1,143.999995605469,6|8,0:0|0:0,0:0:0:0:
263,354,89910,1,0,0:0:0:0:
346,329,90070,2,0,P|417:321|487:337,1,143.999995605469,6|8,0:0|0:0,0:0:0:0:
509,253,90549,1,0,0:0:0:0:
447,192,90708,6,0,P|436:126|433:40,1,143.999995605469,6|8,0:0|0:0,0:0:0:0:
264,8,91347,2,0,P|275:74|278:160,1,143.999995605469,6|8,0:0|0:0,0:0:0:0:
203,193,91825,1,0,0:0:0:0:
280,229,91985,2,0,P|229:276|159:268,1,143.999995605469,6|8,0:0|0:0,0:0:0:0:
118,192,92464,1,0,0:0:0:0:
75,266,92623,1,6,0:0:0:0:
161,116,92942,1,8,0:0:0:0:
331,85,93261,6,0,L|415:89,2,71.9999978027344,6|2|10,0:0|0:0|0:0,0:0:0:0:
265,141,93740,1,2,0:0:0:0:
347,166,93900,2,0,L|361:321,2,143.999995605469,6|10|4,0:0|0:0|0:0,0:0:0:0:
265,141,94698,1,2,0:0:0:0:
183,167,94857,1,10,0:0:0:0:
166,252,95017,1,2,0:0:0:0:
213,323,95176,2,0,P|145:335|90:291,1,143.999995605469,4|10,0:0|0:0,0:0:0:0:
112,117,95815,5,6,0:0:0:0:
85,35,95974,1,2,0:0:0:0:
168,57,96134,2,0,L|249:64,1,71.9999978027344,10|2,0:0|0:0,0:0:0:0:
308,116,96453,1,4,0:0:0:0:
389,87,96612,1,0,0:0:0:0:
462,132,96772,2,0,L|468:208,1,71.9999978027344,10|0,0:0|0:0,0:0:0:0:
387,235,97091,2,0,P|366:300|298:322,2,143.999995605469,6|10|4,0:0|0:0|0:0,0:0:0:0:
230,160,98049,1,10,0:0:0:0:
189,235,98208,1,8,0:0:0:0:
141,162,98368,6,0,L|150:17,1,143.999995605469,6|8,0:0|0:0,0:0:0:0:
230,160,99006,2,0,L|221:305,1,143.999995605469,6|10,0:0|0:0,0:0:0:0:
285,362,99485,1,2,0:0:0:0:
368,340,99644,2,0,P|437:325|501:355,2,143.999995605469,6|8|4,0:0|0:0|0:0,0:0:0:0:
196,361,100602,1,10,0:0:0:0:
77,234,100921,6,0,L|72:90,2,143.999995605469,6|8|4,0:0|0:0|0:0,0:0:0:0:
247,208,101878,1,10,0:0:0:0:
326,242,102038,1,2,0:0:0:0:
396,191,102198,2,0,P|411:259|370:315,1,143.999995605469,6|10,0:0|0:0,0:0:0:0:
247,207,102836,2,0,B|233:137|233:137|246:103,2,107.999996704102,0|0|0,1:0|1:0|1:0,0:0:0:0:
247,207,103793,6,0,L|226:353,2,143.999995605469,6|0|0,0:0|0:0|0:0,0:0:0:0:
228,122,104591,1,0,0:0:0:0:
143,103,104751,2,0,P|182:46|251:37,1,143.999995605469,2|0,0:0|0:0,0:0:0:0:
313,97,105229,2,0,L|464:109,1,143.999995605469,2|0,0:0|0:0,0:0:0:0:
496,185,105708,1,2,0:0:0:0:
442,252,105868,1,2,0:0:0:0:
491,322,106027,6,0,P|423:337|367:297,1,143.999995605469,2|0,0:0|0:0,0:0:0:0:
290,257,106506,1,0,0:0:0:0:
268,255,106586,1,0,0:0:0:0:
246,253,106666,1,2,0:0:0:0:
95,337,106985,1,2,0:0:0:0:
106,164,107304,2,0,L|97:19,1,143.999995605469,2|0,0:0|0:0,0:0:0:0:
183,13,107783,1,0,0:0:0:0:
212,93,107942,2,0,P|285:97|357:76,1,143.999995605469,2|0,0:0|0:0,0:0:0:0:
479,8,108581,1,2,0:0:0:0:
398,160,109857,6,0,P|394:216|387:274,2,107.999996704102,2|0|0,0:0|0:0|0:0,0:0:0:0:
319,124,111134,2,0,P|368:77|440:82,2,143.999995605469,2|0|2,0:0|0:0|0:0,0:0:0:0:
320,299,113049,1,0,0:0:0:0:
192,181,113687,6,0,P|92:190|55:96,1,215.999993408203,2|0,0:0|0:0,0:0:0:0:
139,115,114964,2,0,P|206:98|265:139,1,143.999995605469,2|0,0:0|0:0,0:0:0:0:
437,133,116240,2,0,L|424:286,2,143.999995605469,2|0|2,0:0|0:0|0:0,0:0:0:0:
268,92,118155,6,0,L|272:62,5,29.9999990844727,2|0|0|2|0|2,0:0|0:0|0:0|0:0|0:0|0:0,0:0:0:0:
242,172,120070,1,2,0:0:0:0:
72,205,120708,1,0,0:0:0:0:
188,332,121347,1,2,0:0:0:0:
329,230,122623,5,2,0:0:0:0:
409,262,122942,1,0,0:0:0:0:
439,181,123261,1,0,0:0:0:0:
358,149,123581,1,0,0:0:0:0:
328,229,123900,2,0,P|272:146|333:65,1,215.999993408203,2|0,0:0|0:0,0:0:0:0:
358,149,125176,2,0,P|414:232|353:313,1,215.999993408203,2|0,0:0|0:0,0:0:0:0:
256,192,126453,12,0,129644,0:0:0:0:
