osu file format v13

[General]
AudioFilename: 09. Claiomh Solais.mp3
AudioLeadIn: 0
PreviewTime: 21772
Countdown: 0
SampleSet: None
StackLeniency: 0.7
Mode: 0
LetterboxInBreaks: 0
WidescreenStoryboard: 0

[Editor]
Bookmarks: 11469,21682,31895,42118,47224,57437,67649,77852,88065,98278,102760,108491,118703,130193
DistanceSpacing: 2
BeatDivisor: 16
GridSize: 4
TimelineZoom: 2.1

[Metadata]
Title:Claiomh Solais
TitleUnicode:Claiomh Solais
Artist:ETIA.
ArtistUnicode:ETIA.
Creator:Zare
Version:Eternal
Source:
Tags:Dubu Zexous inverness Jihadvent Frozen System Lilium Records Cyberaser
BeatmapID:403039
BeatmapSetID:165664

[Difficulty]
HPDrainRate:7
CircleSize:4
OverallDifficulty:9
ApproachRate:9.4
SliderMultiplier:1.9
SliderTickRate:2

[Events]
//Background and Video events
0,0,"Background_by_reaper_123.jpg",0,0
//Break Periods
2,47504,56817
//Storyboard Layer 0 (Background)
Sprite,Background,TopLeft,"Background_by_reaper_123.jpg",0,0
Sprite,Background,Centre,"whoop\BG1.jpg",320,240 C,0,1347,,255,255,255 F,0,1347,3900,0,0.4 S,0,1347,21772,0.66,0.76 R,0,1347,21772,-0.021,0.071 F,0,3900,6134,0.4,0 F,0,6453,9006,0,0.6 F,0,9006,10921,0.6,0 C,0,11559,,148,34,202 F,0,11559,11639,0,1 F,0,11639,12198,1,0.8 F,0,13793,14112,0.8,0.9 F,0,14112,15389,0.9,0.8 F,0,16374,16666,0.8,0.9 F,0,16666,18581,0.9,0.8 F,0,21772,,0 F,0,109538,111134,0,0.7 S,0,109538,129964,0.86,0.96 R,0,109538,129964,0.091,0.181 C,0,118793,129964,148,34,202,255,255,255 F,0,129644,,0
Sprite,Background,Centre,"whoop\BG1-blur.jpg",320,240 S,0,1347,21772,1.584,1.824 R,0,1347,21772,-0.021,0.071 C,0,11559,,148,34,202 F,0,19219,21772,0,1 F,0,21442,,0 S,0,109538,129964,2.064,2.304 R,0,109538,129964,0.091,0.181 C,0,118793,129964,148,34,202,255,255,255 F,0,125176,126772,0,1 F,0,129644,129964,1,0
Sprite,Background,Centre,"whoop\BG2.jpg",320,240 C,0,21692,,148,34,202 F,0,21692,21772,0,0.9 S,0,21692,21772,0.65,0.72 R,0,21692,42118,0.021,-0.081 S,0,21772,42198,0.72,0.92 F,0,42198,,0
Sprite,Background,Centre,"whoop\BG2-blur.jpg",320,240 C,0,21692,,148,34,202 R,0,21692,42118,0.031,-0.091 S,0,21772,42198,1.728,2.208 F,0,30708,31985,0,0.9 F,0,31985,32065,0.9,0
Sprite,Background,Centre,"whoop\BG3.jpg",320,240 C,0,42118,,148,34,202 F,0,42118,42198,0,1 S,0,42118,42198,0.85,0.74 R,0,42118,47384,-0.031,0.021 S,1,42198,47384,0.74,0.67 F,0,47384,,0 C,0,56240,,255,255,255 F,0,56240,57517,0,1 S,0,56240,67729,0.67,0.74 R,0,56240,67729,0.021,-0.031 C,0,65176,67729,255,255,255,148,34,202 F,0,67729,,0
Sprite,Background,Centre,"whoop\BG3-blur.jpg",320,240 C,0,42118,,148,34,202 R,0,42118,47384,-0.031,0.021 S,1,42198,47384,1.776,1.608 F,0,46027,47304,0,1 F,0,47304,47942,1,0
Sprite,Background,Centre,"whoop\BG4.jpg",320,240 C,0,67650,,148,34,202 F,0,67650,67729,0,1 S,0,67650,67729,0.66,0.72 R,0,67650,88155,0.031,-0.071 S,0,67729,88155,0.72,0.88 F,0,88155,,0
Sprite,Background,Centre,"whoop\BG4-lighten.jpg",320,240 F,0,67650,,0 R,0,67650,88155,0.031,-0.071 S,0,67729,88155,1.728,2.112 F,0,83049,88155,0,0.3
Sprite,Background,Centre,"whoop\BG5.jpg",320,240 C,0,88075,,148,34,202 F,0,88075,88155,0,0.9 S,0,88075,88155,0.86,0.78 R,0,88075,108581,-0.101,0.041 S,0,88155,108581,0.78,0.67 F,0,102836,103155,0.9,0 F,0,103793,104112,1,0.9 C,0,103793,104751,255,255,255,148,34,202 F,0,106027,108581,0.9,0
//Storyboard Layer 1 (Fail)
//Storyboard Layer 2 (Pass)
//Storyboard Layer 3 (Foreground)
Sprite,Foreground,TopLeft,"whoop\white.png",0,0 P,0,1347,132836,A V,0,21134,,640,480 F,0,21134,21772,0,0.1 F,0,21772,22410,0.1,0 F,0,31347,31985,0,0.03 F,0,31985,32304,0.03,0 F,0,87517,88155,0,0.1 F,0,88155,89432,0.1,0
//Storyboard Sound Samples
//Background Colour Transformations
3,100,163,162,255

[TimingPoints]
1347,319.148936170213,4,2,0,40,1,0
11559,-166.666666666667,4,2,0,40,0,0
20495,-100,4,2,0,40,0,0
21772,-100,4,3,0,90,0,1
42198,-166.666666666667,4,3,0,90,0,0
42597,-166.666666666667,4,3,0,5,0,0
42676,-166.666666666667,4,3,0,90,0,0
43873,-166.666666666667,4,3,0,5,0,0
43953,-166.666666666667,4,3,0,90,0,0
57517,-125,4,2,0,50,0,0
67729,-100,4,3,0,80,0,0
83049,-100,4,2,0,65,0,0
88155,-100,4,3,0,90,0,1
108581,-166.666666666667,4,2,0,90,0,0
109378,-166.666666666667,4,2,0,40,0,0
126453,-166.666666666667,4,2,0,5,0,0

[Colours]
Combo1 : 241,131,250
Combo2 : 201,13,240
Combo3 : 190,152,233
Combo4 : 241,7,224

[HitObjects]
83,131,11559,6,0,L|201:113,1,113.999996520996,2|0,0:0|0:0,0:0:0:0:
250,40,12038,1,2,0:0:0:0:
236,195,12198,2,0,L|241:255,1,56.9999982604981,8|0,0:0|0:0,0:0:0:0:
180,320,12517,1,0,0:0:0:0:
269,335,12676,1,0,0:0:0:0:
241,138,12836,6,0,L|236:195,1,56.9999982604981,0|0,1:0|0:0,0:0:0:0:
303,256,13155,1,0,0:0:0:0:
393,265,13315,1,0,0:0:0:0:
355,182,13474,1,8,0:0:0:0:
219,284,13634,1,2,0:0:0:0:
91,236,13793,1,2,0:0:0:0:
197,149,13953,1,2,0:0:0:0:
416,245,14112,6,0,L|303:256,1,113.999996520996,2|0,0:0|0:0,0:0:0:0:
219,284,14591,1,2,0:0:0:0:
310,163,14751,2,0,P|311:135|309:107,1,56.9999982604981,8|0,0:0|0:0,0:0:0:0:
245,41,15070,1,0,0:0:0:0:
236,40,15150,1,0,0:0:0:0:
227,39,15229,1,0,0:0:0:0:
86,68,15389,6,0,L|143:76,1,56.9999982604981,0|0,1:0|0:0,0:0:0:0:
217,128,15708,1,0,0:0:0:0:
207,219,15868,1,0,0:0:0:0:
227,39,16027,1,8,0:0:0:0:
300,93,16187,1,0,0:0:0:0:
207,219,16347,1,2,0:0:0:0:
362,237,16506,1,2,0:0:0:0:
96,242,16666,6,0,L|207:219,1,113.999996520996,2|0,0:0|0:0,0:0:0:0:
298,287,17144,1,2,0:0:0:0:
343,99,17304,1,8,0:0:0:0:
196,304,17623,1,2,0:0:0:0:
194,312,17703,1,0,0:0:0:0:
192,320,17783,1,0,0:0:0:0:
113,157,17942,6,0,L|112:38,1,113.999996520996,0|0,1:0|0:0,0:0:0:0:
196,6,18421,1,0,0:0:0:0:
262,113,18581,1,8,0:0:0:0:
290,26,18740,1,2,0:0:0:0:
202,181,18900,1,2,0:0:0:0:
380,180,19059,1,2,0:0:0:0:
88,189,19219,2,0,L|202:181,1,113.999996520996,2|0,0:0|0:0,0:0:0:0:
423,194,19698,2,0,L|310:203,1,113.999996520996,2|0,0:0|0:0,0:0:0:0:
253,359,20176,1,2,0:0:0:0:
258,24,20495,1,2,0:0:0:0:
266,100,21134,1,2,0:0:0:0:
257,175,21772,6,0,P|209:181|162:185,1,95,6|0,0:3|0:0,0:0:0:0:
59,136,22091,1,8,0:0:0:0:
266,100,22251,1,2,0:3:0:0:
196,297,22410,2,0,L|165:204,1,95,0|0,0:3|0:0,0:0:0:0:
235,9,22729,2,0,L|266:100,1,95,8|0,0:0|0:0,0:0:0:0:
88,215,23049,5,0,0:0:0:0:
328,161,23208,1,0,0:0:0:0:
342,162,23288,1,0,0:0:0:0:
356,163,23368,1,8,0:0:0:0:
461,121,23527,1,0,0:0:0:0:
371,50,23687,1,0,0:0:0:0:
446,234,23847,1,10,0:0:0:0:
245,182,24006,1,10,0:0:0:0:
424,246,24166,1,2,0:0:0:0:
163,202,24325,6,0,P|108:206|58:206,1,95,6|0,0:0|0:0,0:0:0:0:
24,80,24644,1,8,0:0:0:0:
13,289,24804,1,2,0:0:0:0:
200,194,24964,2,0,P|255:190|305:190,1,95,0|0,0:0|0:0,0:0:0:0:
494,256,25283,2,0,P|439:260|389:260,1,95,8|0,0:0|0:0,0:0:0:0:
436,93,25602,5,0,0:0:0:0:
233,50,25761,1,0,0:0:0:0:
247,52,25841,1,0,0:0:0:0:
261,53,25921,1,8,0:0:0:0:
428,180,26081,1,0,0:0:0:0:
414,178,26160,1,8,0:0:0:0:
400,177,26240,1,0,0:0:0:0:
209,123,26400,1,10,0:0:0:0:
258,317,26559,1,10,0:0:0:0:
238,128,26719,1,2,0:0:0:0:
190,369,26878,6,0,P|141:374|88:373,1,95,6|0,0:0|0:0,0:0:0:0:
48,207,27198,1,8,0:0:0:0:
10,373,27357,1,2,0:0:0:0:
123,194,27517,2,0,P|122:151|114:94,1,95
302,3,27836,2,0,P|303:46|311:103,1,95,8|0,0:0|0:0,0:0:0:0:
188,244,28155,5,0,0:0:0:0:
381,158,28315,1,0,0:0:0:0:
395,156,28394,1,0,0:0:0:0:
409,154,28474,1,8,0:0:0:0:
444,45,28634,1,0,0:0:0:0:
470,250,28793,1,0,0:0:0:0:
253,348,28953,1,10,0:0:0:0:
396,198,29112,1,10,0:0:0:0:
256,326,29272,1,2,0:0:0:0:
273,90,29432,6,0,P|226:78|179:81,1,95,6|0,0:0|0:0,0:0:0:0:
216,228,29751,1,8,0:0:0:0:
352,292,29910,1,2,0:0:0:0:
358,47,30070,2,0,L|339:140,1,95
197,321,30389,2,0,L|216:228,1,95,10|0,0:0|0:0,0:0:0:0:
190,77,30708,5,2,0:0:0:0:
124,214,30868,1,0,0:0:0:0:
109,215,30948,1,0,0:0:0:0:
94,216,31027,1,8,0:0:0:0:
302,185,31187,1,0,0:0:0:0:
317,184,31267,1,8,0:0:0:0:
332,183,31347,1,2,0:0:0:0:
374,26,31506,1,8,0:0:0:0:
410,212,31666,1,8,0:0:0:0:
452,106,31825,1,0,0:0:0:0:
248,248,31985,6,0,P|209:251|141:248,1,95,6|0,0:0|0:0,0:0:0:0:
190,77,32304,1,8,0:0:0:0:
80,208,32464,1,2,0:0:0:0:
290,313,32623,2,0,P|337:310|384:313,1,95,0|0,0:0|0:0,0:0:0:0:
508,144,32942,2,0,P|461:147|413:144,1,95,8|0,0:0|0:0,0:0:0:0:
266,55,33261,5,0,0:0:0:0:
436,67,33421,1,0,0:0:0:0:
438,52,33501,1,0,0:0:0:0:
440,37,33581,1,8,0:0:0:0:
192,35,33740,1,0,0:0:0:0:
246,177,33900,1,0,0:0:0:0:
341,59,34059,1,10,0:0:0:0:
119,15,34219,1,10,0:0:0:0:
317,78,34378,1,2,0:0:0:0:
44,36,34538,6,0,P|32:92|38:128,1,95,6|0,0:0|0:0,0:0:0:0:
16,298,34857,1,8,0:0:0:0:
114,135,35017,1,2,0:0:0:0:
15,298,35176,2,0,P|63:295|110:299,1,95
345,258,35495,2,0,P|297:260|250:256,1,95,8|0,0:0|0:0,0:0:0:0:
233,65,35815,5,0,0:0:0:0:
179,226,35974,1,0,0:0:0:0:
175,239,36054,1,0,0:0:0:0:
171,252,36134,1,8,0:0:0:0:
345,258,36293,1,0,0:0:0:0:
349,245,36373,1,8,0:0:0:0:
353,232,36453,1,0,0:0:0:0:
127,162,36612,1,10,0:0:0:0:
280,305,36772,1,10,0:0:0:0:
327,101,36932,1,2,0:0:0:0:
171,251,37091,6,0,P|158:297|166:344,1,95,6|0,0:0|0:0,0:0:0:0:
374,371,37410,1,8,0:0:0:0:
478,324,37570,1,2,0:0:0:0:
280,305,37729,2,0,P|292:259|284:212,1,95
31,125,38049,2,0,P|18:170|26:217,1,95,8|0,0:0|0:0,0:0:0:0:
235,123,38368,5,0,0:0:0:0:
114,177,38527,1,0,0:0:0:0:
124,181,38607,1,0,0:0:0:0:
137,186,38687,1,8,0:0:0:0:
225,354,38847,1,0,0:0:0:0:
327,195,39006,1,0,0:0:0:0:
235,123,39166,5,10,0:0:0:0:
225,354,39325,1,10,0:0:0:0:
227,144,39485,1,2,0:0:0:0:
306,369,39644,2,0,L|425:378,1,95,6|0,0:0|0:0,0:0:0:0:
488,227,39964,1,8,0:0:0:0:
278,292,40123,1,2,0:0:0:0:
336,130,40283,1,0,0:0:0:0:
334,125,40362,1,0,0:0:0:0:
332,120,40442,1,0,0:0:0:0:
330,115,40522,1,0,0:0:0:0:
328,110,40602,1,10,0:0:0:0:
326,105,40682,1,0,0:0:0:0:
324,100,40761,1,0,0:0:0:0:
322,95,40841,1,0,0:0:0:0:
320,90,40921,6,0,L|310:44,1,47.5,2|0,0:0|0:0,0:0:0:0:
225,27,41081,1,0,0:0:0:0:
187,31,41160,1,0,0:0:0:0:
153,48,41240,1,8,0:0:0:0:
132,80,41320,1,0,0:0:0:0:
129,118,41400,1,0,0:0:0:0:
144,152,41479,1,8,0:0:0:0:
173,176,41559,5,2,0:0:0:0:
178,213,41639,1,0,0:0:0:0:
172,250,41719,1,8,0:0:0:0:
150,281,41799,1,0,0:0:0:0:
120,304,41878,1,8,0:0:0:0:
157,310,41958,1,0,0:0:0:0:
192,324,42038,1,8,0:0:0:0:
224,343,42118,1,0,0:0:0:0:
253,365,42198,6,0,B|305:344|305:344|320:320|320:320|361:331|396:312,1,142.499995651245,4|0,0:2|0:0,0:0:0:0:
418,256,42676,1,4,0:0:0:0:
246,155,42836,1,8,0:0:0:0:
222,242,42995,1,0,0:0:0:0:
179,89,43155,1,0,0:0:0:0:
335,128,43315,1,0,0:0:0:0:
136,238,43474,6,0,B|97:217|65:222|65:222|65:196|65:196|54:180|49:157,1,142.499995651245,0|0,0:0|0:0,0:0:0:0:
50,86,43953,1,4,0:0:0:0:
240,24,44112,1,8,0:0:0:0:
222,242,44272,1,8,0:0:0:0:
240,24,44591,1,4,0:0:0:0:
295,296,44751,5,8,0:0:0:0:
384,278,45229,1,8,0:0:0:0:
392,277,45309,1,0,0:0:0:0:
400,275,45389,1,0,0:0:0:0:
435,340,45549,1,0,0:0:0:0:
209,331,45708,1,8,0:0:0:0:
200,332,45788,1,0,0:0:0:0:
191,333,45868,1,4,0:0:0:0:
182,334,45948,1,0,0:0:0:0:
173,336,46027,5,4,0:0:0:0:
164,338,47144,1,0,0:0:0:0:
155,340,47224,1,0,0:0:0:0:
146,342,47304,1,12,0:0:0:0:
138,345,57357,5,0,0:0:0:0:
130,348,57437,1,0,0:0:0:0:
122,351,57517,1,4,0:0:0:0:
58,284,57676,6,0,P|66:246|65:208,1,76,2|0,0:0|0:0,0:0:0:0:
32,123,57995,1,2,0:0:0:0:
29,100,58075,1,0,0:0:0:0:
32,77,58155,1,0,0:0:0:0:
183,56,58315,2,0,L|119:99,1,76,2|0,0:0|0:0,0:0:0:0:
97,187,58634,1,2,0:0:0:0:
266,35,58793,6,4,L|347:39,1,76,4|2,0:0|0:0,0:0:0:0:
427,71,59112,1,0,0:0:0:0:
430,93,59192,2,0,L|430:124,5,19,0|0|2|0|0|0,0:0|0:0|0:0|0:0|0:0|0:0,0:0:0:0:
399,184,59432,2,0,P|402:222|401:260,1,76,0|2,0:0|0:0,0:0:0:0:
260,321,59751,1,0,0:0:0:0:
356,335,59910,1,2,0:0:0:0:
208,228,60070,6,0,L|205:144,1,76,4|2,0:0|0:0,0:0:0:0:
207,0,60389,1,0,0:0:0:0:
131,132,60549,2,0,L|101:128,3,19,2|0|0|0,0:0|0:0|0:0|0:0,0:0:0:0:
72,195,60708,2,0,P|35:196|12:196,4,50.6666666666667,0|0|0|0|0,0:0|0:0|0:0|0:0|0:0,0:0:0:0:
142,244,61187,1,2,0:0:0:0:
160,268,61267,1,0,0:0:0:0:
181,289,61347,6,0,L|234:294,1,38,4|0,0:0|0:0,0:0:0:0:
297,285,61506,1,2,0:0:0:0:
316,308,61586,1,0,0:0:0:0:
345,316,61666,1,0,0:0:0:0:
375,315,61745,1,0,0:0:0:0:
402,302,61825,1,2,0:0:0:0:
422,279,61905,1,0,0:0:0:0:
428,249,61985,6,0,L|428:203,1,38
383,148,62144,2,0,L|385:117,2,28.5,0|0|0,0:0|0:0|0:0,0:0:0:0:
364,49,62304,2,0,L|367:23,5,25.3333333333333,0|0|0|2|0|0,0:0|0:0|0:0|0:0|0:0|0:0,0:0:0:0:
288,8,62623,5,4,0:0:0:0:
258,16,62703,1,0,0:0:0:0:
227,19,62783,1,2,0:0:0:0:
196,16,62862,1,0,0:0:0:0:
166,8,62942,1,0,0:0:0:0:
146,31,63022,1,0,0:0:0:0:
139,60,63102,1,2,0:0:0:0:
139,90,63182,1,0,0:0:0:0:
145,118,63261,2,0,P|149:137|149:156,1,38
105,220,63421,2,0,L|126:302,1,76,6|0,0:0|0:0,0:0:0:0:
150,381,63740,1,2,0:0:0:0:
379,372,63900,5,4,0:0:0:0:
306,317,64059,2,0,L|311:292,2,25.3333333333333,2|0|0,0:0|0:0|0:0,0:0:0:0:
375,259,64219,2,0,L|378:233,3,19
323,194,64378,2,0,L|314:109,1,76,6|0,0:0|0:0,0:0:0:0:
454,31,64698,1,2,0:0:0:0:
237,97,64857,2,0,P|199:101|161:101,1,76,4|2,0:0|0:0,0:0:0:0:
183,252,65176,5,6,0:0:0:0:
156,238,65256,1,0,0:0:0:0:
126,239,65336,1,2,0:0:0:0:
99,255,65416,1,0,0:0:0:0:
83,280,65495,1,8,0:0:0:0:
80,311,65575,1,0,0:0:0:0:
92,339,65655,1,2,0:0:0:0:
116,359,65735,1,0,0:0:0:0:
145,364,65815,1,0,0:0:0:0:
174,358,65894,1,0,0:0:0:0:
204,356,65974,1,2,0:0:0:0:
234,359,66054,1,0,0:0:0:0:
263,365,66134,1,8,0:0:0:0:
273,336,66214,1,0,0:0:0:0:
292,313,66293,1,2,0:0:0:0:
318,297,66373,1,0,0:0:0:0:
347,289,66453,5,6,0:0:0:0:
363,254,66533,1,0,0:0:0:0:
368,216,66612,1,2,0:0:0:0:
366,177,66692,1,0,0:0:0:0:
354,140,66772,1,8,0:0:0:0:
332,108,66852,1,0,0:0:0:0:
301,84,66932,1,2,0:0:0:0:
265,96,67011,1,8,0:0:0:0:
250,131,67091,1,0,0:0:0:0:
217,150,67171,1,0,0:0:0:0:
180,143,67251,1,10,0:0:0:0:
156,114,67331,1,0,0:0:0:0:
156,76,67410,1,8,0:0:0:0:
180,47,67490,1,0,0:0:0:0:
217,40,67570,1,10,0:0:0:0:
250,59,67650,1,8,0:0:0:0:
263,95,67729,5,6,0:0:0:0:
421,62,67889,1,0,0:0:0:0:
371,215,68049,1,4,0:0:0:0:
217,40,68208,5,10,0:0:0:0:
205,277,68368,1,0,0:0:0:0:
265,96,68527,1,4,0:0:0:0:
202,371,68687,5,10,0:0:0:0:
371,215,68847,1,0,0:0:0:0:
205,277,69006,1,4,0:0:0:0:
443,276,69166,5,10,0:0:0:0:
285,325,69325,1,0,0:0:0:0:
371,215,69485,1,4,0:0:0:0:
119,321,69644,5,0,1:0:0:0:
212,8,69884,1,0,1:0:0:0:
436,246,70123,1,0,1:0:0:0:
292,57,70283,5,10,0:0:0:0:
251,290,70442,1,0,0:0:0:0:
210,104,70602,1,4,0:0:0:0:
346,298,70761,5,10,0:0:0:0:
142,173,70921,1,0,0:0:0:0:
251,290,71081,1,4,0:0:0:0:
117,81,71240,5,10,0:0:0:0:
155,316,71400,1,0,0:0:0:0:
339,166,71559,1,4,0:0:0:0:
52,149,71719,5,10,0:0:0:0:
283,96,71878,1,0,0:0:0:0:
117,81,72038,1,4,0:0:0:0:
354,52,72198,5,0,1:0:0:0:
327,346,72437,1,0,1:0:0:0:
86,176,72676,1,0,1:0:0:0:
368,132,72836,5,10,0:0:0:0:
179,154,72995,1,0,0:0:0:0:
340,212,73155,1,4,0:0:0:0:
54,265,73315,5,10,0:0:0:0:
117,81,73474,1,0,0:0:0:0:
147,248,73634,1,4,0:0:0:0:
368,132,73793,5,10,0:0:0:0:
340,360,73953,1,0,0:0:0:0:
444,180,74112,1,4,0:0:0:0:
114,336,74272,5,10,0:0:0:0:
7,177,74432,1,0,0:0:0:0:
196,161,74591,1,4,0:0:0:0:
444,180,74751,5,0,1:0:0:0:
171,361,74990,1,0,1:0:0:0:
151,34,75229,1,0,1:0:0:0:
234,309,75389,5,10,0:0:0:0:
421,276,75549,1,0,0:0:0:0:
167,242,75708,1,4,0:0:0:0:
350,62,75868,5,10,0:0:0:0:
320,248,76027,1,0,0:0:0:0:
172,127,76187,1,4,0:0:0:0:
417,168,76347,5,10,0:0:0:0:
192,254,76506,1,0,0:0:0:0:
231,13,76666,1,4,0:0:0:0:
73,213,76825,5,10,0:0:0:0:
320,248,76985,1,0,0:0:0:0:
110,298,77144,1,4,0:0:0:0:
399,78,77304,5,0,1:0:0:0:
281,371,77543,1,0,1:0:0:0:
86,123,77783,1,0,1:0:0:0:
323,124,77942,5,10,0:0:0:0:
361,126,78022,1,0,0:0:0:0:
395,142,78102,1,0,0:0:0:0:
418,172,78182,1,0,0:0:0:0:
431,206,78261,2,0,L|427:255,1,47.5,8|0,0:0|0:0,0:0:0:0:
344,302,78421,1,0,0:0:0:0:
329,303,78501,1,0,0:0:0:0:
314,304,78581,6,0,L|262:289,1,47.5
196,229,78740,1,2,0:0:0:0:
163,248,78820,1,0,0:0:0:0:
125,252,78900,1,10,0:0:0:0:
91,235,78979,1,0,0:0:0:0:
71,202,79059,1,0,0:0:0:0:
74,164,79139,1,0,0:0:0:0:
95,134,79219,6,0,L|93:81,1,47.5,10|0,0:0|0:0,0:0:0:0:
278,180,79378,2,0,L|280:233,1,47.5,10|0,0:0|0:0,0:0:0:0:
163,249,79538,1,0,0:0:0:0:
210,66,79698,1,4,0:0:0:0:
177,68,79777,1,0,0:0:0:0:
142,70,79857,5,0,1:0:0:0:
417,154,80097,1,0,1:0:0:0:
208,351,80336,1,0,1:0:0:0:
344,242,80495,5,10,0:0:0:0:
417,154,80655,1,0,0:0:0:0:
416,325,80815,1,0,0:0:0:0:
344,242,80974,1,4,0:0:0:0:
136,266,81134,5,10,0:0:0:0:
243,301,81293,1,0,0:0:0:0:
115,153,81453,1,0,0:0:0:0:
222,188,81612,1,4,0:0:0:0:
28,227,81772,5,10,0:0:0:0:
243,301,81932,1,0,0:0:0:0:
327,89,82091,1,0,0:0:0:0:
111,13,82251,1,4,0:0:0:0:
374,163,82410,5,0,1:0:0:0:
28,227,82650,1,0,1:0:0:0:
441,222,82889,1,0,1:0:0:0:
178,74,83049,5,6,0:0:0:0:
179,88,83128,1,0,0:0:0:0:
179,102,83208,1,0,0:0:0:0:
178,116,83288,1,0,0:0:0:0:
176,130,83368,1,0,0:0:0:0:
173,144,83448,1,0,0:0:0:0:
169,157,83527,1,0,0:0:0:0:
164,170,83607,1,0,0:0:0:0:
158,183,83687,2,0,P|148:215|146:228,3,47.5,2|0|0|0,0:0|0:0|0:0|0:0,0:0:0:0:
206,302,84006,2,0,P|206:333|208:352,3,47.5
302,366,84325,5,2,0:0:0:0:
315,368,84405,1,0,0:0:0:0:
329,370,84485,1,0,0:0:0:0:
343,371,84565,1,0,0:0:0:0:
357,371,84644,1,0,0:0:0:0:
371,369,84724,1,0,0:0:0:0:
385,366,84804,1,0,0:0:0:0:
398,360,84884,1,0,0:0:0:0:
409,351,84964,2,2,P|416:305|413:258,1,95,2|0,0:0|0:0,0:0:0:0:
353,185,85203,2,2,P|350:137|359:91,1,95,2|0,0:0|0:0,0:0:0:0:
447,54,85442,1,0,0:0:0:0:
236,54,85602,5,6,0:0:0:0:
227,65,85682,1,0,0:0:0:0:
217,75,85761,1,0,0:0:0:0:
206,84,85841,1,0,0:0:0:0:
194,92,85921,1,0,0:0:0:0:
182,100,86001,1,0,0:0:0:0:
168,105,86081,1,0,0:0:0:0:
154,109,86160,1,0,0:0:0:0:
140,112,86240,2,0,P|131:138|130:168,1,47.5
143,240,86400,1,0,0:0:0:0:
146,253,86479,1,0,0:0:0:0:
151,266,86559,1,0,0:0:0:0:
158,278,86639,1,0,0:0:0:0:
166,289,86719,1,0,0:0:0:0:
176,298,86799,1,0,0:0:0:0:
188,305,86878,5,2,0:0:0:0:
202,304,86958,1,0,0:0:0:0:
216,303,87038,1,0,0:0:0:0:
230,304,87118,1,0,0:0:0:0:
244,306,87198,1,0,0:0:0:0:
257,309,87277,1,0,0:0:0:0:
270,313,87357,1,0,0:0:0:0:
283,318,87437,1,0,0:0:0:0:
294,326,87517,2,0,P|341:331|388:330,1,95,2|0,0:0|0:0,0:0:0:0:
420,240,87756,2,0,P|372:234|325:235,1,95,2|0,0:0|0:0,0:0:0:0:
254,172,87995,1,0,0:0:0:0:
490,143,88155,5,6,0:0:0:0:
493,114,88235,1,0,0:0:0:0:
493,85,88315,1,0,0:0:0:0:
485,57,88394,1,0,0:0:0:0:
468,34,88474,1,8,0:0:0:0:
440,40,88554,1,0,0:0:0:0:
411,43,88634,1,0,0:0:0:0:
382,42,88714,1,0,0:0:0:0:
354,36,88793,2,0,P|330:36|306:40,1,47.5,6|0,0:0|0:0,0:0:0:0:
221,84,88953,1,0,0:0:0:0:
192,80,89033,1,0,0:0:0:0:
164,73,89112,1,8,0:0:0:0:
138,85,89192,1,0,0:0:0:0:
119,106,89272,1,0,0:0:0:0:
108,132,89352,1,0,0:0:0:0:
106,159,89432,6,0,P|107:183|102:206,3,47.5,6|0|0|0,0:0|0:0|0:0|0:0,0:0:0:0:
161,282,89751,1,8,0:0:0:0:
162,286,89831,1,0,0:0:0:0:
163,290,89910,1,0,0:0:0:0:
164,294,89990,1,0,0:0:0:0:
165,298,90070,2,0,L|217:304,1,47.5,6|0,0:0|0:0,0:0:0:0:
303,276,90229,1,8,0:0:0:0:
344,286,90309,1,0,0:0:0:0:
386,284,90389,1,8,0:0:0:0:
425,268,90469,1,0,0:0:0:0:
453,236,90549,1,0,0:0:0:0:
462,194,90628,1,0,0:0:0:0:
463,151,90708,6,0,P|462:127|464:103,1,47.5,6|0,0:0|0:0,0:0:0:0:
367,110,90868,1,0,0:0:0:0:
361,96,90948,1,0,0:0:0:0:
356,82,91027,1,8,0:0:0:0:
327,78,91107,1,0,0:0:0:0:
299,84,91187,1,0,0:0:0:0:
278,103,91267,1,0,0:0:0:0:
268,129,91347,2,0,P|269:164|272:182,1,47.5,6|0,0:0|0:0,0:0:0:0:
246,268,91506,1,0,0:0:0:0:
250,296,91586,1,0,0:0:0:0:
247,324,91666,1,8,0:0:0:0:
235,349,91745,1,0,0:0:0:0:
216,370,91825,1,0,0:0:0:0:
207,358,91905,1,0,0:0:0:0:
198,346,91985,6,0,L|148:337,3,47.5,6|0|0|0,0:0|0:0|0:0|0:0,0:0:0:0:
259,272,92304,1,8,0:0:0:0:
287,267,92384,1,0,0:0:0:0:
315,268,92464,1,0,0:0:0:0:
342,275,92543,1,0,0:0:0:0:
365,288,92623,2,0,P|389:290|413:290,1,47.5,6|0,0:0|0:0,0:0:0:0:
506,315,92783,1,8,0:0:0:0:
505,272,92862,1,0,0:0:0:0:
504,229,92942,1,8,0:0:0:0:
503,186,93022,1,0,0:0:0:0:
503,143,93102,1,0,0:0:0:0:
502,100,93182,1,0,0:0:0:0:
501,57,93261,6,0,L|453:47,1,47.5,6|0,0:0|0:0,0:0:0:0:
263,72,93421,2,0,L|311:82,1,47.5,2|0,0:0|0:0,0:0:0:0:
502,100,93581,2,0,L|454:90,1,47.5,10|0,0:0|0:0,0:0:0:0:
264,115,93740,2,0,L|312:125,1,47.5,2|0,0:0|0:0,0:0:0:0:
503,143,93900,2,0,L|455:133,1,47.5,6|0,0:0|0:0,0:0:0:0:
224,187,94059,1,0,0:0:0:0:
219,189,94139,1,0,0:0:0:0:
216,193,94219,2,0,L|146:202,1,47.5,10|0,0:0|0:0,0:0:0:0:
42,264,94378,1,0,0:0:0:0:
47,262,94458,1,0,0:0:0:0:
50,258,94538,6,0,L|44:336,1,47.5,4|0,0:0|0:0,0:0:0:0:
216,193,94698,2,0,L|222:115,1,47.5,2|0,0:0|0:0,0:0:0:0:
77,295,94857,2,0,L|111:365,1,47.5,10|0,0:0|0:0,0:0:0:0:
188,155,95017,2,0,L|154:85,1,47.5,2|0,0:0|0:0,0:0:0:0:
119,313,95176,2,0,L|184:357,1,47.5,4|0,0:0|0:0,0:0:0:0:
146,137,95336,1,8,0:0:0:0:
126,123,95416,1,0,0:0:0:0:
106,109,95495,1,10,0:0:0:0:
66,96,95575,1,0,0:0:0:0:
66,53,95655,1,0,0:0:0:0:
106,40,95735,1,0,0:0:0:0:
132,75,95815,6,0,L|183:73,1,47.5,6|0,0:0|0:0,0:0:0:0:
269,104,95974,2,0,L|320:102,1,47.5,2|0,0:0|0:0,0:0:0:0:
331,197,96134,2,0,L|280:199,1,47.5,10|0,0:0|0:0,0:0:0:0:
194,168,96293,2,0,L|143:170,1,47.5,2|0,0:0|0:0,0:0:0:0:
67,225,96453,1,4,0:0:0:0:
64,239,96533,1,0,0:0:0:0:
62,253,96612,1,0,0:0:0:0:
60,267,96692,1,0,0:0:0:0:
58,281,96772,1,10,0:0:0:0:
70,322,96852,1,0,0:0:0:0:
102,349,96932,1,0,0:0:0:0:
144,351,97011,1,0,0:0:0:0:
184,336,97091,6,0,P|207:334|231:336,1,47.5,6|0,0:0|0:0,0:0:0:0:
376,337,97251,1,0,0:0:0:0:
371,334,97331,1,0,0:0:0:0:
366,331,97410,2,0,P|357:308|355:285,1,47.5,10|0,0:0|0:0,0:0:0:0:
423,217,97570,1,0,0:0:0:0:
425,202,97650,1,0,0:0:0:0:
426,188,97729,2,0,P|428:164|422:141,1,47.5,4|0,0:0|0:0,0:0:0:0:
334,100,97889,1,8,0:0:0:0:
326,72,97969,1,0,0:0:0:0:
319,44,98049,2,0,P|316:20|317:-3,3,47.5,10|0|8|8,0:0|0:0|0:0|0:0,0:0:0:0:
274,157,98368,6,0,P|227:166|180:158,1,95,6|0,0:0|0:0,0:0:0:0:
119,18,98687,1,8,0:0:0:0:
117,22,98767,1,0,0:0:0:0:
115,26,98847,1,0,0:0:0:0:
113,30,98926,1,0,0:0:0:0:
111,34,99006,2,0,P|107:68|103:86,1,47.5,6|0,0:0|0:0,0:0:0:0:
35,148,99166,1,0,0:0:0:0:
30,175,99245,1,0,0:0:0:0:
33,202,99325,2,0,P|36:226|35:250,1,47.5,10|0,0:0|0:0,0:0:0:0:
113,306,99485,2,0,P|110:282|111:258,1,47.5,2|0,0:0|0:0,0:0:0:0:
202,287,99644,5,6,0:0:0:0:
227,298,99724,1,0,0:0:0:0:
255,299,99804,2,0,P|278:297|301:302,1,47.5,2|0,0:0|0:0,0:0:0:0:
382,354,99964,1,8,0:0:0:0:
408,343,100043,1,0,0:0:0:0:
436,337,100123,2,0,L|487:346,1,47.5,2|0,0:0|0:0,0:0:0:0:
472,249,100283,2,0,L|421:240,1,47.5,4|0,0:0|0:0,0:0:0:0:
387,153,100442,1,8,0:0:0:0:
381,125,100522,1,0,0:0:0:0:
383,96,100602,2,0,B|390:56|390:56|336:72|291:54,1,142.5,10|0,0:0|0:0,0:0:0:0:
208,99,100921,6,0,P|182:95|157:98,1,47.5,6|0,0:0|0:0,0:0:0:0:
69,126,101081,1,0,0:0:0:0:
72,139,101160,1,0,0:0:0:0:
75,152,101240,1,8,0:0:0:0:
78,165,101320,1,0,0:0:0:0:
81,178,101400,2,0,L|133:189,1,47.5,2|0,0:0|0:0,0:0:0:0:
189,259,101559,2,0,L|249:256,1,47.5,4|0,0:0|0:0,0:0:0:0:
331,269,101719,1,0,0:0:0:0:
333,255,101799,1,0,0:0:0:0:
335,241,101878,2,0,P|332:205|332:183,1,47.5,10|0,0:0|0:0,0:0:0:0:
250,143,102038,2,0,L|253:83,1,47.5,2|0,0:0|0:0,0:0:0:0:
343,60,102198,5,6,0:0:0:0:
356,64,102277,1,0,0:0:0:0:
368,67,102357,2,0,P|391:75|415:77,1,47.5,2|0,0:0|0:0,0:0:0:0:
450,167,102517,2,0,P|427:159|403:157,1,47.5,10|0,0:0|0:0,0:0:0:0:
339,227,102676,1,0,0:0:0:0:
347,268,102756,1,0,0:0:0:0:
356,309,102836,5,0,1:0:0:0:
104,220,103075,1,0,1:0:0:0:
307,46,103315,1,0,1:0:0:0:
307,46,103793,5,6,0:0:0:0:
356,309,103953,2,0,L|308:328,1,47.5
217,313,104112,1,0,0:0:0:0:
230,287,104192,1,0,0:0:0:0:
233,258,104272,1,0,0:0:0:0:
223,230,104352,1,0,0:0:0:0:
197,242,104432,1,0,0:0:0:0:
184,216,104511,1,0,0:0:0:0:
181,187,104591,1,0,0:0:0:0:
191,159,104671,1,0,0:0:0:0:
217,163,104751,6,0,P|220:139|219:115,1,47.5,2|0,0:0|0:0,0:0:0:0:
229,21,104910,1,0,0:0:0:0:
200,17,104990,1,0,0:0:0:0:
171,20,105070,1,0,0:0:0:0:
143,27,105150,1,0,0:0:0:0:
117,37,105229,2,0,P|82:69|36:78,1,95,2|0,0:0|0:0,0:0:0:0:
4,267,105549,1,0,0:0:0:0:
276,349,105708,5,2,0:0:0:0:
67,334,105868,1,2,0:0:0:0:
351,302,106027,2,0,L|476:325,1,95,2|0,0:0|0:0,0:0:0:0:
432,80,106347,2,0,L|432:137,1,47.5
352,179,106506,2,0,L|377:195,2,23.75
342,178,106666,2,0,L|282:178,1,47.5,2|0,0:0|0:0,0:0:0:0:
203,205,106825,1,0,0:0:0:0:
182,15,106985,2,0,L|179:124,1,95,2|0,0:0|0:0,0:0:0:0:
291,262,107304,6,0,P|212:309|125:277,1,190,2|0,0:0|0:0,0:0:0:0:
125,277,107783,1,0,0:0:0:0:
369,307,107942,1,2,0:0:0:0:
345,41,108102,1,0,0:0:0:0:
291,262,108261,1,0,0:0:0:0:
344,41,108581,6,0,P|263:146|136:102,1,284.999991302491,2|0,0:0|0:0,0:0:0:0:
231,39,109538,1,0,0:0:0:0:
345,41,109698,1,0,0:0:0:0:
424,122,109857,6,0,L|417:300,1,170.999994781494,2|0,0:0|0:0,0:0:0:0:
417,292,110815,1,0,0:0:0:0:
88,262,111134,2,0,P|177:322|270:268,1,227.999993041992,2|0,0:0|0:0,0:0:0:0:
181,221,112410,5,2,0:0:0:0:
121,123,113049,1,0,0:0:0:0:
234,116,113687,1,2,0:0:0:0:
347,107,114964,1,2,0:0:0:0:
442,43,115602,6,0,P|454:152|368:220,2,227.999993041992,0|2|0,0:0|0:0|0:0,0:0:0:0:
347,107,117517,1,2,0:0:0:0:
283,201,118155,2,0,L|290:255,3,47.4999985504151,0|0|0|0,0:0|0:0|0:0|0:0,0:0:0:0:
239,306,118660,1,0,0:0:0:0:
158,301,118793,5,2,0:0:0:0:
208,78,120070,1,2,0:0:0:0:
126,157,120708,1,0,0:0:0:0:
234,191,121347,5,2,0:0:0:0:
410,335,122623,1,2,0:0:0:0:
488,252,122942,1,0,0:0:0:0:
402,176,123261,1,0,0:0:0:0:
325,260,123581,1,0,0:0:0:0:
301,371,123900,2,0,P|217:301|232:192,1,227.999993041992,2|0,0:0|0:0,0:0:0:0:
257,82,125176,2,0,P|340:151|325:260,1,227.999993041992,2|0,0:0|0:0,0:0:0:0:
256,192,126453,12,0,129644,0:0:0:0:
