osu file format v12

[General]
AudioFilename: 09. Claiomh Solais.mp3
AudioLeadIn: 0
PreviewTime: 21682
Countdown: 0
SampleSet: Soft
StackLeniency: 0.7
Mode: 3
LetterboxInBreaks: 0
SpecialStyle: 0
WidescreenStoryboard: 1

[Editor]
Bookmarks: 11469,21682,31895,42118,47224,57437,67649,77852,88065,98278,108491,118703,130193
DistanceSpacing: 1.2
BeatDivisor: 4
GridSize: 32

[Metadata]
Title:Claiomh Solais
TitleUnicode:Claiomh Solais
Artist:ETIA.
ArtistUnicode:ETIA.
Creator:Mirage
Version:Hard
Source:
Tags:
BeatmapID:361187
BeatmapSetID:145635

[Difficulty]
HPDrainRate:8
CircleSize:7
OverallDifficulty:8
ApproachRate:5
SliderMultiplier:1.4
SliderTickRate:1

[Events]
//Background and Video events
0,0,"Background_by_reaper_123.jpg",0,0
//Break Periods
//Storyboard Layer 0 (Background)
//Storyboard Layer 1 (Fail)
//Storyboard Layer 2 (Pass)
//Storyboard Layer 3 (Foreground)
//Storyboard Sound Samples
//Background Colour Transformations
3,100,163,162,255

[TimingPoints]
1257,319.148936170213,4,2,0,50,1,0
20405,-200,4,2,0,50,0,0
21044,-400,4,2,0,50,0,0
21682,-100,4,2,0,50,0,1
42108,-100,4,2,0,50,0,0
69554,-80,4,2,0,50,0,0
69794,-100,4,2,0,50,0,0
70033,-80,4,2,0,50,0,0
70193,-100,4,2,0,50,0,0
72108,-80,4,2,0,50,0,0
72347,-100,4,2,0,50,0,0
72586,-80,4,2,0,50,0,0
72746,-100,4,2,0,50,0,0
74661,-80,4,2,0,50,0,0
74900,-100,4,2,0,50,0,0
75139,-80,4,2,0,50,0,0
75299,-100,4,2,0,50,0,0
77214,-80,4,2,0,50,0,0
77453,-100,4,2,0,50,0,0
77693,-80,4,2,0,50,0,0
77852,-100,4,2,0,50,0,0
79767,-80,4,2,0,50,0,0
80007,-100,4,2,0,50,0,0
80246,-80,4,2,0,50,0,0
80405,-100,4,2,0,50,0,0
82320,-80,4,2,0,50,0,0
82560,-100,4,2,0,50,0,0
82799,-80,4,2,0,50,0,0
82958,-100,4,2,0,50,0,0
87427,-80,4,2,0,50,0,0
87666,-100,4,2,0,50,0,0
87905,-80,4,2,0,50,0,0
88065,-100,4,2,0,50,0,1
88065,-100,4,2,0,50,0,1
102746,-80,4,2,0,50,0,1
102985,-100,4,2,0,50,0,1
103225,-133.333333333333,4,2,0,50,0,1
103703,-100,4,2,0,50,0,1
105937,-95.2380952380952,4,2,0,50,0,1
106576,-90.9090909090909,4,2,0,50,0,1
107214,-86.9565217391304,4,2,0,50,0,1
107852,-83.3333333333333,4,2,0,50,0,1
108491,-125,4,2,0,50,0,0

[HitObjects]
329,192,1257,1,0,0:0:0:0:
182,192,1416,1,0,0:0:0:0:
329,192,1576,1,0,0:0:0:0:
36,192,1735,1,0,0:0:0:0:
109,192,1755,1,0,0:0:0:0:
256,192,1775,1,0,0:0:0:0:
402,192,1795,1,0,0:0:0:0:
182,192,4129,1,0,0:0:0:0:
256,192,5086,1,0,0:0:0:0:
329,192,6044,1,0,0:0:0:0:
182,192,6363,1,0,0:0:0:0:
36,192,6522,1,0,0:0:0:0:
182,192,6682,1,0,0:0:0:0:
475,192,6842,1,0,0:0:0:0:
402,192,6862,1,0,0:0:0:0:
256,192,6882,1,0,0:0:0:0:
109,192,6901,1,0,0:0:0:0:
329,192,7001,1,0,0:0:0:0:
256,192,8916,1,0,0:0:0:0:
182,192,10193,1,0,0:0:0:0:
329,192,10193,1,0,0:0:0:0:
256,192,10831,1,0,0:0:0:0:
475,192,10831,1,0,0:0:0:0:
329,192,11469,1,0,0:0:0:0:
182,192,11469,1,0,0:0:0:0:
36,192,11469,128,0,11948:0:0:0:0:
402,192,11788,1,0,0:0:0:0:
256,192,11948,128,0,12746:0:0:0:0:
475,192,12108,1,0,0:0:0:0:
36,192,12108,1,0,0:0:0:0:
109,192,12427,1,0,0:0:0:0:
182,192,12586,1,0,0:0:0:0:
329,192,12746,1,0,0:0:0:0:
36,192,12746,1,0,0:0:0:0:
256,192,13065,1,0,0:0:0:0:
109,192,13225,1,0,0:0:0:0:
36,192,13384,1,0,0:0:0:0:
182,192,13384,1,0,0:0:0:0:
329,192,13544,1,0,0:0:0:0:
402,192,13703,1,0,0:0:0:0:
256,192,13703,1,0,0:0:0:0:
475,192,13863,1,0,0:0:0:0:
182,192,13863,1,0,0:0:0:0:
109,192,14022,1,0,0:0:0:0:
329,192,14022,128,0,14501:0:0:0:0:
256,192,14342,1,0,0:0:0:0:
182,192,14501,1,0,0:0:0:0:
475,192,14501,128,0,15299:0:0:0:0:
109,192,14661,1,0,0:0:0:0:
329,192,14661,1,0,0:0:0:0:
36,192,14980,1,0,0:0:0:0:
182,192,15139,1,0,0:0:0:0:
329,192,15299,1,0,0:0:0:0:
109,192,15299,1,0,0:0:0:0:
182,192,15618,1,0,0:0:0:0:
329,192,15778,1,0,0:0:0:0:
475,192,15937,1,0,0:0:0:0:
256,192,15937,1,0,0:0:0:0:
109,192,16097,1,0,0:0:0:0:
475,192,16097,1,0,0:0:0:0:
182,192,16257,1,0,0:0:0:0:
402,192,16257,1,0,0:0:0:0:
256,192,16416,1,0,0:0:0:0:
329,192,16416,1,0,0:0:0:0:
402,192,16576,128,0,17054:0:0:0:0:
182,192,16576,1,0,0:0:0:0:
109,192,16895,1,0,0:0:0:0:
475,192,17054,128,0,17533:0:0:0:0:
36,192,17054,1,0,0:0:0:0:
256,192,17214,1,0,0:0:0:0:
256,192,17533,128,0,18171:0:0:0:0:
109,192,17533,1,0,0:0:0:0:
182,192,17693,1,0,0:0:0:0:
329,192,17852,1,0,0:0:0:0:
182,192,18171,1,0,0:0:0:0:
402,192,18331,1,0,0:0:0:0:
36,192,18491,1,0,0:0:0:0:
329,192,18650,1,0,0:0:0:0:
256,192,18810,1,0,0:0:0:0:
329,192,18889,1,0,0:0:0:0:
402,192,18969,1,0,0:0:0:0:
402,192,19129,128,0,19608:0:0:0:0:
475,192,19608,128,0,20086:0:0:0:0:
109,192,19608,128,0,19767:0:0:0:0:
329,192,20086,128,0,20405:0:0:0:0:
402,192,20405,128,0,21044:0:0:0:0:
256,192,21044,128,0,21682:0:0:0:0:
36,192,21044,128,0,21682:0:0:0:0:
329,192,21682,1,0,0:0:0:0:
109,192,21682,1,0,0:0:0:0:
182,192,21842,1,0,0:0:0:0:
329,192,22001,1,0,0:0:0:0:
36,192,22001,1,0,0:0:0:0:
402,192,22161,1,0,0:0:0:0:
182,192,22161,1,0,0:0:0:0:
256,192,22320,128,0,22639:0:0:0:0:
475,192,22320,1,0,0:0:0:0:
109,192,22639,128,0,22959:0:0:0:0:
402,192,22639,1,0,0:0:0:0:
182,192,22959,128,0,23278:0:0:0:0:
329,192,22959,1,0,0:0:0:0:
329,192,23278,128,0,23597:0:0:0:0:
475,192,23278,1,0,0:0:0:0:
475,192,23597,1,0,0:0:0:0:
109,192,23597,1,0,0:0:0:0:
182,192,23757,1,0,0:0:0:0:
402,192,23757,1,0,0:0:0:0:
329,192,23916,1,0,0:0:0:0:
109,192,23916,1,0,0:0:0:0:
475,192,23916,1,0,0:0:0:0:
36,192,24076,1,0,0:0:0:0:
402,192,24076,1,0,0:0:0:0:
109,192,24235,1,0,0:0:0:0:
329,192,24235,1,0,0:0:0:0:
182,192,24235,1,0,0:0:0:0:
256,192,24395,1,0,0:0:0:0:
402,192,24554,1,0,0:0:0:0:
182,192,24554,1,0,0:0:0:0:
329,192,24714,1,0,0:0:0:0:
36,192,24714,1,0,0:0:0:0:
182,192,24874,128,0,25193:0:0:0:0:
402,192,24874,1,0,0:0:0:0:
36,192,25193,128,0,25512:0:0:0:0:
329,192,25193,1,0,0:0:0:0:
475,192,25512,128,0,25831:0:0:0:0:
256,192,25512,1,0,0:0:0:0:
329,192,25831,128,0,26150:0:0:0:0:
109,192,25831,1,0,0:0:0:0:
182,192,26150,1,0,0:0:0:0:
402,192,26150,1,0,0:0:0:0:
256,192,26310,1,0,0:0:0:0:
109,192,26310,1,0,0:0:0:0:
402,192,26469,1,0,0:0:0:0:
36,192,26469,1,0,0:0:0:0:
182,192,26469,1,0,0:0:0:0:
109,192,26629,1,0,0:0:0:0:
256,192,26629,1,0,0:0:0:0:
182,192,26788,1,0,0:0:0:0:
402,192,26788,1,0,0:0:0:0:
36,192,26788,1,0,0:0:0:0:
475,192,26948,1,0,0:0:0:0:
402,192,27108,1,0,0:0:0:0:
182,192,27108,1,0,0:0:0:0:
109,192,27267,1,0,0:0:0:0:
256,192,27267,1,0,0:0:0:0:
36,192,27427,128,0,27746:0:0:0:0:
329,192,27427,1,0,0:0:0:0:
329,192,27746,128,0,28065:0:0:0:0:
182,192,27746,1,0,0:0:0:0:
475,192,27746,1,0,0:0:0:0:
182,192,28065,128,0,28384:0:0:0:0:
109,192,28065,1,0,0:0:0:0:
402,192,28384,128,0,28703:0:0:0:0:
329,192,28384,1,0,0:0:0:0:
256,192,28703,1,0,0:0:0:0:
109,192,28703,1,0,0:0:0:0:
182,192,28863,1,0,0:0:0:0:
329,192,28863,1,0,0:0:0:0:
475,192,29022,1,0,0:0:0:0:
109,192,29022,1,0,0:0:0:0:
256,192,29022,1,0,0:0:0:0:
402,192,29182,1,0,0:0:0:0:
182,192,29182,1,0,0:0:0:0:
475,192,29342,1,0,0:0:0:0:
256,192,29342,1,0,0:0:0:0:
36,192,29342,1,0,0:0:0:0:
402,192,29501,1,0,0:0:0:0:
182,192,29501,1,0,0:0:0:0:
475,192,29661,1,0,0:0:0:0:
329,192,29661,1,0,0:0:0:0:
402,192,29820,1,0,0:0:0:0:
182,192,29820,1,0,0:0:0:0:
329,192,29980,128,0,30299:0:0:0:0:
36,192,29980,1,0,0:0:0:0:
109,192,30299,128,0,30618:0:0:0:0:
475,192,30299,1,0,0:0:0:0:
182,192,30299,1,0,0:0:0:0:
182,192,30618,128,0,30937:0:0:0:0:
329,192,30618,1,0,0:0:0:0:
402,192,30618,1,0,0:0:0:0:
256,192,30937,128,0,31257:0:0:0:0:
475,192,30937,1,0,0:0:0:0:
402,192,31257,1,0,0:0:0:0:
36,192,31257,1,0,0:0:0:0:
182,192,31257,1,0,0:0:0:0:
256,192,31416,1,0,0:0:0:0:
402,192,31576,1,0,0:0:0:0:
109,192,31576,1,0,0:0:0:0:
182,192,31735,1,0,0:0:0:0:
402,192,31895,1,0,0:0:0:0:
256,192,31895,1,0,0:0:0:0:
109,192,31895,1,0,0:0:0:0:
329,192,32054,1,0,0:0:0:0:
182,192,32214,1,0,0:0:0:0:
475,192,32214,1,0,0:0:0:0:
329,192,32374,1,0,0:0:0:0:
109,192,32374,1,0,0:0:0:0:
256,192,32533,128,0,32852:0:0:0:0:
36,192,32533,1,0,0:0:0:0:
402,192,32852,128,0,33171:0:0:0:0:
109,192,32852,1,0,0:0:0:0:
329,192,33171,128,0,33491:0:0:0:0:
182,192,33171,1,0,0:0:0:0:
36,192,33491,1,0,0:0:0:0:
182,192,33491,128,0,33810:0:0:0:0:
36,192,33810,1,0,0:0:0:0:
402,192,33810,1,0,0:0:0:0:
329,192,33969,1,0,0:0:0:0:
109,192,33969,1,0,0:0:0:0:
36,192,34129,1,0,0:0:0:0:
182,192,34129,1,0,0:0:0:0:
402,192,34129,1,0,0:0:0:0:
475,192,34288,1,0,0:0:0:0:
109,192,34288,1,0,0:0:0:0:
329,192,34448,1,0,0:0:0:0:
182,192,34448,1,0,0:0:0:0:
402,192,34448,1,0,0:0:0:0:
256,192,34608,1,0,0:0:0:0:
109,192,34767,1,0,0:0:0:0:
329,192,34767,1,0,0:0:0:0:
182,192,34927,1,0,0:0:0:0:
475,192,34927,1,0,0:0:0:0:
109,192,35086,1,0,0:0:0:0:
329,192,35086,128,0,35405:0:0:0:0:
182,192,35405,1,0,0:0:0:0:
475,192,35405,128,0,35725:0:0:0:0:
256,192,35725,1,0,0:0:0:0:
36,192,35725,128,0,36044:0:0:0:0:
402,192,36044,1,0,0:0:0:0:
182,192,36044,128,0,36363:0:0:0:0:
329,192,36363,1,0,0:0:0:0:
109,192,36363,1,0,0:0:0:0:
402,192,36522,1,0,0:0:0:0:
256,192,36522,1,0,0:0:0:0:
109,192,36682,1,0,0:0:0:0:
475,192,36682,1,0,0:0:0:0:
329,192,36682,1,0,0:0:0:0:
256,192,36842,1,0,0:0:0:0:
402,192,36842,1,0,0:0:0:0:
475,192,37001,1,0,0:0:0:0:
329,192,37001,1,0,0:0:0:0:
109,192,37001,1,0,0:0:0:0:
36,192,37161,1,0,0:0:0:0:
329,192,37320,1,0,0:0:0:0:
109,192,37320,1,0,0:0:0:0:
256,192,37480,1,0,0:0:0:0:
402,192,37480,1,0,0:0:0:0:
182,192,37639,1,0,0:0:0:0:
475,192,37639,128,0,37959:0:0:0:0:
329,192,37959,1,0,0:0:0:0:
182,192,37959,128,0,38278:0:0:0:0:
36,192,37959,1,0,0:0:0:0:
402,192,38278,1,0,0:0:0:0:
329,192,38278,128,0,38597:0:0:0:0:
182,192,38597,1,0,0:0:0:0:
109,192,38597,128,0,38916:0:0:0:0:
402,192,38916,1,0,0:0:0:0:
256,192,38916,1,0,0:0:0:0:
329,192,39076,1,0,0:0:0:0:
182,192,39076,1,0,0:0:0:0:
402,192,39235,1,0,0:0:0:0:
256,192,39235,1,0,0:0:0:0:
36,192,39235,1,0,0:0:0:0:
329,192,39395,1,0,0:0:0:0:
109,192,39395,1,0,0:0:0:0:
256,192,39554,1,0,0:0:0:0:
36,192,39554,1,0,0:0:0:0:
475,192,39554,1,0,0:0:0:0:
109,192,39714,1,0,0:0:0:0:
329,192,39714,1,0,0:0:0:0:
36,192,39874,1,0,0:0:0:0:
182,192,39874,1,0,0:0:0:0:
329,192,40033,1,0,0:0:0:0:
109,192,40033,1,0,0:0:0:0:
182,192,40193,128,0,40512:0:0:0:0:
475,192,40193,1,0,0:0:0:0:
329,192,40512,1,0,0:0:0:0:
402,192,40512,128,0,40831:0:0:0:0:
36,192,40512,1,0,0:0:0:0:
109,192,40831,1,0,0:0:0:0:
182,192,40831,1,0,0:0:0:0:
329,192,40831,128,0,41150:0:0:0:0:
36,192,41150,1,0,0:0:0:0:
256,192,41150,128,0,41469:0:0:0:0:
109,192,41469,1,0,0:0:0:0:
475,192,41469,1,0,0:0:0:0:
329,192,41469,1,0,0:0:0:0:
256,192,41629,1,0,0:0:0:0:
109,192,41788,1,0,0:0:0:0:
402,192,41788,1,0,0:0:0:0:
329,192,41948,1,0,0:0:0:0:
109,192,42108,128,0,42427:0:0:0:0:
256,192,42108,128,0,42427:0:0:0:0:
402,192,42108,128,0,42427:0:0:0:0:
109,192,42586,1,0,0:0:0:0:
256,192,42586,1,0,0:0:0:0:
402,192,42586,1,0,0:0:0:0:
182,192,42746,1,0,0:0:0:0:
329,192,42746,1,0,0:0:0:0:
475,192,42746,1,0,0:0:0:0:
109,192,42905,1,0,0:0:0:0:
256,192,43065,1,0,0:0:0:0:
402,192,43225,1,0,0:0:0:0:
475,192,43384,1,0,0:0:0:0:
36,192,43384,1,0,0:0:0:0:
109,192,43384,1,0,0:0:0:0:
329,192,43384,1,0,0:0:0:0:
329,192,43544,1,0,0:0:0:0:
182,192,43703,1,0,0:0:0:0:
36,192,43863,1,0,0:0:0:0:
475,192,43863,1,0,0:0:0:0:
256,192,43863,1,0,0:0:0:0:
329,192,43863,1,0,0:0:0:0:
402,192,44022,1,0,0:0:0:0:
182,192,44022,1,0,0:0:0:0:
109,192,44022,1,0,0:0:0:0:
36,192,44182,1,0,0:0:0:0:
182,192,44182,1,0,0:0:0:0:
329,192,44182,1,0,0:0:0:0:
36,192,44501,1,0,0:0:0:0:
182,192,44501,1,0,0:0:0:0:
329,192,44501,1,0,0:0:0:0:
109,192,44661,128,0,44980:0:0:0:0:
256,192,44661,128,0,44980:0:0:0:0:
402,192,44661,128,0,44980:0:0:0:0:
109,192,45139,1,0,0:0:0:0:
256,192,45139,1,0,0:0:0:0:
402,192,45139,1,0,0:0:0:0:
329,192,45299,1,0,0:0:0:0:
475,192,45299,1,0,0:0:0:0:
182,192,45459,1,0,0:0:0:0:
109,192,45618,1,0,0:0:0:0:
182,192,45778,1,0,0:0:0:0:
256,192,45937,1,0,0:0:0:0:
402,192,45937,1,0,0:0:0:0:
36,192,45937,128,0,47214:0:0:0:0:
475,192,45937,128,0,47214:0:0:0:0:
109,192,47054,1,0,0:0:0:0:
256,192,47134,1,0,0:0:0:0:
402,192,47214,1,0,0:0:0:0:
109,192,47214,1,0,0:0:0:0:
182,192,47374,1,0,0:0:0:0:
329,192,47533,1,0,0:0:0:0:
475,192,47693,1,0,0:0:0:0:
36,192,47852,1,0,0:0:0:0:
256,192,47852,128,0,48491:0:0:0:0:
109,192,48012,1,0,0:0:0:0:
182,192,48171,1,0,0:0:0:0:
109,192,48331,1,0,0:0:0:0:
182,192,48491,1,0,0:0:0:0:
402,192,48491,128,0,49129:0:0:0:0:
329,192,48650,1,0,0:0:0:0:
256,192,48810,1,0,0:0:0:0:
109,192,48969,1,0,0:0:0:0:
329,192,49129,128,0,49448:0:0:0:0:
182,192,49129,1,0,0:0:0:0:
109,192,49288,1,0,0:0:0:0:
182,192,49448,128,0,49767:0:0:0:0:
36,192,49448,1,0,0:0:0:0:
402,192,49608,1,0,0:0:0:0:
36,192,49767,128,0,50405:0:0:0:0:
329,192,49767,1,0,0:0:0:0:
256,192,49927,1,0,0:0:0:0:
182,192,50086,1,0,0:0:0:0:
402,192,50246,1,0,0:0:0:0:
256,192,50405,128,0,51044:0:0:0:0:
329,192,50405,1,0,0:0:0:0:
109,192,50565,1,0,0:0:0:0:
182,192,50725,1,0,0:0:0:0:
329,192,50884,1,0,0:0:0:0:
182,192,51044,128,0,52320:0:0:0:0:
36,192,51044,1,0,0:0:0:0:
329,192,51203,1,0,0:0:0:0:
256,192,51363,1,0,0:0:0:0:
109,192,51522,1,0,0:0:0:0:
36,192,51682,1,0,0:0:0:0:
109,192,51842,1,0,0:0:0:0:
256,192,52001,1,0,0:0:0:0:
329,192,52161,1,0,0:0:0:0:
402,192,52320,128,0,52959:0:0:0:0:
475,192,52320,1,0,0:0:0:0:
329,192,52480,1,0,0:0:0:0:
182,192,52639,1,0,0:0:0:0:
36,192,52799,1,0,0:0:0:0:
329,192,52959,128,0,53597:0:0:0:0:
256,192,52959,1,0,0:0:0:0:
109,192,53118,1,0,0:0:0:0:
182,192,53278,1,0,0:0:0:0:
256,192,53437,1,0,0:0:0:0:
475,192,53597,128,0,54235:0:0:0:0:
402,192,53597,1,0,0:0:0:0:
109,192,53757,1,0,0:0:0:0:
256,192,53916,1,0,0:0:0:0:
402,192,54076,1,0,0:0:0:0:
256,192,54235,128,0,54874:0:0:0:0:
329,192,54235,1,0,0:0:0:0:
182,192,54395,1,0,0:0:0:0:
36,192,54554,1,0,0:0:0:0:
402,192,54714,1,0,0:0:0:0:
182,192,54874,128,0,55512:0:0:0:0:
329,192,54874,1,0,0:0:0:0:
109,192,55033,1,0,0:0:0:0:
475,192,55193,1,0,0:0:0:0:
256,192,55352,1,0,0:0:0:0:
109,192,55512,128,0,56150:0:0:0:0:
402,192,55512,1,0,0:0:0:0:
329,192,55671,1,0,0:0:0:0:
475,192,55831,1,0,0:0:0:0:
256,192,55991,1,0,0:0:0:0:
402,192,56150,128,0,56788:0:0:0:0:
329,192,56150,1,0,0:0:0:0:
36,192,56150,1,0,0:0:0:0:
256,192,56310,1,0,0:0:0:0:
109,192,56310,1,0,0:0:0:0:
182,192,56469,1,0,0:0:0:0:
256,192,56629,1,0,0:0:0:0:
109,192,56629,1,0,0:0:0:0:
329,192,56788,128,0,57427:0:0:0:0:
36,192,56788,1,0,0:0:0:0:
182,192,56788,1,0,0:0:0:0:
109,192,56868,1,0,0:0:0:0:
475,192,56948,1,0,0:0:0:0:
475,192,57267,1,0,0:0:0:0:
182,192,57267,1,0,0:0:0:0:
256,192,57347,1,0,0:0:0:0:
402,192,57347,1,0,0:0:0:0:
475,192,57427,1,0,0:0:0:0:
182,192,57427,1,0,0:0:0:0:
109,192,57586,1,0,0:0:0:0:
36,192,57746,1,0,0:0:0:0:
329,192,57746,1,0,0:0:0:0:
256,192,57905,1,0,0:0:0:0:
109,192,58225,1,0,0:0:0:0:
36,192,58384,1,0,0:0:0:0:
329,192,58384,1,0,0:0:0:0:
256,192,58544,1,0,0:0:0:0:
329,192,58703,1,0,0:0:0:0:
475,192,58703,1,0,0:0:0:0:
109,192,58703,1,0,0:0:0:0:
402,192,58863,1,0,0:0:0:0:
109,192,59022,1,0,0:0:0:0:
329,192,59102,1,0,0:0:0:0:
402,192,59182,1,0,0:0:0:0:
182,192,59262,1,0,0:0:0:0:
109,192,59342,1,0,0:0:0:0:
475,192,59421,1,0,0:0:0:0:
182,192,59501,1,0,0:0:0:0:
36,192,59581,1,0,0:0:0:0:
329,192,59661,1,0,0:0:0:0:
475,192,59661,1,0,0:0:0:0:
182,192,59820,1,0,0:0:0:0:
256,192,59980,1,0,0:0:0:0:
402,192,59980,1,0,0:0:0:0:
36,192,59980,1,0,0:0:0:0:
329,192,60139,1,0,0:0:0:0:
475,192,60299,1,0,0:0:0:0:
182,192,60299,1,0,0:0:0:0:
109,192,60459,1,0,0:0:0:0:
182,192,60538,1,0,0:0:0:0:
256,192,60618,1,0,0:0:0:0:
475,192,60698,1,0,0:0:0:0:
402,192,60778,1,0,0:0:0:0:
329,192,60858,1,0,0:0:0:0:
182,192,60937,1,0,0:0:0:0:
475,192,60937,1,0,0:0:0:0:
36,192,60937,1,0,0:0:0:0:
256,192,61017,1,0,0:0:0:0:
402,192,61097,1,0,0:0:0:0:
475,192,61177,1,0,0:0:0:0:
256,192,61257,1,0,0:0:0:0:
402,192,61257,1,0,0:0:0:0:
109,192,61257,1,0,0:0:0:0:
36,192,61336,1,0,0:0:0:0:
182,192,61416,1,0,0:0:0:0:
329,192,61496,1,0,0:0:0:0:
256,192,61576,1,0,0:0:0:0:
109,192,61655,1,0,0:0:0:0:
182,192,61735,1,0,0:0:0:0:
329,192,61815,1,0,0:0:0:0:
402,192,61895,1,0,0:0:0:0:
109,192,61895,1,0,0:0:0:0:
475,192,61895,1,0,0:0:0:0:
36,192,61975,1,0,0:0:0:0:
256,192,62054,1,0,0:0:0:0:
475,192,62134,1,0,0:0:0:0:
329,192,62214,1,0,0:0:0:0:
182,192,62294,1,0,0:0:0:0:
109,192,62374,1,0,0:0:0:0:
256,192,62453,1,0,0:0:0:0:
402,192,62533,1,0,0:0:0:0:
182,192,62533,1,0,0:0:0:0:
36,192,62533,1,0,0:0:0:0:
475,192,62613,1,0,0:0:0:0:
109,192,62693,1,0,0:0:0:0:
329,192,62772,1,0,0:0:0:0:
182,192,62852,1,0,0:0:0:0:
402,192,62932,1,0,0:0:0:0:
475,192,63012,1,0,0:0:0:0:
256,192,63092,1,0,0:0:0:0:
109,192,63171,1,0,0:0:0:0:
36,192,63251,1,0,0:0:0:0:
182,192,63331,1,0,0:0:0:0:
402,192,63331,1,0,0:0:0:0:
475,192,63331,1,0,0:0:0:0:
256,192,63411,1,0,0:0:0:0:
402,192,63491,1,0,0:0:0:0:
36,192,63570,1,0,0:0:0:0:
109,192,63650,1,0,0:0:0:0:
402,192,63730,1,0,0:0:0:0:
475,192,63810,1,0,0:0:0:0:
182,192,63810,1,0,0:0:0:0:
36,192,63810,1,0,0:0:0:0:
329,192,63889,1,0,0:0:0:0:
109,192,63969,1,0,0:0:0:0:
402,192,64049,1,0,0:0:0:0:
475,192,64129,1,0,0:0:0:0:
36,192,64209,1,0,0:0:0:0:
109,192,64288,1,0,0:0:0:0:
329,192,64288,1,0,0:0:0:0:
402,192,64288,1,0,0:0:0:0:
256,192,64368,1,0,0:0:0:0:
475,192,64448,1,0,0:0:0:0:
329,192,64528,1,0,0:0:0:0:
182,192,64608,1,0,0:0:0:0:
36,192,64687,1,0,0:0:0:0:
475,192,64767,1,0,0:0:0:0:
329,192,64767,1,0,0:0:0:0:
182,192,64767,1,0,0:0:0:0:
182,192,64927,1,0,0:0:0:0:
402,192,65086,1,0,0:0:0:0:
256,192,65086,1,0,0:0:0:0:
109,192,65086,1,0,0:0:0:0:
329,192,65166,1,0,0:0:0:0:
182,192,65246,1,0,0:0:0:0:
109,192,65326,1,0,0:0:0:0:
36,192,65405,1,0,0:0:0:0:
329,192,65405,1,0,0:0:0:0:
475,192,65485,1,0,0:0:0:0:
402,192,65565,1,0,0:0:0:0:
182,192,65645,1,0,0:0:0:0:
475,192,65725,1,0,0:0:0:0:
329,192,65725,1,0,0:0:0:0:
109,192,65725,1,0,0:0:0:0:
36,192,65804,1,0,0:0:0:0:
182,192,65884,1,0,0:0:0:0:
256,192,65964,1,0,0:0:0:0:
402,192,66044,1,0,0:0:0:0:
109,192,66044,1,0,0:0:0:0:
182,192,66124,1,0,0:0:0:0:
329,192,66203,1,0,0:0:0:0:
402,192,66283,1,0,0:0:0:0:
475,192,66363,1,0,0:0:0:0:
256,192,66363,1,0,0:0:0:0:
36,192,66363,1,0,0:0:0:0:
402,192,66443,1,0,0:0:0:0:
329,192,66522,1,0,0:0:0:0:
256,192,66602,1,0,0:0:0:0:
109,192,66682,1,0,0:0:0:0:
329,192,66762,1,0,0:0:0:0:
182,192,66842,1,0,0:0:0:0:
402,192,66842,1,0,0:0:0:0:
36,192,66842,1,0,0:0:0:0:
256,192,66921,1,0,0:0:0:0:
329,192,67001,1,0,0:0:0:0:
475,192,67081,1,0,0:0:0:0:
256,192,67161,1,0,0:0:0:0:
109,192,67241,1,0,0:0:0:0:
36,192,67320,1,0,0:0:0:0:
182,192,67400,1,0,0:0:0:0:
329,192,67480,1,0,0:0:0:0:
402,192,67560,1,0,0:0:0:0:
36,192,67639,1,0,0:0:0:0:
256,192,67639,1,0,0:0:0:0:
475,192,67639,1,0,0:0:0:0:
329,192,67639,1,0,0:0:0:0:
402,192,67799,1,0,0:0:0:0:
329,192,67959,1,0,0:0:0:0:
109,192,68118,1,0,0:0:0:0:
475,192,68118,1,0,0:0:0:0:
256,192,68118,1,0,0:0:0:0:
182,192,68278,1,0,0:0:0:0:
256,192,68437,1,0,0:0:0:0:
402,192,68597,1,0,0:0:0:0:
182,192,68597,1,0,0:0:0:0:
36,192,68597,1,0,0:0:0:0:
329,192,68757,1,0,0:0:0:0:
256,192,68916,1,0,0:0:0:0:
182,192,69076,1,0,0:0:0:0:
475,192,69076,1,0,0:0:0:0:
109,192,69076,1,0,0:0:0:0:
329,192,69235,1,0,0:0:0:0:
109,192,69395,1,0,0:0:0:0:
36,192,69554,1,0,0:0:0:0:
475,192,69554,1,0,0:0:0:0:
182,192,69554,128,0,69794:0:0:0:0:
329,192,69554,128,0,69794:0:0:0:0:
109,192,69794,128,0,70033:0:0:0:0:
402,192,69794,128,0,70033:0:0:0:0:
182,192,70033,128,0,70193:0:0:0:0:
329,192,70033,128,0,70193:0:0:0:0:
36,192,70193,1,0,0:0:0:0:
475,192,70193,1,0,0:0:0:0:
402,192,70352,1,0,0:0:0:0:
329,192,70512,1,0,0:0:0:0:
402,192,70671,1,0,0:0:0:0:
182,192,70671,1,0,0:0:0:0:
36,192,70671,1,0,0:0:0:0:
256,192,70831,1,0,0:0:0:0:
109,192,70991,1,0,0:0:0:0:
475,192,71150,1,0,0:0:0:0:
182,192,71150,1,0,0:0:0:0:
329,192,71150,1,0,0:0:0:0:
256,192,71310,1,0,0:0:0:0:
182,192,71469,1,0,0:0:0:0:
329,192,71629,1,0,0:0:0:0:
475,192,71629,1,0,0:0:0:0:
109,192,71629,1,0,0:0:0:0:
182,192,71788,1,0,0:0:0:0:
36,192,71948,1,0,0:0:0:0:
109,192,72108,128,0,72347:0:0:0:0:
256,192,72108,1,0,0:0:0:0:
402,192,72108,1,0,0:0:0:0:
36,192,72108,128,0,72347:0:0:0:0:
182,192,72347,128,0,72586:0:0:0:0:
256,192,72347,128,0,72586:0:0:0:0:
475,192,72347,1,0,0:0:0:0:
329,192,72586,128,0,72746:0:0:0:0:
402,192,72586,128,0,72746:0:0:0:0:
36,192,72586,1,0,0:0:0:0:
182,192,72746,1,0,0:0:0:0:
109,192,72906,1,0,0:0:0:0:
182,192,73066,1,0,0:0:0:0:
36,192,73225,1,0,0:0:0:0:
402,192,73225,1,0,0:0:0:0:
256,192,73225,1,0,0:0:0:0:
329,192,73385,1,0,0:0:0:0:
256,192,73544,1,0,0:0:0:0:
109,192,73704,1,0,0:0:0:0:
329,192,73704,1,0,0:0:0:0:
475,192,73704,1,0,0:0:0:0:
182,192,73864,1,0,0:0:0:0:
256,192,74023,1,0,0:0:0:0:
402,192,74183,1,0,0:0:0:0:
329,192,74183,1,0,0:0:0:0:
36,192,74183,1,0,0:0:0:0:
182,192,74342,1,0,0:0:0:0:
402,192,74502,1,0,0:0:0:0:
36,192,74661,1,0,0:0:0:0:
475,192,74661,1,0,0:0:0:0:
182,192,74661,128,0,74900:0:0:0:0:
329,192,74661,128,0,74900:0:0:0:0:
109,192,74901,128,0,75140:0:0:0:0:
402,192,74901,128,0,75140:0:0:0:0:
329,192,75140,128,0,75300:0:0:0:0:
182,192,75140,128,0,75300:0:0:0:0:
475,192,75300,1,0,0:0:0:0:
36,192,75300,1,0,0:0:0:0:
109,192,75459,1,0,0:0:0:0:
182,192,75619,1,0,0:0:0:0:
329,192,75778,1,0,0:0:0:0:
475,192,75778,1,0,0:0:0:0:
109,192,75778,1,0,0:0:0:0:
256,192,75938,1,0,0:0:0:0:
402,192,76098,1,0,0:0:0:0:
329,192,76257,1,0,0:0:0:0:
36,192,76257,1,0,0:0:0:0:
182,192,76257,1,0,0:0:0:0:
256,192,76417,1,0,0:0:0:0:
329,192,76576,1,0,0:0:0:0:
36,192,76736,1,0,0:0:0:0:
182,192,76736,1,0,0:0:0:0:
402,192,76736,1,0,0:0:0:0:
329,192,76895,1,0,0:0:0:0:
475,192,77055,1,0,0:0:0:0:
475,192,77214,128,0,77453:0:0:0:0:
109,192,77215,1,0,0:0:0:0:
256,192,77215,1,0,0:0:0:0:
402,192,77215,128,0,77454:0:0:0:0:
36,192,77454,1,0,0:0:0:0:
329,192,77454,128,0,77693:0:0:0:0:
256,192,77454,128,0,77693:0:0:0:0:
475,192,77693,1,0,0:0:0:0:
109,192,77693,128,0,77853:0:0:0:0:
182,192,77693,128,0,77853:0:0:0:0:
329,192,77852,1,0,0:0:0:0:
402,192,78012,1,0,0:0:0:0:
256,192,78012,1,0,0:0:0:0:
475,192,78171,1,0,0:0:0:0:
182,192,78171,1,0,0:0:0:0:
256,192,78331,1,0,0:0:0:0:
402,192,78331,1,0,0:0:0:0:
182,192,78491,1,0,0:0:0:0:
329,192,78491,1,0,0:0:0:0:
109,192,78650,1,0,0:0:0:0:
475,192,78650,1,0,0:0:0:0:
329,192,78810,1,0,0:0:0:0:
36,192,78810,1,0,0:0:0:0:
475,192,78969,1,0,0:0:0:0:
256,192,78969,1,0,0:0:0:0:
182,192,79129,1,0,0:0:0:0:
36,192,79129,1,0,0:0:0:0:
329,192,79288,1,0,0:0:0:0:
109,192,79288,1,0,0:0:0:0:
256,192,79448,1,0,0:0:0:0:
402,192,79448,1,0,0:0:0:0:
182,192,79608,1,0,0:0:0:0:
475,192,79608,1,0,0:0:0:0:
109,192,79767,128,0,80007:0:0:0:0:
402,192,79767,128,0,80007:0:0:0:0:
182,192,79767,1,0,0:0:0:0:
329,192,79767,1,0,0:0:0:0:
329,192,80007,128,0,80246:0:0:0:0:
182,192,80007,128,0,80246:0:0:0:0:
475,192,80246,128,0,80405:0:0:0:0:
36,192,80246,128,0,80405:0:0:0:0:
329,192,80405,1,0,0:0:0:0:
182,192,80405,1,0,0:0:0:0:
256,192,80565,1,0,0:0:0:0:
109,192,80565,1,0,0:0:0:0:
329,192,80725,1,0,0:0:0:0:
36,192,80725,1,0,0:0:0:0:
475,192,80884,1,0,0:0:0:0:
182,192,80884,1,0,0:0:0:0:
256,192,81044,1,0,0:0:0:0:
402,192,81044,1,0,0:0:0:0:
36,192,81203,1,0,0:0:0:0:
329,192,81203,1,0,0:0:0:0:
109,192,81363,1,0,0:0:0:0:
256,192,81363,1,0,0:0:0:0:
182,192,81522,1,0,0:0:0:0:
475,192,81522,1,0,0:0:0:0:
329,192,81682,1,0,0:0:0:0:
36,192,81682,1,0,0:0:0:0:
402,192,81842,1,0,0:0:0:0:
109,192,81842,1,0,0:0:0:0:
256,192,82001,1,0,0:0:0:0:
475,192,82001,1,0,0:0:0:0:
182,192,82161,1,0,0:0:0:0:
329,192,82161,1,0,0:0:0:0:
109,192,82320,128,0,82560:0:0:0:0:
402,192,82320,128,0,82560:0:0:0:0:
182,192,82320,1,0,0:0:0:0:
329,192,82320,1,0,0:0:0:0:
36,192,82560,128,0,82799:0:0:0:0:
475,192,82560,128,0,82799:0:0:0:0:
182,192,82799,128,0,82959:0:0:0:0:
329,192,82799,128,0,82959:0:0:0:0:
109,192,82959,1,0,0:0:0:0:
402,192,82959,1,0,0:0:0:0:
256,192,83118,1,0,0:0:0:0:
329,192,83278,1,0,0:0:0:0:
36,192,83278,1,0,0:0:0:0:
402,192,83437,1,0,0:0:0:0:
182,192,83597,1,0,0:0:0:0:
475,192,83597,1,0,0:0:0:0:
36,192,83757,1,0,0:0:0:0:
109,192,83916,1,0,0:0:0:0:
329,192,83916,1,0,0:0:0:0:
256,192,84076,1,0,0:0:0:0:
402,192,84235,1,0,0:0:0:0:
36,192,84235,1,0,0:0:0:0:
329,192,84395,1,0,0:0:0:0:
182,192,84554,1,0,0:0:0:0:
402,192,84554,1,0,0:0:0:0:
109,192,84714,1,0,0:0:0:0:
402,192,84874,1,0,0:0:0:0:
36,192,84874,1,0,0:0:0:0:
182,192,84874,1,0,0:0:0:0:
182,192,85033,1,0,0:0:0:0:
109,192,85113,1,0,0:0:0:0:
329,192,85113,1,0,0:0:0:0:
475,192,85113,1,0,0:0:0:0:
36,192,85193,1,0,0:0:0:0:
475,192,85352,1,0,0:0:0:0:
329,192,85352,1,0,0:0:0:0:
182,192,85352,1,0,0:0:0:0:
256,192,85512,1,0,0:0:0:0:
109,192,85512,1,0,0:0:0:0:
402,192,85512,1,0,0:0:0:0:
182,192,85671,1,0,0:0:0:0:
109,192,85831,1,0,0:0:0:0:
475,192,85831,1,0,0:0:0:0:
256,192,85991,1,0,0:0:0:0:
475,192,85991,1,0,0:0:0:0:
329,192,86150,1,0,0:0:0:0:
182,192,86150,1,0,0:0:0:0:
402,192,86310,1,0,0:0:0:0:
182,192,86469,1,0,0:0:0:0:
36,192,86469,1,0,0:0:0:0:
329,192,86629,1,0,0:0:0:0:
256,192,86788,1,0,0:0:0:0:
475,192,86788,1,0,0:0:0:0:
402,192,86948,1,0,0:0:0:0:
475,192,87108,1,0,0:0:0:0:
182,192,87108,1,0,0:0:0:0:
329,192,87267,1,0,0:0:0:0:
402,192,87427,1,0,0:0:0:0:
256,192,87427,1,0,0:0:0:0:
109,192,87427,1,0,0:0:0:0:
36,192,87666,1,0,0:0:0:0:
182,192,87666,1,0,0:0:0:0:
329,192,87666,1,0,0:0:0:0:
475,192,87666,1,0,0:0:0:0:
109,192,87905,1,0,0:0:0:0:
402,192,87905,1,0,0:0:0:0:
36,192,87905,1,0,0:0:0:0:
475,192,87905,1,0,0:0:0:0:
256,192,87905,1,0,0:0:0:0:
402,192,88065,1,0,0:0:0:0:
109,192,88065,1,0,0:0:0:0:
182,192,88065,128,0,88703:0:0:0:0:
329,192,88065,1,0,0:0:0:0:
475,192,88225,1,0,0:0:0:0:
329,192,88384,1,0,0:0:0:0:
36,192,88384,1,0,0:0:0:0:
402,192,88544,1,0,0:0:0:0:
329,192,88703,128,0,89342:0:0:0:0:
475,192,88703,1,0,0:0:0:0:
256,192,88863,1,0,0:0:0:0:
182,192,89022,1,0,0:0:0:0:
36,192,89022,1,0,0:0:0:0:
109,192,89182,1,0,0:0:0:0:
256,192,89342,128,0,89980:0:0:0:0:
475,192,89342,1,0,0:0:0:0:
36,192,89342,1,0,0:0:0:0:
182,192,89501,1,0,0:0:0:0:
109,192,89661,1,0,0:0:0:0:
402,192,89661,1,0,0:0:0:0:
329,192,89820,1,0,0:0:0:0:
402,192,89980,128,0,90618:0:0:0:0:
182,192,89980,1,0,0:0:0:0:
36,192,89980,1,0,0:0:0:0:
329,192,90139,1,0,0:0:0:0:
109,192,90299,1,0,0:0:0:0:
256,192,90299,1,0,0:0:0:0:
329,192,90459,1,0,0:0:0:0:
109,192,90618,128,0,91257:0:0:0:0:
475,192,90618,1,0,0:0:0:0:
36,192,90618,1,0,0:0:0:0:
329,192,90778,1,0,0:0:0:0:
256,192,90937,1,0,0:0:0:0:
402,192,90937,1,0,0:0:0:0:
182,192,91097,1,0,0:0:0:0:
182,192,91257,128,0,91895:0:0:0:0:
329,192,91257,1,0,0:0:0:0:
475,192,91257,1,0,0:0:0:0:
36,192,91416,1,0,0:0:0:0:
109,192,91576,1,0,0:0:0:0:
402,192,91576,1,0,0:0:0:0:
256,192,91735,1,0,0:0:0:0:
36,192,91895,128,0,92533:0:0:0:0:
329,192,91895,1,0,0:0:0:0:
475,192,91895,1,0,0:0:0:0:
256,192,92054,1,0,0:0:0:0:
402,192,92214,1,0,0:0:0:0:
182,192,92214,1,0,0:0:0:0:
109,192,92374,1,0,0:0:0:0:
109,192,92533,128,0,93171:0:0:0:0:
256,192,92533,1,0,0:0:0:0:
475,192,92533,1,0,0:0:0:0:
329,192,92693,1,0,0:0:0:0:
402,192,92852,1,0,0:0:0:0:
182,192,92852,1,0,0:0:0:0:
475,192,93012,1,0,0:0:0:0:
256,192,93171,128,0,94448:0:0:0:0:
36,192,93171,1,0,0:0:0:0:
402,192,93171,1,0,0:0:0:0:
182,192,93331,1,0,0:0:0:0:
329,192,93331,1,0,0:0:0:0:
402,192,93491,1,0,0:0:0:0:
109,192,93491,1,0,0:0:0:0:
36,192,93491,1,0,0:0:0:0:
182,192,93650,1,0,0:0:0:0:
329,192,93650,1,0,0:0:0:0:
402,192,93810,1,0,0:0:0:0:
109,192,93810,1,0,0:0:0:0:
475,192,93810,1,0,0:0:0:0:
109,192,93969,1,0,0:0:0:0:
36,192,93969,1,0,0:0:0:0:
402,192,94129,1,0,0:0:0:0:
182,192,94129,1,0,0:0:0:0:
329,192,94129,1,0,0:0:0:0:
475,192,94288,1,0,0:0:0:0:
109,192,94288,1,0,0:0:0:0:
182,192,94448,128,0,95725:0:0:0:0:
329,192,94448,1,0,0:0:0:0:
36,192,94448,1,0,0:0:0:0:
402,192,94608,1,0,0:0:0:0:
475,192,94608,1,0,0:0:0:0:
329,192,94767,1,0,0:0:0:0:
109,192,94767,1,0,0:0:0:0:
256,192,94767,1,0,0:0:0:0:
402,192,94927,1,0,0:0:0:0:
475,192,94927,1,0,0:0:0:0:
36,192,95086,1,0,0:0:0:0:
329,192,95086,1,0,0:0:0:0:
256,192,95086,1,0,0:0:0:0:
402,192,95246,1,0,0:0:0:0:
475,192,95246,1,0,0:0:0:0:
109,192,95405,1,0,0:0:0:0:
329,192,95405,1,0,0:0:0:0:
256,192,95405,1,0,0:0:0:0:
36,192,95565,1,0,0:0:0:0:
475,192,95565,1,0,0:0:0:0:
109,192,95725,128,0,97001:0:0:0:0:
36,192,95725,1,0,0:0:0:0:
402,192,95725,1,0,0:0:0:0:
182,192,95884,1,0,0:0:0:0:
256,192,95884,1,0,0:0:0:0:
256,192,96044,1,0,0:0:0:0:
329,192,96044,1,0,0:0:0:0:
475,192,96203,1,0,0:0:0:0:
402,192,96203,1,0,0:0:0:0:
402,192,96363,1,0,0:0:0:0:
329,192,96363,1,0,0:0:0:0:
329,192,96522,1,0,0:0:0:0:
256,192,96522,1,0,0:0:0:0:
256,192,96682,1,0,0:0:0:0:
182,192,96682,1,0,0:0:0:0:
402,192,96842,1,0,0:0:0:0:
329,192,96842,1,0,0:0:0:0:
36,192,97001,128,0,97639:0:0:0:0:
256,192,97001,1,0,0:0:0:0:
475,192,97001,1,0,0:0:0:0:
329,192,97161,1,0,0:0:0:0:
402,192,97161,1,0,0:0:0:0:
402,192,97320,1,0,0:0:0:0:
182,192,97320,1,0,0:0:0:0:
475,192,97320,1,0,0:0:0:0:
256,192,97480,1,0,0:0:0:0:
329,192,97480,1,0,0:0:0:0:
475,192,97639,128,0,98278:0:0:0:0:
402,192,97639,1,0,0:0:0:0:
109,192,97639,1,0,0:0:0:0:
256,192,97799,1,0,0:0:0:0:
182,192,97799,1,0,0:0:0:0:
329,192,97959,1,0,0:0:0:0:
36,192,97959,1,0,0:0:0:0:
109,192,97959,1,0,0:0:0:0:
402,192,98118,1,0,0:0:0:0:
182,192,98118,1,0,0:0:0:0:
256,192,98278,128,0,99554:0:0:0:0:
182,192,98278,1,0,0:0:0:0:
109,192,98278,1,0,0:0:0:0:
182,192,98437,1,0,0:0:0:0:
109,192,98437,1,0,0:0:0:0:
36,192,98597,1,0,0:0:0:0:
402,192,98757,1,0,0:0:0:0:
475,192,98757,1,0,0:0:0:0:
109,192,98916,1,0,0:0:0:0:
402,192,98916,1,0,0:0:0:0:
475,192,98916,1,0,0:0:0:0:
109,192,99235,1,0,0:0:0:0:
402,192,99235,1,0,0:0:0:0:
402,192,99395,1,0,0:0:0:0:
109,192,99395,1,0,0:0:0:0:
402,192,99554,128,0,100193:0:0:0:0:
36,192,99554,1,0,0:0:0:0:
256,192,99714,1,0,0:0:0:0:
182,192,99714,1,0,0:0:0:0:
329,192,99874,1,0,0:0:0:0:
256,192,100033,1,0,0:0:0:0:
329,192,100193,128,0,100831:0:0:0:0:
182,192,100193,1,0,0:0:0:0:
109,192,100193,1,0,0:0:0:0:
256,192,100512,1,0,0:0:0:0:
109,192,100512,1,0,0:0:0:0:
256,192,100671,1,0,0:0:0:0:
109,192,100671,1,0,0:0:0:0:
109,192,100831,128,0,101788:0:0:0:0:
402,192,100831,1,0,0:0:0:0:
475,192,100831,1,0,0:0:0:0:
475,192,100991,1,0,0:0:0:0:
402,192,100991,1,0,0:0:0:0:
329,192,101150,1,0,0:0:0:0:
256,192,101310,1,0,0:0:0:0:
402,192,101310,1,0,0:0:0:0:
402,192,101469,1,0,0:0:0:0:
256,192,101469,1,0,0:0:0:0:
182,192,101788,1,0,0:0:0:0:
329,192,101788,1,0,0:0:0:0:
402,192,101788,1,0,0:0:0:0:
329,192,101948,1,0,0:0:0:0:
182,192,101948,1,0,0:0:0:0:
36,192,101948,1,0,0:0:0:0:
36,192,102108,128,0,102746:0:0:0:0:
256,192,102108,1,0,0:0:0:0:
329,192,102267,1,0,0:0:0:0:
475,192,102267,1,0,0:0:0:0:
475,192,102427,1,0,0:0:0:0:
329,192,102427,1,0,0:0:0:0:
402,192,102586,1,0,0:0:0:0:
256,192,102586,1,0,0:0:0:0:
402,192,102746,1,0,0:0:0:0:
256,192,102746,1,0,0:0:0:0:
109,192,102746,1,0,0:0:0:0:
182,192,102985,1,0,0:0:0:0:
329,192,102985,1,0,0:0:0:0:
36,192,102985,1,0,0:0:0:0:
475,192,103225,1,0,0:0:0:0:
329,192,103225,1,0,0:0:0:0:
182,192,103225,1,0,0:0:0:0:
182,192,103703,1,0,0:0:0:0:
256,192,103703,1,0,0:0:0:0:
329,192,103703,1,0,0:0:0:0:
475,192,103703,1,0,0:0:0:0:
36,192,103703,1,0,0:0:0:0:
109,192,103863,1,0,0:0:0:0:
402,192,103863,1,0,0:0:0:0:
256,192,104022,1,0,0:0:0:0:
109,192,104182,1,0,0:0:0:0:
402,192,104182,1,0,0:0:0:0:
182,192,104342,1,0,0:0:0:0:
329,192,104342,1,0,0:0:0:0:
36,192,104501,1,0,0:0:0:0:
475,192,104501,1,0,0:0:0:0:
109,192,104661,1,0,0:0:0:0:
402,192,104661,1,0,0:0:0:0:
256,192,104661,1,0,0:0:0:0:
109,192,104980,1,0,0:0:0:0:
256,192,104980,1,0,0:0:0:0:
402,192,104980,1,0,0:0:0:0:
475,192,105139,1,0,0:0:0:0:
329,192,105139,1,0,0:0:0:0:
36,192,105139,1,0,0:0:0:0:
182,192,105139,1,0,0:0:0:0:
402,192,105299,1,0,0:0:0:0:
109,192,105299,1,0,0:0:0:0:
256,192,105459,1,0,0:0:0:0:
182,192,105618,1,0,0:0:0:0:
329,192,105618,1,0,0:0:0:0:
109,192,105778,1,0,0:0:0:0:
256,192,105778,1,0,0:0:0:0:
402,192,105778,1,0,0:0:0:0:
329,192,105937,1,0,0:0:0:0:
36,192,105937,1,0,0:0:0:0:
182,192,105937,1,0,0:0:0:0:
475,192,105937,128,0,106576:0:0:0:0:
182,192,106097,1,0,0:0:0:0:
329,192,106097,1,0,0:0:0:0:
182,192,106257,1,0,0:0:0:0:
329,192,106257,1,0,0:0:0:0:
36,192,106416,1,0,0:0:0:0:
182,192,106496,1,0,0:0:0:0:
109,192,106576,1,0,0:0:0:0:
402,192,106576,1,0,0:0:0:0:
256,192,106576,128,0,107214:0:0:0:0:
402,192,106735,1,0,0:0:0:0:
109,192,106735,1,0,0:0:0:0:
109,192,106895,1,0,0:0:0:0:
402,192,106895,1,0,0:0:0:0:
475,192,107214,1,0,0:0:0:0:
36,192,107214,1,0,0:0:0:0:
109,192,107214,128,0,107852:0:0:0:0:
36,192,107693,1,0,0:0:0:0:
475,192,107693,1,0,0:0:0:0:
36,192,107852,128,0,108491:0:0:0:0:
256,192,107852,1,0,0:0:0:0:
402,192,107852,1,0,0:0:0:0:
402,192,108012,1,0,0:0:0:0:
256,192,108012,1,0,0:0:0:0:
402,192,108171,1,0,0:0:0:0:
256,192,108171,1,0,0:0:0:0:
402,192,108331,1,0,0:0:0:0:
256,192,108331,1,0,0:0:0:0:
402,192,108491,1,0,0:0:0:0:
256,192,108491,1,0,0:0:0:0:
109,192,108491,1,0,0:0:0:0:
475,192,108491,1,0,0:0:0:0:
256,192,109288,1,0,0:0:0:0:
329,192,109448,1,0,0:0:0:0:
402,192,109608,1,0,0:0:0:0:
475,192,109767,1,0,0:0:0:0:
402,192,110246,1,0,0:0:0:0:
475,192,110725,1,0,0:0:0:0:
182,192,111044,1,0,0:0:0:0:
109,192,111682,1,0,0:0:0:0:
329,192,111682,128,0,112320:0:0:0:0:
182,192,112320,1,0,0:0:0:0:
402,192,112320,128,0,112959:0:0:0:0:
256,192,112959,1,0,0:0:0:0:
182,192,112959,128,0,113597:0:0:0:0:
329,192,113597,1,0,0:0:0:0:
402,192,113597,128,0,114874:0:0:0:0:
256,192,114874,1,0,0:0:0:0:
329,192,114874,128,0,115512:0:0:0:0:
36,192,115512,128,0,116150:0:0:0:0:
402,192,115512,1,0,0:0:0:0:
256,192,116150,128,0,116788:0:0:0:0:
329,192,116150,1,0,0:0:0:0:
475,192,116788,1,0,0:0:0:0:
329,192,116788,128,0,117427:0:0:0:0:
402,192,117427,1,0,0:0:0:0:
182,192,117427,128,0,118065:0:0:0:0:
256,192,118065,1,0,0:0:0:0:
402,192,118065,128,0,118703:0:0:0:0:
182,192,118225,1,0,0:0:0:0:
109,192,118331,1,0,0:0:0:0:
256,192,118491,1,0,0:0:0:0:
329,192,118597,1,0,0:0:0:0:
182,192,118703,1,0,0:0:0:0:
36,192,118703,1,0,0:0:0:0:
475,192,118703,128,0,119980:0:0:0:0:
182,192,119980,1,0,0:0:0:0:
329,192,119980,128,0,120618:0:0:0:0:
109,192,119980,1,0,0:0:0:0:
402,192,120618,1,0,0:0:0:0:
182,192,120618,128,0,121257:0:0:0:0:
36,192,120618,1,0,0:0:0:0:
329,192,121257,1,0,0:0:0:0:
36,192,121257,1,0,0:0:0:0:
402,192,121257,128,0,122533:0:0:0:0:
109,192,122533,1,0,0:0:0:0:
182,192,122852,1,0,0:0:0:0:
109,192,123171,1,0,0:0:0:0:
36,192,123491,1,0,0:0:0:0:
402,192,123810,1,0,0:0:0:0:
109,192,123810,128,0,125086:0:0:0:0:
402,192,125086,128,0,126682:0:0:0:0:
256,192,125086,1,0,0:0:0:0:
36,192,126443,1,0,0:0:0:0:
182,192,126522,1,0,0:0:0:0:
329,192,126602,1,0,0:0:0:0:
475,192,126682,1,0,0:0:0:0:
256,192,126682,128,0,129554:0:0:0:0:
36,192,126842,1,0,0:0:0:0:
109,192,126921,1,0,0:0:0:0:
182,192,127001,1,0,0:0:0:0:
36,192,127081,1,0,0:0:0:0:
182,192,127161,1,0,0:0:0:0:
329,192,127241,1,0,0:0:0:0:
402,192,127320,1,0,0:0:0:0:
475,192,127799,1,0,0:0:0:0:
36,192,127799,1,0,0:0:0:0:
182,192,128757,1,0,0:0:0:0:
475,192,128757,1,0,0:0:0:0:
