osu file format v12

[General]
AudioFilename: 13 - Akasagarbha(Hardcore Mix).mp3
AudioLeadIn: 0
PreviewTime: -1
Countdown: 1
SampleSet: Soft
StackLeniency: 0.7
Mode: 0
LetterboxInBreaks: 1
WidescreenStoryboard: 1

[Editor]
DistanceSpacing: 1.4
BeatDivisor: 2
GridSize: 16

[Metadata]
Title:Akasagarbha(Hardcore Mix)
TitleUnicode:Akasagarbha(Hardcore Mix)
Artist:ETIA.
ArtistUnicode:ETIA.
Creator:woshiguabi
Version:Normal
Source:
Tags:
BeatmapID:358129
BeatmapSetID:143664

[Difficulty]
HPDrainRate:4
CircleSize:3
OverallDifficulty:4
ApproachRate:5
SliderMultiplier:0.799999999999999
SliderTickRate:1

[Events]
//Background and Video events
//Break Periods
2,8617,26280
2,88930,96905
2,150180,156905
//Storyboard Layer 0 (Background)
//Storyboard Layer 1 (Fail)
//Storyboard Layer 2 (Pass)
//Storyboard Layer 3 (Foreground)
//Storyboard Sound Samples
//Background Colour Transformations
3,100,163,162,255

[TimingPoints]
-20,312.5,4,2,1,20,1,0
108730,-100,4,1,1,60,0,1
128730,-100,4,1,1,60,0,0
169980,-100,4,1,1,60,0,1
189901,-100,4,2,1,60,0,0
189980,-100,4,1,1,60,0,1
190058,-100,4,1,1,60,0,0
192167,-100,4,1,1,60,0,1
192401,-100,4,1,1,60,0,0
192480,-100,4,1,1,60,0,1
210292,-100,4,1,1,80,0,0

[Colours]
Combo1 : 255,255,0
Combo2 : 0,0,255
Combo3 : 64,0,128
Combo4 : 0,255,255
Combo5 : 0,128,192

[HitObjects]
256,192,1230,12,0,2792,0:0:0:0:
328,72,3105,6,0,L|428:72,2,79.9999999999999
152,80,4355,1,0,0:0:0:0:
88,196,4980,5,0,0:0:0:0:
216,280,5448,1,0,0:0:0:0:
396,212,5917,1,0,0:0:0:0:
340,56,6230,2,0,L|272:76,3,40
192,108,7011,1,0,0:0:0:0:
192,108,7167,1,0,0:0:0:0:
108,232,7480,5,0,0:0:0:0:
272,216,7948,5,0,0:0:0:0:
420,168,8417,5,0,0:0:0:0:
136,68,27480,6,0,L|256:160,1,120
400,104,28417,1,0,0:0:0:0:
416,216,28730,2,0,L|280:272,1,120
64,68,29667,1,0,0:0:0:0:
68,120,29980,2,0,L|136:228,1,120
324,52,30917,5,0,0:0:0:0:
424,80,31230,2,0,L|360:200,1,120
128,292,32167,1,0,0:0:0:0:
48,196,32480,1,0,0:0:0:0:
176,72,33105,6,0,L|292:92,1,79.9999999999999
396,92,33730,1,0,0:0:0:0:
112,112,34355,2,0,L|8:116,2,79.9999999999999
240,116,35292,1,0,0:0:0:0:
384,124,35605,2,0,L|368:232,1,79.9999999999999
336,296,36230,2,0,L|164:296,1,160
92,220,37480,6,0,L|132:124,1,79.9999999999999
264,80,38105,2,0,L|328:80,4,40
416,64,39198,2,0,L|448:196,1,120
396,208,39980,2,0,L|248:228,1,120
112,244,40917,5,0,0:0:0:0:
104,140,41230,2,0,L|236:56,1,120
340,40,42167,1,0,0:0:0:0:
428,84,42480,2,0,L|312:216,1,160
180,216,43417,1,0,0:0:0:0:
184,28,43730,1,0,0:0:0:0:
316,60,44355,6,0,L|408:232,1,160
376,324,45448,2,0,L|248:268,1,120
96,216,46230,1,0,0:0:0:0:
48,112,46542,1,0,0:0:0:0:
132,28,46855,1,0,0:0:0:0:
216,88,47167,1,0,0:0:0:0:
208,204,47480,1,0,0:0:0:0:
384,88,48730,6,0,L|264:312,1,240
104,304,49980,2,0,L|124:48,1,240
240,64,51230,1,0,0:0:0:0:
364,88,51542,1,0,0:0:0:0:
420,164,51855,2,0,L|356:240,1,79.9999999999999
316,300,52480,1,0,0:0:0:0:
176,292,52792,1,0,0:0:0:0:
100,188,53105,2,0,L|160:96,1,79.9999999999999
260,60,53730,6,0,L|456:216,1,240
380,280,54980,2,0,L|160:120,1,240
132,56,56230,2,0,L|88:144,1,79.9999999999999
104,224,56855,1,0,0:0:0:0:
184,292,57167,1,0,0:0:0:0:
288,268,57480,2,0,L|348:176,1,79.9999999999999
340,96,58105,1,0,0:0:0:0:
232,36,58417,1,0,0:0:0:0:
128,136,58730,6,0,L|388:176,1,240
360,272,59980,2,0,L|112:256,1,240
128,136,61230,2,0,L|180:136,3,40
252,136,62011,2,0,L|296:132,2,40
428,136,62636,2,0,L|400:108,2,40
428,248,63261,2,0,L|288:292,1,120
216,288,64042,1,0,0:0:0:0:
96,208,64355,6,0,L|96:96,1,79.9999999999999
176,76,64980,2,0,L|264:80,1,79.9999999999999
396,112,65605,2,0,L|396:216,1,79.9999999999999
256,192,66230,12,0,67480,0:0:0:0:
196,120,68105,6,0,L|360:116,1,160
468,148,69042,1,0,0:0:0:0:
456,232,69355,2,0,L|352:288,1,79.9999999999999
272,272,69980,1,0,0:0:0:0:
136,228,70292,1,0,0:0:0:0:
100,96,70605,2,0,L|208:64,1,79.9999999999999
352,108,71230,6,0,L|400:108,3,40
360,184,72011,2,0,L|412:196,2,40
344,252,72636,2,0,L|396:264,2,40
192,320,73417,6,0,L|104:260,1,79.9999999999999,0|0,0:0|0:0,0:0:0:0:
72,184,74042,1,0,0:0:0:0:
140,88,74355,2,0,L|240:88,1,79.9999999999999
336,92,74980,2,0,L|348:180,1,79.9999999999999
400,216,75605,2,0,L|292:264,1,79.9999999999999
256,248,76230,6,0,L|200:260,3,40
224,136,77011,2,0,L|176:160,2,40
160,40,77636,2,0,L|104:92,2,40
308,40,78261,2,0,L|368:48,3,40
436,120,79042,5,0,0:0:0:0:
440,200,79355,2,0,L|412:280,1,79.9999999999999
324,304,79980,1,0,0:0:0:0:
176,284,80292,1,0,0:0:0:0:
88,204,80605,2,0,L|120:96,1,79.9999999999999
188,56,81230,6,0,L|316:56,2,120
196,144,82480,5,0,0:0:0:0:
396,200,82792,1,0,0:0:0:0:
264,260,83105,1,0,0:0:0:0:
316,120,83417,1,0,0:0:0:0:
168,40,83730,6,0,L|72:188,1,160
152,280,84980,2,0,L|248:128,1,160
324,72,85917,1,0,0:0:0:0:
456,56,86230,2,0,L|452:156,1,79.9999999999999
480,232,86855,2,0,L|384:280,1,79.9999999999999
264,304,87480,1,0,0:0:0:0:
256,192,87792,12,0,88730,0:0:0:0:
152,88,98105,6,0,L|296:204,1,160
416,152,99042,1,0,0:0:0:0:
408,240,99355,2,0,L|312:292,1,79.9999999999999
264,272,99980,2,0,L|176:256,1,79.9999999999999
108,236,100605,2,0,L|132:136,1,79.9999999999999
224,88,101230,2,0,L|340:104,1,79.9999999999999
424,124,101855,2,0,L|412:216,1,79.9999999999999
360,292,102480,5,0,0:0:0:0:
260,280,102792,1,0,0:0:0:0:
156,228,103105,1,0,0:0:0:0:
184,140,103417,1,0,0:0:0:0:
328,160,103730,1,0,0:0:0:0:
160,116,104980,5,0,0:0:0:0:
336,56,106230,6,0,L|472:124,1,120
424,232,107011,2,0,L|388:264,3,40
416,160,107948,2,0,L|272:192,1,120
160,80,108730,6,0,L|240:80,1,79.9999999999999
320,80,109355,2,0,L|400:80,1,79.9999999999999
432,192,109980,2,0,L|336:192,1,79.9999999999999
256,192,110605,1,0,0:0:0:0:
176,192,110917,1,0,0:0:0:0:
160,64,111230,6,0,L|272:64,1,79.9999999999999
352,64,111855,2,0,L|464:64,1,79.9999999999999
464,144,112480,2,0,L|352:160,1,79.9999999999999
272,160,113105,1,0,0:0:0:0:
144,160,113417,1,0,0:0:0:0:
112,240,113730,6,0,L|208:240,1,79.9999999999999
288,240,114355,2,0,L|384:256,1,79.9999999999999
416,112,114980,2,0,L|304:112,1,79.9999999999999
240,96,115605,2,0,L|128:96,1,79.9999999999999
208,224,116230,5,0,0:0:0:0:
352,192,116542,1,0,0:0:0:0:
352,64,116855,1,0,0:0:0:0:
192,48,117167,1,0,0:0:0:0:
112,128,117480,1,0,0:0:0:0:
160,224,117792,1,0,0:0:0:0:
288,240,118105,1,0,0:0:0:0:
416,224,118417,1,0,0:0:0:0:
432,96,118730,2,0,L|304:96,1,120
144,64,119980,6,0,L|80:144,1,79.9999999999999
80,240,120605,2,0,L|176:304,1,79.9999999999999
288,272,121230,1,0,0:0:0:0:
368,192,121542,1,0,0:0:0:0:
336,64,121855,2,0,L|416:64,2,79.9999999999999
240,80,122792,1,0,0:0:0:0:
128,64,123105,2,0,L|112:160,1,79.9999999999999
384,256,123730,5,0,0:0:0:0:
464,288,124042,2,0,L|480:96,1,160
256,48,124980,1,0,0:0:0:0:
160,96,125292,2,0,L|96:256,1,160
256,272,126230,1,0,0:0:0:0:
305,173,126542,2,0,L|384:160,2,79.9999999999999
224,112,127480,1,0,0:0:0:0:
112,144,127792,1,0,0:0:0:0:
176,256,128105,2,0,L|240:272,2,59.9999999999999
256,192,129980,12,0,131855,0:0:0:0:
96,64,132480,6,0,L|192:80,1,79.9999999999999
336,80,133105,2,0,L|240:128,1,79.9999999999999
112,240,133730,1,0,0:0:0:0:
224,192,134042,1,0,0:0:0:0:
352,160,134355,1,0,0:0:0:0:
464,128,134667,1,0,0:0:0:0:
128,64,134980,6,0,L|368:80,1,240
384,208,136230,2,0,L|112:192,1,240
80,64,137480,5,0,0:0:0:0:
208,64,137792,1,0,0:0:0:0:
352,64,138105,1,0,0:0:0:0:
464,80,138417,1,0,0:0:0:0:
464,176,138730,2,0,L|352:176,1,79.9999999999999
272,176,139355,2,0,L|176:176,1,79.9999999999999
144,32,139980,6,0,L|128:272,1,240
272,304,141230,2,0,L|304:32,1,240
384,80,142480,6,0,L|336:80,3,40
400,176,143261,2,0,L|352:176,2,40
400,288,143886,2,0,L|352:288,2,40
256,288,144511,2,0,L|112:256,1,120
48,208,145292,1,0,0:0:0:0:
112,80,145605,2,0,L|208:64,1,79.9999999999999
272,64,146230,2,0,L|384:96,1,79.9999999999999
432,160,146855,2,0,L|416:272,1,79.9999999999999
256,192,147480,12,0,149980,0:0:0:0:
256,192,158105,12,0,159668,0:0:0:0:
384,256,159980,6,0,L|240:272,1,120
256,176,161230,1,0,0:0:0:0:
352,160,161542,1,0,0:0:0:0:
448,128,161855,2,0,L|448:240,1,79.9999999999999
432,288,162480,1,0,0:0:0:0:
288,192,163730,6,0,L|352:192,5,53.3333333333333
112,224,165292,2,0,L|112:96,1,120
192,64,166073,5,0,0:0:0:0:
208,64,166230,2,0,L|304:64,1,79.9999999999999
384,224,166855,2,0,L|288:224,1,79.9999999999999
176,208,167480,2,0,L|176:112,1,79.9999999999999
288,80,168105,1,0,0:0:0:0:
384,96,168417,1,0,0:0:0:0:
464,192,168730,1,0,0:0:0:0:
160,80,169980,6,0,L|240:80,1,79.9999999999999
320,80,170605,2,0,L|400:80,1,79.9999999999999
432,192,171230,2,0,L|336:192,1,79.9999999999999
256,192,171855,1,0,0:0:0:0:
176,192,172167,1,0,0:0:0:0:
160,64,172480,6,0,L|272:64,1,79.9999999999999
352,64,173105,2,0,L|464:64,1,79.9999999999999
464,144,173730,2,0,L|352:160,1,79.9999999999999
272,160,174355,1,0,0:0:0:0:
144,160,174667,1,0,0:0:0:0:
112,240,174980,6,0,L|208:240,1,79.9999999999999
288,240,175605,2,0,L|384:256,1,79.9999999999999
416,112,176230,2,0,L|304:112,1,79.9999999999999
240,96,176855,2,0,L|128:96,1,79.9999999999999
208,224,177480,5,0,0:0:0:0:
352,192,177792,1,0,0:0:0:0:
352,64,178105,1,0,0:0:0:0:
192,48,178417,1,0,0:0:0:0:
112,128,178730,1,0,0:0:0:0:
160,224,179042,1,0,0:0:0:0:
288,240,179355,1,0,0:0:0:0:
416,224,179667,1,0,0:0:0:0:
432,96,179980,2,0,L|304:96,1,120
176,32,180917,5,0,0:0:0:0:
160,48,181073,1,0,0:0:0:0:
144,64,181230,2,0,L|80:144,1,79.9999999999999
80,240,181855,2,0,L|176:304,1,79.9999999999999
288,272,182480,1,0,0:0:0:0:
368,192,182792,1,0,0:0:0:0:
336,64,183105,2,0,L|416:64,2,79.9999999999999
240,80,184042,1,0,0:0:0:0:
128,48,184355,2,0,L|64:128,1,79.9999999999999
192,208,184980,5,0,0:0:0:0:
224,224,185136,2,0,L|304:256,1,79.9999999999999
368,256,185605,2,0,L|432:256,2,59.9999999999999
128,64,186230,5,0,0:0:0:0:
128,112,186386,2,0,L|128:192,1,79.9999999999999
128,256,186855,2,0,L|128:320,2,59.9999999999999
256,304,187480,5,0,0:0:0:0:
304,304,187636,2,0,L|400:256,1,79.9999999999999
368,224,188105,2,0,L|352:128,1,79.9999999999999
288,32,188730,1,0,0:0:0:0:
160,96,189042,1,0,0:0:0:0:
192,272,189355,2,0,L|256:288,2,53.3333333333333
128,272,189980,2,0,L|96:128,1,120
352,272,191230,6,0,L|352:128,1,120
304,64,192167,2,0,L|240:80,2,40
416,48,192792,1,0,0:0:0:0:
448,144,193105,2,0,L|448:240,1,79.9999999999999
352,304,193730,1,0,0:0:0:0:
224,288,194042,1,0,0:0:0:0:
112,240,194355,2,0,L|112:128,1,79.9999999999999
144,64,194980,1,0,0:0:0:0:
368,144,195605,6,0,L|464:128,2,79.9999999999999
432,288,196542,1,0,0:0:0:0:
336,288,196855,2,0,L|224:288,1,79.9999999999999
64,272,197480,2,0,L|112:112,1,160
192,64,198730,6,0,L|304:96,1,79.9999999999999
384,80,199355,2,0,L|432:80,4,40
400,176,200448,2,0,L|320:288,1,120
304,288,201073,1,0,0:0:0:0:
272,304,201230,2,0,L|128:288,1,120
112,48,202167,5,0,0:0:0:0:
192,80,202480,2,0,L|336:112,1,120
384,32,203417,5,0,0:0:0:0:
416,112,203730,2,0,L|320:256,1,160
208,208,204667,1,0,0:0:0:0:
96,192,204980,1,0,0:0:0:0:
128,64,205605,6,0,L|288:64,1,160
384,64,206542,1,0,0:0:0:0:
432,176,206855,2,0,L|352:256,1,79.9999999999999
384,336,207480,2,0,L|272:336,1,79.9999999999999
176,336,208105,2,0,L|144:240,1,79.9999999999999
64,240,208730,2,0,L|32:160,1,79.9999999999999
96,64,209355,5,0,0:0:0:0:
160,80,209563,1,0,0:0:0:0:
224,96,209771,1,0,0:0:0:0:
272,112,209980,6,0,L|288:224,1,79.9999999999999
