osu file format v14

[General]
AudioFilename: 03 - 140to170.mp3
AudioLeadIn: 0
PreviewTime: 62471
Countdown: 0
SampleSet: Soft
StackLeniency: 0.7
Mode: 0
LetterboxInBreaks: 0
WidescreenStoryboard: 0

[Editor]
DistanceSpacing: 1.3
BeatDivisor: 4
GridSize: 4
TimelineZoom: 1.8

[Metadata]
Title:140 to 170
TitleUnicode:140 to 170
Artist:ETIA.
ArtistUnicode:ETIA.
Creator:Jemmmmy
Version:Hyper
Source:
Tags:Lilium Records Connect Control lightr
BeatmapID:647895
BeatmapSetID:273761

[Difficulty]
HPDrainRate:5
CircleSize:4
OverallDifficulty:7
ApproachRate:8
SliderMultiplier:1.5
SliderTickRate:1

[Events]
//Background and Video events
0,0,"Earth.jpg",0,0
//Break Periods
2,86667,91364
//Storyboard Layer 0 (Background)
//Storyboard Layer 1 (Fail)
//Storyboard Layer 2 (Pass)
//Storyboard Layer 3 (Foreground)
//Storyboard Sound Samples

[TimingPoints]
871,428.571428571429,4,2,0,60,1,0
871,-125,4,2,0,60,0,0
14585,-100,4,2,0,60,0,0
57442,447.761194029851,4,2,0,50,1,0
59233,454.545454545455,4,2,0,50,1,0
59687,470.588235294118,4,2,0,50,1,0
60157,491.803278688525,4,2,0,50,1,0
60648,540.540540540541,4,2,0,50,1,0
61188,612.244897959184,4,2,0,50,1,0
61800,666.666666666667,4,2,0,50,1,0
62466,707.547169811321,4,2,0,50,1,0
63173,352.941176470588,4,2,0,70,1,0
86467,352.941176470588,4,2,0,50,1,0
103408,-100,4,1,0,60,0,0
109055,-100,4,1,0,70,0,0
154231,-100,4,2,0,60,0,0

[Colours]
Combo1 : 175,175,175
Combo2 : 82,80,175
Combo3 : 192,192,50
Combo4 : 85,181,90

[HitObjects]
358,359,871,6,0,B|345:308|345:308|330:284,1,60,4|0,0:3|0:0,0:0:0:0:
396,255,1299,2,0,B|361:214|361:214|337:199,1,60,4|0,0:3|0:0,0:0:0:0:
391,148,1728,2,0,B|342:126|342:126|314:123,1,60,4|0,0:3|0:0,0:0:0:0:
332,54,2156,2,0,B|279:56|279:56|252:65,1,60,4|0,0:3|0:0,0:0:0:0:
216,114,2585,6,0,B|204:101|204:101|187:48,1,60,4|0,0:3|0:0,0:0:0:0:
144,149,3013,2,0,B|156:162|156:162|173:215,1,60,4|0,0:3|0:0,0:0:0:0:
115,267,3442,2,0,B|103:254|103:254|86:201,1,60,4|0,0:3|0:0,0:0:0:0:
43,302,3870,2,0,B|55:315|55:315|72:368,1,60,4|0,0:3|0:0,0:0:0:0:
151,354,4299,6,0,B|182:350|182:350|227:356,1,60,4|0,0:3|0:0,0:0:0:0:
204,281,4728,2,0,B|235:277|235:277|280:283,1,60,4|0,0:3|0:0,0:0:0:0:
282,350,5156,2,0,B|313:346|313:346|358:352,1,60,4|0,0:3|0:0,0:0:0:0:
335,277,5585,2,0,B|366:273|366:273|411:279,1,60,4|0,0:3|0:0,0:0:0:0:
464,313,6013,6,0,B|471:280|471:280|470:233,1,60,4|0,0:3|0:0,0:0:0:0:
421,147,6442,2,0,B|414:179|414:179|415:226,1,60,4|0,0:3|0:0,0:0:0:0:
335,277,6871,2,0,B|342:244|342:244|341:197,1,60,4|0,0:3|0:0,0:0:0:0:
293,111,7300,2,0,B|286:143|286:143|287:190,1,60,4|0,0:3|0:0,0:0:0:0:
248,241,7728,6,0,B|229:263|229:263|194:285,1,60,4|0,0:3|0:0,0:0:0:0:
182,210,8156,2,0,B|155:220|155:220|112:222,1,60,4|0,0:3|0:0,0:0:0:0:
139,151,8585,2,0,B|110:146|110:146|73:126,1,60,4|0,0:3|0:0,0:0:0:0:
133,78,9013,2,0,B|110:59|110:59|88:24,1,60,4|0,0:3|0:0,0:0:0:0:
207,47,9442,6,0,L|289:35,1,60,4|0,0:3|0:0,0:0:0:0:
262,124,9871,2,4,L|344:112,1,60,4|0,0:3|0:0,0:3:0:0:
349,30,10299,2,0,L|431:18,1,60,4|0,0:3|0:0,0:0:0:0:
404,107,10728,2,0,L|486:95,1,60,4|0,0:3|0:0,0:0:0:0:
464,180,11156,6,0,B|475:196|475:196|483:259,1,60,4|0,0:3|0:0,0:0:0:0:
394,215,11585,2,0,B|405:231|405:231|413:294,1,60,4|0,0:3|0:0,0:0:0:0:
322,249,12013,2,0,B|333:265|333:265|341:328,1,60,4|0,0:3|0:0,0:0:0:0:
252,284,12442,2,0,B|263:300|263:300|271:363,1,60,4|0,0:3|0:0,0:0:0:0:
166,323,12871,6,0,L|27:326,1,120,4|6,0:3|0:3,0:0:0:0:
7,243,13513,2,0,L|-2:217,4,15,2|2|2|2|2,0:0|0:0|0:0|0:0|0:0,0:0:0:0:
118,132,14156,2,0,L|129:68,1,60,2|0,0:0|0:0,0:0:0:0:
227,48,14585,6,0,B|271:45|271:45|319:51,1,75,4|0,0:3|0:0,0:0:0:0:
374,64,15013,1,4,0:3:0:0:
446,83,15228,1,0,0:0:0:0:
389,152,15442,1,4,0:3:0:0:
411,223,15656,1,0,0:0:0:0:
337,206,15871,1,4,0:3:0:0:
359,277,16085,1,0,0:0:0:0:
307,350,16299,6,0,B|292:368|292:368|214:385,1,75,4|0,0:3|0:0,0:0:0:0:
168,362,16728,1,4,0:3:0:0:
94,348,16942,1,0,0:0:0:0:
29,285,17156,2,0,B|44:267|44:267|122:250,1,75,4|0,0:3|0:0,0:0:0:0:
168,273,17585,1,4,0:3:0:0:
242,287,17799,1,0,0:0:0:0:
223,199,18013,6,0,L|218:106,1,75,4|0,0:3|0:0,0:0:0:0:
141,78,18442,2,0,L|145:152,1,75,4|0,0:3|0:0,0:0:0:0:
209,40,18871,1,4,0:3:0:0:
281,60,19085,1,0,0:0:0:0:
355,58,19299,1,4,0:3:0:0:
425,33,19513,1,0,0:0:0:0:
464,113,19728,6,0,L|475:205,1,75,4|0,0:3|0:0,0:0:0:0:
383,189,20156,1,4,0:3:0:0:
372,278,20371,1,0,0:0:0:0:
284,257,20585,1,4,0:3:0:0:
195,272,20799,1,0,0:0:0:0:
131,335,21013,2,0,L|33:343,1,75,4|0,0:3|0:0,0:0:0:0:
13,261,21442,6,0,B|5:239|5:239|3:171,1,75,4|0,0:3|0:0,0:0:0:0:
50,110,21871,1,4,0:3:0:0:
94,49,22085,1,0,0:0:0:0:
138,127,22299,1,4,0:3:0:0:
153,200,22513,1,0,0:0:0:0:
212,154,22728,1,4,0:3:0:0:
227,227,22942,1,0,0:0:0:0:
182,305,23156,6,0,B|227:323|227:323|267:321,1,75,4|0,0:3|0:0,0:0:0:0:
319,357,23585,2,0,B|364:375|364:375|404:373,1,75,4|0,0:3|0:0,0:0:0:0:
431,310,24013,2,0,L|452:234,1,75,4|0,0:3|0:0,0:0:0:0:
403,179,24442,2,0,L|424:103,1,75,4|0,0:3|0:0,0:0:0:0:
373,49,24871,6,0,L|387:-3,2,37.5,2|2|2,0:3|0:3|0:3,0:0:0:0:
303,75,25299,1,2,0:3:0:0:
303,75,25406,2,0,L|204:79,1,75,2|2,0:3|0:3,0:0:0:0:
196,99,25728,1,2,0:3:0:0:
180,110,25835,1,2,0:3:0:0:
164,119,25942,1,2,0:3:0:0:
149,130,26049,1,2,0:3:0:0:
133,140,26156,2,0,L|109:159,4,18.75
137,212,26478,1,2,0:0:0:0:
137,212,26585,5,4,0:3:0:0:
256,192,26799,12,0,27871,0:0:0:0:
92,119,28299,5,4,0:3:0:0:
397,48,28728,1,4,0:3:0:0:
92,119,29156,1,4,0:3:0:0:
397,48,29585,2,0,L|434:132,1,75,6|0,0:3|0:0,0:0:0:0:
445,308,30013,5,4,0:3:0:0:
152,280,30442,1,4,0:3:0:0:
303,77,30871,1,4,0:3:0:0:
278,375,31299,2,0,B|291:339|291:339|297:292,2,50,2|2|2,0:0|0:0|0:0,0:0:0:0:
144,339,31728,5,4,0:3:0:0:
86,62,32156,1,4,0:3:0:0:
368,339,32585,1,4,0:3:0:0:
426,62,33013,1,4,0:3:0:0:
369,133,33228,5,0,0:0:0:0:
284,103,33442,1,4,0:3:0:0:
295,207,33656,5,0,0:0:0:0:
210,177,33870,1,4,0:3:0:0:
211,282,34085,5,0,0:0:0:0:
126,252,34299,1,4,0:3:0:0:
137,356,34513,5,0,0:0:0:0:
52,326,34727,1,4,0:3:0:0:
34,237,34942,1,0,0:0:0:0:
19,148,35156,5,4,0:3:0:0:
256,51,35585,1,4,0:3:0:0:
493,148,36013,1,4,0:3:0:0:
256,244,36442,2,0,L|256:165,1,75,6|0,0:3|0:0,0:0:0:0:
169,294,36871,5,4,0:3:0:0:
444,352,37299,1,4,0:3:0:0:
444,32,37728,1,4,0:3:0:0:
169,90,38156,2,0,L|131:169,1,75,6|0,0:3|0:0,0:0:0:0:
29,190,38585,5,4,0:3:0:0:
204,356,39013,1,4,0:3:0:0:
29,190,39442,1,4,0:3:0:0:
39,93,39656,1,0,0:0:0:0:
114,30,39871,1,0,0:0:0:0:
211,22,40085,1,0,0:0:0:0:
284,86,40299,6,0,P|314:39|317:14,1,75,6|0,0:3|0:0,0:0:0:0:
362,220,40728,2,6,P|409:250|434:253,1,75,6|6,0:3|0:3,0:3:0:0:
227,298,41156,2,0,P|198:345|195:370,1,75,6|0,0:3|0:0,0:0:0:0:
150,164,41585,1,2,0:3:0:0:
150,164,41692,1,2,0:3:0:0:
150,164,41799,1,2,0:3:0:0:
150,164,41906,1,2,0:3:0:0:
150,164,42013,6,0,L|166:249,1,75,4|0,0:3|0:0,0:0:0:0:
274,275,42442,2,0,L|260:201,1,75,4|0,0:3|0:0,0:0:0:0:
381,244,42871,2,0,L|397:329,1,75,4|0,0:3|0:0,0:0:0:0:
359,141,43299,2,0,B|352:89|352:89|358:61,1,75,4|0,0:3|0:0,0:0:0:0:
258,32,43728,6,0,B|237:47|237:47|166:57,1,75,4|0,0:3|0:0,0:0:0:0:
44,100,44156,2,0,B|65:115|65:115|136:125,1,75,4|0,0:3|0:0,0:0:0:0:
253,163,44585,2,0,B|232:178|232:178|161:188,1,75,4|0,0:3|0:0,0:0:0:0:
74,260,45013,2,0,B|66:232|66:232|62:195,2,50,4|2|2,0:3|0:0|0:0,0:0:0:0:
133,324,45442,6,0,L|222:332,1,75,4|0,0:3|0:0,0:0:0:0:
296,256,45871,2,0,L|385:264,1,75,4|0,0:3|0:0,0:0:0:0:
214,145,46299,2,0,L|303:153,1,75,4|0,0:3|0:0,0:0:0:0:
403,75,46728,1,4,0:3:0:0:
485,129,46942,5,0,0:0:0:0:
499,217,47156,1,4,0:3:0:0:
399,181,47371,5,0,0:0:0:0:
413,269,47585,1,4,0:3:0:0:
312,240,47799,5,0,0:0:0:0:
326,328,48013,1,4,0:3:0:0:
226,293,48228,5,0,0:0:0:0:
240,381,48442,1,4,0:3:0:0:
135,368,48656,1,0,0:0:0:0:
30,352,48871,6,0,L|23:267,1,75,4|0,0:3|0:0,0:0:0:0:
137,215,49299,2,0,L|88:144,1,75,4|0,0:3|0:0,0:0:0:0:
204,56,49728,2,0,L|126:19,1,75,4|0,0:3|0:0,0:0:0:0:
335,25,50156,2,0,L|421:19,1,75,4|0,0:3|0:0,0:0:0:0:
417,130,50585,6,0,B|439:135|439:135|477:206,1,75,4|0,0:3|0:0,0:0:0:0:
346,236,51013,2,0,B|362:251|362:251|359:331,1,75,4|0,0:3|0:0,0:0:0:0:
232,308,51442,2,0,B|238:329|238:329|196:397,1,75,4|0,0:3|0:0,0:0:0:0:
90,314,51871,2,0,P|52:287|38:254,1,75,4|0,0:3|0:0,0:0:0:0:
279,111,52299,6,0,B|334:163|334:163|349:264,1,150,4|4,0:3|0:3,0:0:0:0:
347,266,52835,1,2,0:3:0:0:
351,295,52942,1,2,0:3:0:0:
354,324,53049,1,2,0:3:0:0:
356,353,53156,6,0,L|446:331,1,75,6|0,0:3|0:0,0:0:0:0:
263,319,53478,2,0,L|200:366,1,75,6|0,0:3|0:0,0:0:0:0:
268,222,53799,1,6,0:3:0:0:
376,109,54013,6,0,L|402:152,2,37.5,2|2|2,0:3|0:3|0:3,0:0:0:0:
288,39,54442,1,2,0:3:0:0:
288,39,54549,2,0,L|200:50,1,75,2|2,0:3|0:3,0:0:0:0:
190,68,54871,1,2,0:3:0:0:
170,90,54978,1,2,0:3:0:0:
151,113,55085,1,2,0:3:0:0:
131,136,55192,1,2,0:3:0:0:
112,159,55299,2,0,L|93:185,4,18.75
130,231,55621,1,2,0:3:0:0:
130,231,55728,5,4,0:3:0:0:
256,192,55835,12,4,63173,0:3:0:0:
327,82,63878,6,0,P|389:53|370:174,1,262.5,2|0,0:3|0:0,0:0:0:0:
294,163,64584,5,4,0:3:0:0:
212,124,64761,1,0,0:0:0:0:
122,124,64937,2,0,L|100:68,1,37.5
49,173,65114,2,0,L|5:125,1,37.5
127,209,65290,2,0,L|129:311,2,75,4|0|4,0:3|0:0|0:3,0:0:0:0:
204,334,65820,1,0,0:0:0:0:
204,334,65996,6,0,P|264:320|367:340,1,150,4|4,0:3|0:3,0:0:0:0:
376,316,66437,1,4,0:3:0:0:
401,299,66525,1,4,0:3:0:0:
427,283,66614,1,4,0:3:0:0:
451,266,66702,2,0,L|461:191,1,75,4|0,0:3|0:0,0:0:0:0:
414,20,67055,2,0,L|404:95,1,75,4|0,0:3|0:0,0:0:0:0:
295,121,67408,6,0,B|265:125|265:125|234:132|234:132|190:122,2,75,6|0|0,0:3|0:0|0:0,0:0:0:0:
323,204,67937,1,4,0:3:0:0:
301,283,68114,2,0,L|153:325,1,150,4|8,0:3|0:3,0:0:0:0:
38,346,68643,2,0,L|75:196,1,150,4|8,0:3|0:3,0:0:0:0:
110,84,69173,1,4,0:3:0:0:
110,84,69261,1,4,0:3:0:0:
110,84,69349,1,4,0:3:0:0:
190,35,69525,6,0,P|246:15|426:47,1,225,4|0,0:3|0:0,0:0:0:0:
441,129,70231,6,0,P|491:98|505:76,2,50,4|0|0,0:3|0:0|0:0,0:0:0:0:
409,215,70584,2,0,P|467:213|490:201,2,50
321,179,70937,2,0,P|296:175|271:178,2,50,4|0|0,0:3|0:0|0:0,0:0:0:0:
289,265,71290,2,0,P|265:274|245:288,2,50,4|0|0,0:3|0:0|0:0,0:0:0:0:
313,356,71643,6,0,P|240:379|158:341,1,150,2|4,0:3|0:3,0:0:0:0:
133,316,72114,1,0,0:0:0:0:
97,274,72231,1,0,0:0:0:0:
62,230,72349,6,0,L|45:152,1,75,4|0,0:3|0:0,0:0:0:0:
228,240,72702,2,0,L|236:164,1,75,4|0,0:3|0:0,0:0:0:0:
148,72,73055,1,4,0:3:0:0:
236,32,73231,1,8,0:3:0:0:
332,28,73408,1,0,0:0:0:0:
424,56,73584,2,0,B|464:160|464:160|472:256|472:256|432:232,1,225,4|8,0:3|0:3,0:0:0:0:
340,184,74290,6,0,B|321:173|321:173|333:306,1,150,4|8,0:3|0:3,0:0:0:0:
240,352,74820,1,4,0:3:0:0:
240,352,74908,1,4,0:3:0:0:
240,352,74996,1,4,0:3:0:0:
240,352,75084,1,4,0:3:0:0:
84,316,75878,5,4,0:3:0:0:
52,240,76055,1,0,0:0:0:0:
48,156,76231,2,0,L|12:144,1,37.5
78,77,76408,2,0,L|46:45,1,37.5
133,144,76584,6,0,B|172:152|172:152|231:139,2,75,4|0|4,0:3|0:0|0:3,0:0:0:0:
213,61,77114,1,0,0:0:0:0:
291,96,77290,2,0,L|313:268,1,150,8|4,0:3|0:3,0:0:0:0:
335,261,77731,1,4,0:3:0:0:
360,276,77820,1,4,0:3:0:0:
385,291,77908,1,4,0:3:0:0:
411,304,77996,6,0,L|424:380,1,75,4|0,0:3|0:0,0:0:0:0:
469,144,78349,2,0,L|480:220,1,75,4|0,0:3|0:0,0:0:0:0:
337,45,78702,1,4,0:3:0:0:
241,27,78878,1,0,0:0:0:0:
144,45,79055,1,0,0:0:0:0:
73,111,79231,1,4,0:3:0:0:
47,205,79408,6,0,B|38:320|38:320|88:272,1,150,4|0,0:3|0:3,0:0:0:0:
149,232,79937,2,0,B|223:212|223:212|320:240,1,150,4|8,0:3|0:3,0:0:0:0:
379,322,80467,1,4,0:3:0:0:
379,322,80555,1,4,0:3:0:0:
379,322,80643,1,4,0:3:0:0:
459,259,80820,2,0,P|496:171|460:34,1,225,4|0,0:3|0:0,0:0:0:0:
318,13,81525,6,0,L|255:6,2,50,4|0|0,0:3|0:0|0:0,0:0:0:0:
292,110,81878,2,0,L|337:136,2,50
209,162,82231,2,0,L|146:155,2,50,4|0|0,0:3|0:0|0:0,0:0:0:0:
173,257,82584,2,0,L|218:283,2,50,4|0|0,0:3|0:0|0:0,0:0:0:0:
78,319,82937,6,0,P|41:262|34:152,1,150,8|4,0:3|0:3,0:0:0:0:
41,127,83408,1,0,0:0:0:0:
63,77,83525,1,0,0:0:0:0:
69,22,83643,6,0,L|231:8,1,150,4|4,0:3|0:3,0:0:0:0:
245,23,84084,1,4,0:3:0:0:
270,39,84172,1,4,0:3:0:0:
294,56,84261,1,4,0:3:0:0:
317,74,84349,2,0,L|391:62,1,75,6|0,0:3|0:0,0:0:0:0:
243,144,84614,2,0,L|169:156,1,75,6|0,0:3|0:0,0:0:0:0:
338,173,84878,1,6,0:3:0:0:
388,290,85055,6,0,P|438:258|458:156,1,150,4|8,0:3|0:3,0:0:0:0:
292,288,85584,2,0,B|179:288|179:288|81:337|81:337|6:299,1,300,4|0,0:3|0:0,0:0:0:0:
87,219,86467,5,4,0:3:0:0:
135,70,92114,5,0,0:0:0:0:
80,276,92467,1,0,0:0:0:0:
135,70,92819,1,0,0:0:0:0:
80,276,93172,1,0,0:0:0:0:
377,70,93525,5,0,0:0:0:0:
432,276,93878,1,0,0:0:0:0:
377,70,94230,1,0,0:0:0:0:
432,276,94583,1,0,0:0:0:0:
256,348,94937,5,0,0:0:0:0:
256,120,95290,1,0,0:0:0:0:
188,244,95643,5,0,0:0:0:0:
324,244,95908,1,0,0:0:0:0:
256,348,96172,1,0,0:0:0:0:
256,348,96349,6,0,L|176:364,1,75,2|0,0:0|0:0,0:0:0:0:
107,371,96702,1,2,0:0:0:0:
66,307,96878,1,2,0:0:0:0:
31,240,97055,2,0,L|59:120,1,112.5,2|2,0:0|0:0,0:0:0:0:
67,94,97408,1,2,0:0:0:0:
135,124,97584,1,2,0:0:0:0:
204,95,97761,5,2,0:0:0:0:
353,140,98114,1,0,0:0:0:0:
308,289,98467,1,0,0:0:0:0:
159,244,98820,1,0,0:0:0:0:
259,81,99172,5,2,0:0:0:0:
366,195,99525,1,0,0:0:0:0:
252,302,99878,1,0,0:0:0:0:
145,188,100231,1,0,0:0:0:0:
314,98,100584,5,2,0:0:0:0:
349,250,100937,1,0,0:0:0:0:
197,285,101290,1,0,0:0:0:0:
162,133,101643,1,0,0:0:0:0:
353,140,101996,5,2,0:0:0:0:
308,289,102349,1,0,0:0:0:0:
159,244,102702,1,0,0:0:0:0:
204,95,103055,1,0,0:0:0:0:
401,241,103408,6,0,B|407:276|407:276|408:334,1,75,4|0,0:3|0:0,0:0:0:0:
298,185,103761,2,0,B|292:220|292:220|291:278,1,75,4|0,0:3|0:0,0:0:0:0:
469,92,104114,2,0,B|475:127|475:127|476:185,1,75,4|0,0:3|0:0,0:0:0:0:
366,36,104467,2,0,B|360:71|360:71|359:129,1,75,4|0,0:3|0:0,0:0:0:0:
222,52,104819,6,0,L|147:43,1,75,4|0,0:3|0:0,0:0:0:0:
44,136,105172,2,0,L|142:120,1,75,4|0,0:3|0:0,0:0:0:0:
168,207,105525,2,0,P|155:258|160:303,1,75,4|0,0:3|0:0,0:0:0:0:
356,280,105878,2,0,P|355:242|344:207,1,75,4|0,0:3|0:0,0:0:0:0:
256,316,106231,6,0,L|256:360,2,37.5,2|2|2,0:3|0:3|0:3,0:0:0:0:
256,208,106584,1,2,0:3:0:0:
256,188,106672,1,2,0:3:0:0:
256,168,106761,1,2,0:3:0:0:
256,148,106849,1,2,0:3:0:0:
256,128,106937,2,0,L|256:72,3,37.5,2|2|2|2,0:3|0:3|0:3|0:3,0:0:0:0:
336,72,107290,6,0,L|336:40,4,18.75
412,112,107555,1,2,0:3:0:0:
412,112,107643,6,0,L|444:264,1,150,2|0,0:0|0:0,0:0:0:0:
308,252,108349,2,0,L|284:388,1,112.5
258,381,108702,1,0,0:0:0:0:
140,320,109055,5,4,0:3:0:0:
140,64,109319,1,4,0:3:0:0:
372,64,109584,1,4,0:3:0:0:
88,192,109849,1,4,0:3:0:0:
372,320,110114,2,0,L|428:248,1,75,6|0,0:3|0:0,0:0:0:0:
468,124,110466,5,4,0:3:0:0:
256,176,110731,1,4,0:3:0:0:
44,124,110996,1,4,0:3:0:0:
256,312,111261,1,4,0:3:0:0:
256,56,111525,2,0,B|244:32|244:32|224:8,2,50,2|0|0,0:3|0:0|0:0,0:0:0:0:
169,87,111878,5,4,0:3:0:0:
343,297,112143,1,4,0:3:0:0:
354,63,112408,1,4,0:3:0:0:
158,321,112672,1,4,0:3:0:0:
44,120,112937,2,0,L|30:213,1,75,4|0,0:3|0:0,0:0:0:0:
116,176,113290,1,4,0:3:0:0:
149,259,113466,5,0,0:0:0:0:
233,223,113643,2,0,L|275:307,1,75,4|0,0:3|0:0,0:0:0:0:
359,266,113995,1,4,0:3:0:0:
399,346,114172,5,0,0:0:0:0:
483,310,114349,2,0,L|491:208,1,75,4|0,0:3|0:0,0:0:0:0:
382,135,114702,5,4,0:3:0:0:
129,135,114966,1,4,0:3:0:0:
333,282,115231,1,4,0:3:0:0:
256,44,115495,1,4,0:3:0:0:
177,282,115761,2,0,L|151:358,1,75,6|0,0:3|0:0,0:0:0:0:
256,339,116114,5,4,0:3:0:0:
333,100,116378,1,4,0:3:0:0:
129,248,116643,1,4,0:3:0:0:
382,248,116907,1,4,0:3:0:0:
177,100,117173,2,0,L|97:78,1,75,4|0,0:3|0:0,0:0:0:0:
258,22,117525,6,0,B|332:9|332:9|429:31,1,150,4|4,0:3|0:3,0:0:0:0:
505,257,118231,1,4,0:3:0:0:
427,285,118408,1,0,0:0:0:0:
344,283,118584,1,4,0:3:0:0:
273,240,118761,1,0,0:0:0:0:
238,165,118937,6,0,B|209:190|209:190|183:230,1,75,4|0,0:3|0:0,0:0:0:0:
141,342,119290,2,0,B|133:304|133:304|112:261,1,75,4|0,0:3|0:0,0:0:0:0:
37,167,119643,2,0,B|73:179|73:179|120:182,1,75,4|0,0:3|0:0,0:0:0:0:
256,72,119996,2,0,L|240:105,3,37.5,4|4|4|4,0:3|0:3|0:3|0:3,0:0:0:0:
321,112,120349,5,4,0:3:0:0:
421,300,120614,1,4,0:3:0:0:
191,112,120878,1,4,0:3:0:0:
91,300,121143,1,4,0:3:0:0:
256,167,121408,2,0,L|257:251,1,75,6|0,0:3|0:0,0:0:0:0:
126,157,121761,5,4,0:3:0:0:
386,157,122025,1,4,0:3:0:0:
101,227,122290,1,4,0:3:0:0:
411,227,122554,1,4,0:3:0:0:
255,342,122819,2,0,L|256:277,2,50,2|0|0,0:3|0:0|0:0,0:0:0:0:
161,314,123172,5,4,0:3:0:0:
351,70,123437,1,4,0:3:0:0:
134,97,123702,1,4,0:3:0:0:
378,287,123967,1,4,0:3:0:0:
85,250,124231,2,0,L|26:176,1,75,4|0,0:3|0:0,0:0:0:0:
84,99,124584,1,4,0:3:0:0:
136,172,124761,5,0,0:0:0:0:
184,93,124937,2,0,L|238:161,1,75,4|0,0:3|0:0,0:0:0:0:
283,88,125290,1,4,0:3:0:0:
335,161,125467,5,0,0:0:0:0:
383,82,125643,2,0,L|482:74,1,75,4|0,0:3|0:0,0:0:0:0:
471,208,125996,5,4,0:3:0:0:
256,351,126261,1,4,0:3:0:0:
41,208,126525,1,4,0:3:0:0:
145,373,126790,1,4,0:3:0:0:
367,373,127055,2,0,L|372:288,1,75,6|0,0:3|0:0,0:0:0:0:
377,152,127408,5,4,0:3:0:0:
180,295,127672,1,4,0:3:0:0:
256,64,127937,1,4,0:3:0:0:
330,295,128202,1,4,0:3:0:0:
134,152,128466,2,0,B|93:165|93:165|58:202,1,75,4|0,0:3|0:0,0:0:0:0:
84,383,128819,6,0,B|117:351|117:351|135:240,1,150,4|4,0:3|0:3,0:0:0:0:
209,40,129525,2,0,L|235:124,1,75,4|0,0:3|0:0,0:0:0:0:
298,51,129790,2,0,L|324:135,1,75,4|0,0:3|0:0,0:0:0:0:
382,64,130055,1,4,0:3:0:0:
450,187,130231,6,0,L|463:140,2,37.5,2|2|2,0:3|0:3|0:3,0:0:0:0:
417,274,130584,1,2,0:3:0:0:
400,287,130672,2,0,P|367:280|309:295,1,75,2|2,0:3|0:3,0:0:0:0:
255,322,130937,2,2,L|231:278,3,37.5,2|2|2|2,0:3|0:3|0:3|0:3,0:3:0:0:
174,343,131290,6,0,L|147:328,4,18.75
94,360,131555,1,2,0:3:0:0:
94,360,131643,5,4,0:3:0:0:
39,188,131996,1,4,0:3:0:0:
135,35,132349,1,4,0:3:0:0:
190,207,132702,1,4,0:3:0:0:
418,360,133055,5,4,0:3:0:0:
473,188,133408,1,4,0:3:0:0:
377,35,133761,1,4,0:3:0:0:
322,207,134114,1,4,0:3:0:0:
120,260,134466,5,4,0:3:0:0:
392,260,134819,1,4,0:3:0:0:
120,260,135172,1,4,0:3:0:0:
392,260,135525,1,4,0:3:0:0:
322,207,135702,1,4,0:3:0:0:
404,172,135878,6,0,L|407:94,1,75,6|0,0:3|0:0,0:0:0:0:
276,340,136231,2,0,L|354:343,1,75,6|0,0:3|0:0,0:0:0:0:
108,212,136584,2,0,L|105:290,1,75,6|0,0:3|0:0,0:0:0:0:
236,44,136937,2,0,L|158:41,1,75,6|0,0:3|0:0,0:0:0:0:
313,116,137290,5,4,0:3:0:0:
69,100,137643,1,4,0:3:0:0:
199,268,137996,1,4,0:3:0:0:
443,284,138349,1,4,0:3:0:0:
435,154,138702,5,4,0:3:0:0:
77,230,139055,1,4,0:3:0:0:
284,336,139408,2,0,P|308:276|302:234,1,75,4|0,0:3|0:0,0:0:0:0:
228,48,139761,2,0,P|204:108|210:150,1,75,4|0,0:3|0:0,0:0:0:0:
310,115,140114,5,4,0:3:0:0:
202,269,140466,1,4,0:3:0:0:
125,87,140819,1,4,0:3:0:0:
387,297,141172,1,4,0:3:0:0:
310,328,141349,1,4,0:3:0:0:
231,352,141525,6,0,L|132:343,1,75,6|6,0:3|0:3,0:0:0:0:
18,301,141878,2,0,L|121:279,1,75,6|0,0:3|0:0,0:0:0:0:
182,231,142231,1,6,0:3:0:0:
87,151,142496,1,4,0:3:0:0:
87,151,142584,2,0,B|91:103|91:103|116:52,1,75,4|0,0:3|0:0,0:0:0:0:
186,133,142937,6,0,P|333:182|484:119,1,300,0|4,0:0|0:3,0:0:0:0:
475,298,143996,1,4,0:3:0:0:
325,49,144349,2,0,L|232:24,1,75,4|0,0:3|0:0,0:0:0:0:
186,131,144702,2,0,L|93:106,1,75,4|0,0:3|0:0,0:0:0:0:
47,208,145055,1,4,0:3:0:0:
24,294,145231,1,0,0:0:0:0:
48,380,145408,2,0,L|0:367,2,50,6|2|2,0:3|0:0|0:0,0:0:0:0:
131,334,145761,6,0,P|208:322|298:340,1,150,4|6,0:3|0:3,0:0:0:0:
453,288,146466,1,2,0:3:0:0:
483,219,146643,2,0,B|490:103|490:103|478:51,1,150,4|0,0:3|0:0,0:0:0:0:
385,90,147172,6,0,L|364:18,1,75,4|0,0:3|0:0,0:0:0:0:
290,144,147525,2,0,L|277:231,1,75,4|0,0:3|0:0,0:0:0:0:
193,199,147878,2,0,L|180:286,1,75,4|0,0:3|0:0,0:0:0:0:
82,189,148231,2,0,L|64:136,2,50,4|2|2,0:3|0:0|0:0,0:0:0:0:
78,288,148584,5,4,0:3:0:0:
160,14,148937,1,4,0:3:0:0:
363,214,149290,2,0,B|400:188|400:188|484:168,2,112.5,4|4|4,0:3|0:3|0:3,0:0:0:0:
298,281,149996,2,0,L|216:303,1,75,4|0,0:3|0:0,0:0:0:0:
147,262,150349,1,4,0:3:0:0:
128,260,150437,1,4,0:3:0:0:
109,258,150525,1,4,0:3:0:0:
90,256,150614,1,4,0:3:0:0:
71,254,150702,2,0,B|44:209|44:209|32:146,2,112.5,6|6|6,0:3|0:3|0:3,0:0:0:0:
152,134,151408,6,0,L|171:49,1,75,4|2,0:3|0:3,0:0:0:0:
326,51,151761,2,0,L|289:104,1,37.5,2|2,0:3|0:3,0:0:0:0:
441,148,152025,1,0,0:3:0:0:
441,148,152114,2,0,L|453:92,3,37.5,2|2|2|2,0:3|0:3|0:3|0:3,0:0:0:0:
459,228,152466,6,0,L|491:220,4,18.75
428,300,152731,1,2,0:3:0:0:
428,300,152819,6,0,B|351:311|351:311|304:373,1,150,4|4,0:3|0:3,0:0:0:0:
84,300,153525,2,0,B|161:311|161:311|208:373,1,150,4|4,0:3|0:3,0:0:0:0:
100,176,154231,6,0,L|73:94,1,75,4|0,0:3|0:0,0:0:0:0:
186,129,154584,2,0,L|203:44,1,75,4|0,0:3|0:0,0:0:0:0:
285,129,154937,2,0,L|342:64,1,75,4|0,0:3|0:0,0:0:0:0:
368,179,155290,2,0,L|449:152,1,75,4|0,0:3|0:0,0:0:0:0:
409,265,155643,6,0,L|429:369,1,75,4|0,0:3|0:0,0:0:0:0:
228,300,155996,2,0,L|208:404,1,75,4|0,0:3|0:0,0:0:0:0:
312,253,156349,2,0,L|332:357,1,75,4|0,0:3|0:0,0:0:0:0:
131,288,156702,2,0,L|111:392,1,75,4|0,0:3|0:0,0:0:0:0:
20,147,157055,6,0,P|78:120|119:122,1,75,4|0,0:3|0:0,0:0:0:0:
257,101,157408,2,0,P|199:127|158:125,1,75,4|0,0:3|0:0,0:0:0:0:
88,18,157761,2,0,P|148:39|175:70,1,75,4|0,0:3|0:0,0:0:0:0:
189,225,158114,2,0,P|128:203|101:172,1,75,4|0,0:3|0:0,0:0:0:0:
303,209,158466,6,0,L|316:292,1,75,4|0,0:3|0:0,0:0:0:0:
458,145,158819,2,0,L|446:223,1,75,4|0,0:3|0:0,0:0:0:0:
379,82,159172,1,4,0:3:0:0:
379,82,159349,1,0,0:0:0:0:
301,53,159525,1,4,0:3:0:0:
301,53,159702,1,0,0:0:0:0:
218,47,159878,6,0,L|118:44,1,75,4|0,0:3|0:0,0:0:0:0:
160,130,160231,2,0,L|239:165,1,75,4|0,0:3|0:0,0:0:0:0:
149,233,160584,2,0,L|49:230,1,75,4|0,0:3|0:0,0:0:0:0:
91,316,160937,2,0,L|170:351,1,75,4|0,0:3|0:0,0:0:0:0:
258,294,161290,6,0,P|304:288|349:297,1,75,4|0,0:3|0:0,0:0:0:0:
401,320,161643,1,4,0:3:0:0:
468,287,161819,1,0,0:0:0:0:
440,217,161996,2,0,P|419:161|423:127,1,75,4|0,0:3|0:0,0:0:0:0:
430,72,162349,1,4,0:3:0:0:
368,29,162525,1,0,0:0:0:0:
293,36,162702,6,0,P|251:61|227:95,1,75,4|0,0:3|0:0,0:0:0:0:
165,51,163055,2,0,P|142:93|137:135,1,75,4|0,0:3|0:0,0:0:0:0:
62,123,163408,2,0,P|63:171|80:209,1,75,4|0,0:3|0:0,0:0:0:0:
11,241,163761,2,0,P|36:282|70:307,1,75,4|0,0:3|0:0,0:0:0:0:
198,380,164114,6,0,L|253:302,1,75,4|0,0:3|0:0,0:0:0:0:
181,273,164466,1,4,0:3:0:0:
160,200,164643,1,0,0:0:0:0:
140,127,164819,2,0,L|263:65,1,112.5,4|2,0:3|0:3,0:0:0:0:
276,88,165172,2,0,P|320:94|374:79,1,75,4|0,0:3|0:0,0:0:0:0:
462,53,165525,6,0,L|474:127,1,75,4|0,0:3|0:0,0:0:0:0:
377,234,165878,2,0,L|389:159,1,75,4|0,0:3|0:0,0:0:0:0:
433,321,166231,2,0,P|378:336|339:330,1,75,4|0,0:3|0:0,0:0:0:0:
181,344,166584,2,0,P|236:329|275:335,1,75,4|0,0:3|0:0,0:0:0:0:
45,283,166937,5,4,0:3:0:0:
101,333,167114,1,0,0:0:0:0:
122,261,167290,2,0,L|126:173,1,75,4|0,0:3|0:0,0:0:0:0:
25,75,167643,1,4,0:3:0:0:
55,143,167819,1,0,0:0:0:0:
101,84,167996,2,0,P|142:66|182:58,1,75,4|0,0:3|0:0,0:0:0:0:
271,102,168349,6,0,P|280:56|276:24,1,75,4|0,0:3|0:0,0:0:0:0:
397,104,168702,2,0,P|387:150|392:182,1,75,4|0,0:3|0:0,0:0:0:0:
470,248,169055,1,4,0:3:0:0:
403,281,169231,1,0,0:0:0:0:
337,318,169408,1,4,0:3:0:0:
269,351,169584,1,0,0:0:0:0:
275,276,169761,6,0,B|273:239|273:239|259:200,1,75,4|0,0:3|0:0,0:0:0:0:
334,146,170114,2,0,B|306:121|306:121|268:103,1,75,4|0,0:3|0:0,0:0:0:0:
158,228,170466,2,0,B|160:191|160:191|174:152,1,75,4|0,0:3|0:0,0:0:0:0:
99,98,170819,2,0,B|126:73|126:73|164:55,1,75,4|0,0:3|0:0,0:0:0:0:
342,43,171172,6,0,L|262:12,1,75,4|0,0:3|0:0,0:0:0:0:
164,147,171525,2,0,L|233:174,1,75,4|0,0:3|0:0,0:0:0:0:
281,107,171878,2,0,L|201:76,1,75,4|0,0:3|0:0,0:0:0:0:
103,211,172231,2,0,L|172:238,1,75,4|0,0:3|0:0,0:0:0:0:
96,314,172584,5,4,0:3:0:0:
137,376,172761,1,0,0:0:0:0:
203,341,172937,2,0,L|290:332,1,75,4|0,0:3|0:0,0:0:0:0:
391,358,173290,1,4,0:3:0:0:
450,313,173466,1,0,0:0:0:0:
407,250,173643,2,0,L|398:154,1,75,4|0,0:3|0:0,0:0:0:0:
342,94,173996,6,0,B|384:80|384:80|424:80,1,75,4|0,0:3|0:0,0:0:0:0:
223,36,174349,2,0,B|262:38|262:38|301:23,1,75,4|0,0:3|0:0,0:0:0:0:
166,141,174702,2,0,B|208:127|208:127|248:127,1,75,4|0,0:3|0:0,0:0:0:0:
47,83,175055,2,0,B|86:85|86:85|125:70,1,75,4|0,0:3|0:0,0:0:0:0:
52,221,175408,6,0,L|57:383,3,150
86,150,176819,5,0,0:0:0:0:
