osu file format v14

[General]
AudioFilename: 03 - 140to170.mp3
AudioLeadIn: 0
PreviewTime: 62471
Countdown: 0
SampleSet: Soft
StackLeniency: 0.7
Mode: 0
LetterboxInBreaks: 0
WidescreenStoryboard: 0

[Editor]
DistanceSpacing: 1.3
BeatDivisor: 2
GridSize: 4
TimelineZoom: 1.3

[Metadata]
Title:140 to 170
TitleUnicode:140 to 170
Artist:ETIA.
ArtistUnicode:ETIA.
Creator:Jemmmmy
Version:Hard
Source:
Tags:Lilium Records Connect Control lightr
BeatmapID:635065
BeatmapSetID:273761

[Difficulty]
HPDrainRate:5
CircleSize:3.6
OverallDifficulty:6
ApproachRate:6.5
SliderMultiplier:1.3
SliderTickRate:1

[Events]
//Background and Video events
0,0,"Earth.jpg",0,0
//Break Periods
2,86667,96786
//Storyboard Layer 0 (Background)
//Storyboard Layer 1 (Fail)
//Storyboard Layer 2 (Pass)
//Storyboard Layer 3 (Foreground)
//Storyboard Sound Samples

[TimingPoints]
871,428.571428571429,4,2,0,60,1,0
57442,447.761194029851,4,2,0,50,1,0
59233,454.545454545455,4,2,0,50,1,0
59687,470.588235294118,4,2,0,50,1,0
60157,491.803278688525,4,2,0,50,1,0
60648,540.540540540541,4,2,0,50,1,0
61188,612.244897959184,4,2,0,50,1,0
61800,666.666666666667,4,2,0,50,1,0
62466,707.547169811321,4,2,0,50,1,0
63173,352.941176470588,4,2,0,70,1,0
86467,352.941176470588,4,2,0,50,1,0
103408,-100,4,1,0,60,0,0
109055,-100,4,1,0,70,0,0
154231,-100,4,2,0,60,0,0

[Colours]
Combo1 : 175,175,175
Combo2 : 82,80,175
Combo3 : 192,192,50
Combo4 : 85,181,90

[HitObjects]
100,52,871,5,2,3:0:0:0:
176,52,1299,1,0,0:0:0:0:
256,52,1728,1,2,3:0:0:0:
332,52,2156,1,0,0:0:0:0:
396,96,2585,5,2,3:0:0:0:
448,216,3013,1,0,0:0:0:0:
328,268,3442,1,2,3:0:0:0:
276,148,3870,1,0,0:0:0:0:
145,146,4299,5,2,3:0:0:0:
77,186,4728,1,0,0:0:0:0:
41,255,5156,1,2,3:0:0:0:
31,332,5585,1,0,0:0:0:0:
103,304,6013,5,2,3:0:0:0:
189,207,6442,1,0,0:0:0:0:
323,207,6871,1,2,3:0:0:0:
409,304,7300,1,0,0:0:0:0:
477,193,7728,5,2,3:0:0:0:
446,121,8156,1,0,0:0:0:0:
386,70,8585,1,2,3:0:0:0:
311,48,9013,1,0,0:0:0:0:
326,124,9442,5,2,3:0:0:0:
293,250,9871,1,0,0:0:0:0:
195,163,10299,1,2,3:0:0:0:
162,289,10728,1,0,0:0:0:0:
65,202,11156,5,2,3:0:0:0:
45,126,11585,1,0,0:0:0:0:
122,125,12013,1,2,3:0:0:0:
102,49,12442,1,0,0:0:0:0:
176,25,12871,6,0,L|316:13,1,130,4|0,0:0|0:0,0:0:0:0:
344,9,13513,2,0,L|432:0,1,65
409,186,14585,6,0,B|423:153|423:153|425:112,1,65,2|0,3:0|0:0,0:0:0:0:
348,135,15013,2,0,B|321:112|321:112|282:99,1,65
219,77,15442,1,2,3:0:0:0:
146,50,15656,1,0,0:0:0:0:
73,23,15870,2,0,B|54:53|54:53|51:99,1,65
104,141,16299,6,0,L|106:226,1,65,2|0,3:0|0:0,0:0:0:0:
158,264,16727,1,0,0:0:0:0:
110,325,16942,1,0,0:0:0:0:
187,336,17156,2,0,B|221:341|221:341|257:339,1,65,2|0,3:0|0:0,0:0:0:0:
309,285,17585,2,0,B|340:283|340:283|374:288,1,65
438,333,18013,5,2,3:0:0:0:
474,263,18227,1,0,0:0:0:0:
473,184,18442,2,0,L|465:101,1,65
392,168,18870,2,0,L|384:85,1,65,2|0,3:0|0:0,0:0:0:0:
308,151,19299,2,0,L|300:68,1,65
225,138,19727,6,0,L|157:124,1,65,2|0,3:0|0:0,0:0:0:0:
159,46,20156,2,0,L|223:59,1,65
301,62,20585,1,2,3:0:0:0:
379,55,20799,1,0,0:0:0:0:
456,43,21013,2,0,B|471:73|471:73|476:111,1,65
479,182,21442,6,0,L|479:254,1,65,2|0,3:0|0:0,0:0:0:0:
401,250,21871,2,0,L|382:319,1,65,0|0,0:0|2:0,0:0:0:0:
308,301,22299,2,0,L|272:363,1,65,2|0,3:0|0:0,0:0:0:0:
206,321,22728,2,0,L|155:371,1,65,0|0,0:0|2:0,0:0:0:0:
106,310,23156,5,2,3:0:0:0:
73,239,23371,1,0,0:0:0:0:
41,168,23585,2,0,B|27:134|27:134|29:84,1,65
74,43,24013,1,2,3:0:0:0:
107,114,24228,1,0,0:0:0:0:
139,185,24442,2,0,B|152:217|152:217|157:266,1,65
134,322,24871,5,8,0:3:0:0:
206,351,25085,1,0,0:0:0:0:
272,309,25299,1,8,0:3:0:0:
344,338,25513,1,0,0:0:0:0:
406,289,25728,2,0,L|444:252,2,32.5,8|0|0,0:0|0:0|0:0,0:0:0:0:
429,172,26156,2,0,L|472:130,2,32.5,8|0|0,0:0|0:0|0:0,0:0:0:0:
449,55,26585,5,8,0:0:0:0:
449,55,28299,6,0,B|380:48|380:48|366:44|366:44|300:36,2,130,4|4|4,0:3|0:3|0:3,0:0:0:0:
262,112,29585,1,6,0:3:0:0:
74,166,30013,2,0,B|143:173|143:173|157:177|157:177|223:185,2,130,4|4|4,0:3|0:3|0:3,0:0:0:0:
38,291,31299,2,0,L|24:348,2,43.3333333333333,2|2|2,0:3|0:3|0:3,0:0:0:0:
71,262,31728,6,0,B|118:264|118:264|158:358,1,130,4|4,0:3|0:3,0:0:0:0:
256,264,32585,1,4,0:3:0:0:
370,203,33013,2,0,L|451:196,1,65,4|0,0:3|0:0,0:0:0:0:
483,136,33442,6,0,L|465:68,1,65,2|0,0:3|0:0,0:0:0:0:
404,125,33871,2,0,L|386:57,1,65,2|0,0:3|0:0,0:0:0:0:
325,117,34299,2,0,L|307:49,1,65,2|0,0:3|0:0,0:0:0:0:
246,106,34728,2,0,L|228:38,1,65,2|0,0:3|0:0,0:0:0:0:
179,140,35156,6,0,B|167:204|167:204|176:279,2,130,4|4|4,0:3|0:3|0:3,0:0:0:0:
69,70,36442,1,6,0:3:0:0:
192,22,36871,2,0,B|256:12|256:12|332:22,1,130,4|4,0:3|0:3,0:0:0:0:
392,129,37728,1,4,0:3:0:0:
462,20,38156,1,2,0:3:0:0:
392,129,38585,6,0,P|386:188|401:269,1,130,4|8,0:3|0:0,0:0:0:0:
500,376,39442,1,8,0:0:0:0:
428,345,39656,1,8,0:0:0:0:
349,345,39871,1,8,0:0:0:0:
281,383,40085,1,8,0:0:0:0:
232,321,40299,6,0,L|218:247,1,65,2|0,0:3|0:0,0:0:0:0:
141,248,40728,2,0,L|153:311,1,65,2|0,0:3|0:0,0:0:0:0:
189,187,41156,2,0,L|175:113,1,65,2|0,0:3|0:0,0:0:0:0:
98,114,41585,2,0,L|107:158,3,32.5,2|2|2|2,0:3|0:3|0:3|0:3,0:0:0:0:
104,73,42013,6,0,B|159:35|159:35|251:22,1,130,4|4,0:3|0:3,0:0:0:0:
406,39,42871,2,0,B|351:77|351:77|259:90,1,130,4|4,0:3|0:3,0:0:0:0:
179,156,43728,6,0,L|147:303,1,130,4|4,0:3|0:3,0:0:0:0:
256,360,44585,1,4,0:3:0:0:
360,283,45013,2,0,L|347:233,2,43.3333333333333,2|2|2,0:3|0:3|0:3,0:0:0:0:
394,315,45442,5,4,0:3:0:0:
471,210,45871,1,4,0:3:0:0:
372,125,46299,1,4,0:3:0:0:
295,230,46728,2,0,L|288:299,1,65,4|0,0:3|0:0,0:0:0:0:
224,340,47156,6,0,L|155:349,1,65,2|0,0:3|0:0,0:0:0:0:
190,269,47585,2,0,L|121:278,1,65,2|0,0:3|0:0,0:0:0:0:
155,198,48013,2,0,L|86:207,1,65,2|0,0:3|0:0,0:0:0:0:
121,127,48442,2,0,L|52:136,1,65,2|0,0:3|0:0,0:0:0:0:
144,56,48871,6,0,B|222:40|222:40|238:44|238:44|282:36,2,130,4|4|4,0:3|0:3|0:3,0:0:0:0:
44,192,50156,1,6,0:3:0:0:
144,328,50585,2,0,B|222:344|222:344|238:340|238:340|282:348,2,130,4|4|4,0:3|0:3|0:3,0:0:0:0:
244,192,51871,1,4,0:3:0:0:
346,112,52299,5,4,2:0:0:0:
448,191,52728,2,0,L|453:226,3,32.5,2|2|2|2,0:3|0:3|0:3|0:3,0:0:0:0:
406,255,53156,2,0,L|400:368,2,97.5,4|4|4,0:3|0:3|0:3,0:0:0:0:
343,198,54013,6,0,L|328:126,1,65,2|0,0:3|0:0,0:0:0:0:
269,232,54442,2,0,L|255:295,1,65,2|0,0:3|0:0,0:0:0:0:
210,177,54871,2,0,L|195:105,1,65,2|0,0:3|0:0,0:0:0:0:
136,211,55300,2,0,L|122:274,1,65,2|0,0:3|0:0,0:0:0:0:
64,326,55728,5,4,2:0:0:0:
256,192,56156,12,4,63173,0:0:0:0:
322,332,63878,6,0,B|373:326|373:326|425:97,1,260,4|0,0:0|0:0,0:0:0:0:
326,30,64937,1,0,0:0:0:0:
215,98,65290,2,0,B|202:68|202:68|195:25,1,65,4|0,0:3|0:0,0:0:0:0:
119,50,65643,2,0,B|122:82|122:82|118:114,1,65,4|0,0:3|0:0,0:0:0:0:
48,148,65996,6,0,L|53:226,1,65,2|0,0:3|0:0,0:0:0:0:
55,291,66349,2,0,L|91:309,3,32.5,4|4|4|4,0:3|0:3|0:3|0:3,0:0:0:0:
122,299,66702,2,0,B|162:287|162:287|203:288,1,65,4|0,0:3|0:0,0:0:0:0:
224,355,67055,2,0,B|247:355|247:355|287:343,1,65,4|0,0:3|0:0,0:0:0:0:
331,278,67408,6,0,L|315:192,2,65,2|2|2,0:0|0:0|0:0,0:0:0:0:
406,298,67937,1,4,0:3:0:0:
406,298,68114,2,0,L|448:159,1,130,4|0,0:3|0:0,0:0:0:0:
462,97,68643,2,0,P|428:63|337:57,1,130,4|0,0:3|0:0,0:0:0:0:
286,100,69173,2,0,L|284:142,2,32.5,4|4|4,0:3|0:3|0:3,0:0:0:0:
220,58,69525,1,4,2:0:0:0:
45,137,70231,6,0,L|57:179,5,43.3333333333333,2|2|2|2|2|2,0:0|0:0|0:0|0:0|0:0|0:0,0:0:0:0:
114,226,70937,6,0,L|108:286,2,43.3333333333333,6|2|2,0:3|0:0|0:0,0:0:0:0:
190,198,71290,2,0,L|184:258,2,43.3333333333333,6|2|2,0:3|0:0|0:0,0:0:0:0:
260,168,71643,6,0,L|406:188,1,130,6|0,0:3|0:0,0:0:0:0:
483,309,72349,2,0,B|445:337|445:337|412:338,1,65,4|0,0:3|0:0,0:0:0:0:
349,328,72702,2,0,B|311:356|311:356|278:357,1,65,4|0,0:3|0:0,0:0:0:0:
215,353,73055,5,4,0:3:0:0:
155,313,73231,1,4,0:3:0:0:
91,347,73408,1,0,0:0:0:0:
31,308,73584,2,0,B|8:180|8:180|34:109,1,195,4|0,0:3|0:0,0:0:0:0:
72,53,74290,2,0,B|84:38|84:38|196:27,1,130,4|0,0:3|0:0,0:0:0:0:
259,71,74820,2,0,L|292:94,3,32.5,4|4|4|4,0:3|0:3|0:3|0:3,0:0:0:0:
115,162,75878,6,0,L|133:241,1,65,4|0,0:3|0:0,0:0:0:0:
201,256,76231,2,0,L|212:300,3,32.5
243,306,76584,2,0,L|263:378,1,65,4|0,0:3|0:0,0:0:0:0:
338,369,76937,2,0,L|355:306,1,65,4|0,0:3|0:0,0:0:0:0:
299,251,77290,2,0,L|299:178,1,65,6|0,0:3|0:0,0:0:0:0:
340,119,77643,2,0,L|346:82,3,32.5,4|4|4|4,0:3|0:3|0:3|0:3,0:0:0:0:
316,60,77996,6,0,B|281:42|281:42|251:38,1,65,4|0,0:3|0:0,0:0:0:0:
231,113,78349,2,0,B|192:106|192:106|162:112,1,65,4|0,0:3|0:0,0:0:0:0:
107,161,78702,2,0,L|93:240,2,65,4|2|2,2:0|0:0|0:0,0:0:0:0:
89,84,79231,1,4,0:3:0:0:
89,84,79408,6,0,B|123:36|123:36|207:22,1,130,4|0,0:3|0:0,0:0:0:0:
270,35,79937,2,0,B|374:22|374:22|364:53,1,130,4|0,0:3|0:0,0:0:0:0:
338,119,80467,2,0,L|317:165,2,32.5,4|4|4,0:3|0:3|0:3,0:0:0:0:
415,109,80820,1,4,2:0:0:0:
376,359,81525,6,0,L|428:358,5,43.3333333333333,2|2|2|2|2|2,0:0|0:0|0:0|0:0|0:0|0:0,0:0:0:0:
387,279,82231,6,0,L|404:228,2,43.3333333333333,6|2|2,0:3|0:0|0:0,0:0:0:0:
316,246,82584,2,0,L|333:195,2,43.3333333333333,6|2|2,0:3|0:0|0:0,0:0:0:0:
248,216,82937,2,0,B|223:206|223:206|114:210,1,130,6|0,0:3|0:0,0:0:0:0:
38,343,83643,2,0,L|119:339,1,65,4|0,0:3|0:0,0:0:0:0:
177,316,83996,2,0,L|225:302,3,32.5,4|4|4|4,0:3|0:3|0:3|0:3,0:0:0:0:
247,302,84349,6,0,B|329:305|329:305|364:302,2,97.5,4|4|4,0:3|0:3|0:3,0:0:0:0:
214,231,85055,2,0,B|194:134|194:134|193:96,1,130,4|0,0:3|0:0,0:0:0:0:
139,45,85584,2,0,B|118:50|118:50|111:163,1,130,4|0,0:3|0:0,0:0:0:0:
59,217,86114,2,0,L|58:309,1,65
100,347,86467,5,4,0:0:0:0:
81,312,97761,5,8,0:0:0:0:
206,278,98114,1,8,0:0:0:0:
91,295,98467,1,8,0:0:0:0:
216,261,98820,1,8,0:0:0:0:
325,199,99172,5,8,0:0:0:0:
207,143,99525,1,8,0:0:0:0:
316,180,99878,1,8,0:0:0:0:
198,124,100231,1,8,0:0:0:0:
311,68,100584,5,8,0:0:0:0:
436,34,100937,1,8,0:0:0:0:
321,51,101290,1,8,0:0:0:0:
446,17,101643,1,8,0:0:0:0:
478,134,101996,5,8,0:0:0:0:
496,262,102349,1,8,0:0:0:0:
391,340,102702,1,8,0:0:0:0:
373,212,103055,1,8,0:0:0:0:
269,132,103408,6,0,B|249:120|249:120|180:112,1,65,4|0,0:3|0:0,0:0:0:0:
151,178,103761,2,0,B|171:190|171:190|240:198,1,65,2|0,0:3|0:0,0:0:0:0:
211,279,104114,2,0,B|191:267|191:267|122:259,1,65,8|0,0:0|0:0,0:0:0:0:
93,325,104467,2,0,B|113:337|113:337|182:345,1,65,2|0,0:3|0:0,0:0:0:0:
233,370,104819,6,0,L|309:377,1,65,8|0,0:0|0:0,0:0:0:0:
319,293,105172,2,0,L|395:300,1,65,2|0,0:3|0:0,0:0:0:0:
443,238,105525,1,8,0:0:0:0:
492,177,105702,1,0,0:0:0:0:
484,99,105878,1,2,0:3:0:0:
422,50,106055,1,0,0:0:0:0:
345,63,106231,6,0,L|338:105,2,32.5,8|8|8,0:0|0:0|0:0,0:0:0:0:
266,32,106584,2,0,L|271:-1,2,32.5,8|8|8,0:0|0:0|0:0,0:0:0:0:
197,81,106937,6,0,L|188:125,3,32.5
154,135,107290,2,0,L|145:179,3,32.5
115,194,107643,1,4,2:0:0:0:
384,336,109055,6,0,B|400:291|400:291|392:219,1,97.5,4|4,0:3|0:3,0:0:0:0:
279,188,109584,2,0,B|232:196|232:196|173:239,1,97.5,4|4,0:3|0:3,0:0:0:0:
260,333,110114,1,6,0:3:0:0:
70,286,110466,5,4,0:3:0:0:
42,172,110731,1,4,0:3:0:0:
126,207,110996,1,4,0:3:0:0:
97,93,111261,1,4,0:3:0:0:
208,126,111525,2,0,L|197:75,2,43.3333333333333,6|2|2,0:3|0:0|0:0,0:0:0:0:
255,147,111878,6,0,L|352:191,1,97.5,4|4,0:3|0:3,0:0:0:0:
489,181,112408,1,4,0:3:0:0:
414,255,112672,1,4,0:3:0:0:
407,113,112937,2,0,L|395:48,1,65,6|0,0:3|0:0,0:0:0:0:
305,72,113290,6,0,L|234:63,1,65,4|0,0:3|0:0,0:0:0:0:
255,147,113643,2,0,L|184:138,1,65,4|0,0:3|0:0,0:0:0:0:
207,221,113996,2,0,L|136:212,1,65,4|0,0:3|0:0,0:0:0:0:
157,296,114349,2,0,L|86:287,1,65,4|0,0:3|0:0,0:0:0:0:
198,371,114702,6,0,L|320:361,1,97.5,4|4,0:3|0:3,0:0:0:0:
369,260,115231,1,4,0:3:0:0:
253,268,115495,1,4,0:3:0:0:
307,163,115761,1,6,0:3:0:0:
455,163,116114,5,4,0:3:0:0:
380,72,116378,1,4,0:3:0:0:
307,163,116643,1,4,0:3:0:0:
232,72,116907,1,4,0:3:0:0:
160,164,117172,1,4,0:3:0:0:
160,164,117525,6,0,B|146:280|146:280|167:269,1,130,4|0,0:3|0:0,0:0:0:0:
287,283,118231,2,0,B|332:260|332:260|374:261,1,65,4|0,0:3|0:0,0:0:0:0:
346,338,118584,2,0,B|301:361|301:361|259:360,1,65,4|0,0:3|0:0,0:0:0:0:
210,343,118937,6,0,L|129:330,1,65,6|0,0:3|0:0,0:0:0:0:
91,267,119290,1,4,0:3:0:0:
168,253,119467,1,0,0:0:0:0:
218,185,119643,2,0,L|137:172,1,65,6|0,0:3|0:0,0:0:0:0:
82,131,119996,2,0,L|73:98,3,32.5,2|2|2|2,0:3|0:3|0:3|0:3,0:0:0:0:
96,67,120349,6,0,B|156:30|156:30|192:25,1,97.5,4|4,0:3|0:3,0:0:0:0:
345,68,120878,2,0,B|285:31|285:31|249:26,1,97.5,4|4,0:3|0:3,0:0:0:0:
216,140,121408,1,4,0:3:0:0:
407,245,121761,6,0,B|440:231|440:231|525:232,1,97.5,4|4,0:3|0:3,0:0:0:0:
384,330,122290,2,0,B|351:316|351:316|266:317,1,97.5,4|4,0:3|0:3,0:0:0:0:
176,285,122819,2,0,L|167:224,2,43.3333333333333,6|2|2,0:3|0:0|0:0,0:0:0:0:
186,336,123172,5,4,0:3:0:0:
83,278,123437,1,4,0:3:0:0:
105,164,123702,1,4,0:3:0:0:
223,151,123966,1,4,0:3:0:0:
272,257,124231,2,0,L|292:332,1,65,4|0,0:3|0:0,0:0:0:0:
367,261,124584,6,0,B|415:265|415:265|439:246,1,65,4|0,0:3|0:0,0:0:0:0:
407,179,124937,2,0,B|393:189|393:189|345:185,1,65,4|0,0:3|0:0,0:0:0:0:
324,110,125290,2,0,B|372:114|372:114|396:95,1,65,4|0,0:3|0:0,0:0:0:0:
365,27,125643,2,0,B|351:37|351:37|303:33,1,65,4|0,0:3|0:0,0:0:0:0:
225,40,125996,6,0,L|118:42,1,97.5,4|4,0:3|0:3,0:0:0:0:
24,98,126525,1,4,0:3:0:0:
30,214,126790,1,4,0:3:0:0:
130,154,127055,1,6,0:3:0:0:
127,310,127408,5,4,0:3:0:0:
233,357,127672,1,4,0:3:0:0:
227,240,127937,1,4,0:3:0:0:
333,287,128201,1,4,0:3:0:0:
340,170,128466,1,4,0:3:0:0:
340,170,128819,6,0,B|373:76|373:76|403:108,1,130,4|0,0:3|0:0,0:0:0:0:
459,239,129525,2,0,L|474:346,2,97.5,2|2|2,0:0|0:0|0:0,0:0:0:0:
462,160,130231,6,0,L|469:112,2,32.5,8|8|8,0:0|0:0|0:0,0:0:0:0:
389,188,130584,2,0,L|285:212,1,97.5,8|0,0:0|0:0,0:0:0:0:
256,199,130937,2,0,L|212:213,3,32.5,2|2|2|2,0:3|0:3|0:3|0:3,0:0:0:0:
186,189,131290,2,0,L|142:203,3,32.5,2|2|2|2,0:3|0:3|0:3|0:3,0:0:0:0:
119,175,131643,6,0,L|93:35,1,130,4|0,0:3|0:0,0:0:0:0:
256,100,132349,2,0,L|256:239,1,130,4|0,0:3|0:0,0:0:0:0:
393,175,133055,2,0,L|419:35,1,130,4|0,0:3|0:0,0:0:0:0:
492,199,133761,1,4,0:3:0:0:
502,354,134114,1,0,0:0:0:0:
361,287,134466,6,0,B|304:313|304:313|257:371,1,130,4|0,0:3|0:0,0:0:0:0:
136,328,135172,2,0,B|141:265|141:265|115:195,1,130,4|0,0:3|0:0,0:0:0:0:
43,178,135702,1,0,0:0:0:0:
84,112,135878,6,0,L|54:30,1,65,4|0,0:3|0:0,0:0:0:0:
191,75,136231,2,0,L|168:136,1,65,0|0,0:3|0:0,0:0:0:0:
294,91,136584,2,0,L|264:9,1,65,4|0,0:3|0:0,0:0:0:0:
401,54,136937,2,0,L|378:115,1,65,4|0,0:3|0:0,0:0:0:0:
347,190,137290,6,0,B|353:292|353:292|367:316,1,130,4|0,0:3|0:0,0:0:0:0:
490,219,137996,2,0,B|483:116|483:116|470:93,1,130,4|0,0:3|0:0,0:0:0:0:
320,45,138702,2,0,L|164:30,1,130,4|0,0:3|0:0,0:0:0:0:
41,80,139408,2,0,L|13:172,1,65,4|0,0:3|0:0,0:0:0:0:
121,148,139761,2,0,L|139:210,1,65
67,280,140114,6,0,B|73:309|73:309|164:363,1,130,4|0,0:3|0:0,0:0:0:0:
249,232,140819,2,0,B|255:261|255:261|346:315,1,130,4|0,0:3|0:0,0:0:0:0:
413,342,141349,1,0,0:0:0:0:
466,285,141525,5,4,0:3:0:0:
454,207,141702,1,4,0:3:0:0:
440,130,141878,2,0,L|427:58,1,65,4|0,0:3|0:0,0:0:0:0:
352,48,142231,2,0,B|319:34|319:34|235:40,1,97.5,8|0,0:0|0:0,0:0:0:0:
230,67,142584,2,0,L|189:147,1,65,8|0,0:0|0:0,0:0:0:0:
124,145,142937,6,0,P|46:152|128:239,1,260,0|4,0:0|2:0,0:0:0:0:
271,197,143996,1,0,0:0:0:0:
420,241,144349,6,0,B|407:297|407:297|373:313,1,65,4|0,0:3|0:0,0:0:0:0:
322,287,144702,2,0,B|309:343|309:343|275:359,1,65
225,332,145055,2,0,L|131:345,1,65,4|0,0:3|0:0,0:0:0:0:
87,313,145408,2,0,L|41:350,2,43.3333333333333,2|2|2,0:0|0:0|0:0,0:0:0:0:
119,271,145761,6,0,B|112:176|112:176|88:144,1,130,4|0,0:3|0:0,0:0:0:0:
16,13,146466,1,4,0:3:0:0:
81,55,146643,2,0,B|107:72|107:72|210:75,1,130,4|0,0:3|0:0,0:0:0:0:
284,74,147172,5,4,0:3:0:0:
359,51,147349,1,0,0:0:0:0:
427,88,147525,2,0,B|472:123|472:123|477:156,1,65
406,171,147878,2,0,B|361:206|361:206|356:239,1,65,4|0,0:3|0:0,0:0:0:0:
355,291,148231,2,0,L|357:359,2,43.3333333333333,2|2|2,0:0|0:0|0:0,0:0:0:0:
306,270,148584,6,0,B|271:256|271:256|155:256,1,130,4|0,0:3|0:0,0:0:0:0:
31,309,149290,2,0,B|19:259|19:259|34:208,2,97.5,4|2|2,0:3|0:0|0:0,0:0:0:0:
96,351,149996,2,0,B|128:368|128:368|172:371,1,65,4|0,0:3|0:0,0:0:0:0:
232,351,150349,2,0,L|253:319,3,32.5,2|2|2|2,0:3|0:3|0:3|0:3,0:0:0:0:
277,295,150702,2,0,B|324:282|324:282|383:282,2,97.5,2|2|2,0:0|0:0|0:0,0:0:0:0:
200,278,151408,5,4,0:3:0:0:
124,261,151584,1,0,0:0:0:0:
48,241,151761,2,0,L|25:132,1,97.5,4|0,0:3|0:0,0:0:0:0:
56,113,152114,2,0,L|61:68,3,32.5,2|2|2|2,0:3|0:3|0:3|0:3,0:0:0:0:
101,73,152466,2,0,L|106:28,3,32.5,2|2|2|2,0:3|0:3|0:3|0:3,0:0:0:0:
146,33,152819,6,0,B|158:19|158:19|269:16,1,130,4|0,0:3|0:0,0:0:0:0:
352,33,153349,2,0,B|393:85|393:85|405:220,1,195
339,325,154231,6,0,B|284:314|284:314|265:334,1,65,2|0,3:0|0:0,0:0:0:0:
259,236,154584,2,0,B|203:237|203:237|184:265,1,65
183,163,154937,2,0,B|131:179|131:179|116:206,1,65,2|0,3:0|0:0,0:0:0:0:
69,126,155290,2,0,B|20:152|20:152|24:188,1,65
17,242,155643,6,0,L|32:376,1,130,2|0,3:0|0:0,0:0:0:0:
104,343,156172,1,0,0:0:0:0:
180,328,156349,2,0,B|232:330|232:330|264:351,1,65,2|0,3:0|0:0,0:0:0:0:
284,270,156702,2,0,B|336:272|336:272|368:293,1,65
408,327,157055,6,0,B|419:313|419:313|435:249,1,65,2|0,3:0|0:0,0:0:0:0:
380,207,157408,2,0,B|369:193|369:193|357:147,1,65
397,79,157761,2,0,B|402:56|402:56|285:39,1,130,2|0,3:0|0:0,0:0:0:0:
231,84,158290,1,0,0:0:0:0:
155,63,158466,6,0,L|70:49,1,65,2|0,3:0|0:0,0:0:0:0:
49,126,158819,2,0,L|113:136,1,65
125,220,159172,2,0,L|40:206,1,65,2|0,3:0|0:0,0:0:0:0:
19,283,159525,2,0,L|83:293,1,65
167,300,159878,6,0,B|195:281|195:281|225:174,1,130,2|0,3:0|0:0,0:0:0:0:
180,113,160408,1,0,0:0:0:0:
244,59,160584,2,0,B|281:36|281:36|377:34,1,130,2|0,3:0|0:0,0:0:0:0:
452,31,161114,1,0,0:0:0:0:
472,112,161290,6,0,B|482:170|482:170|473:174,1,65,2|0,3:0|0:0,0:0:0:0:
391,165,161643,2,0,B|401:223|401:223|392:227,1,65
310,219,161996,2,0,B|320:277|320:277|311:281,1,65,2|0,3:0|0:0,0:0:0:0:
229,272,162349,2,0,B|239:330|239:330|230:334,1,65
150,316,162702,6,0,B|48:334|48:334|15:315,1,130,2|0,3:0|0:0,0:0:0:0:
62,244,163231,1,0,0:0:0:0:
49,160,163408,2,0,L|36:90,1,65,2|0,3:0|0:0,0:0:0:0:
104,44,163761,1,0,0:0:0:0:
123,125,163937,1,0,0:0:0:0:
182,64,164114,6,0,B|235:75|235:75|247:96,1,65,6|0,2:0|0:0,0:0:0:0:
318,53,164466,2,0,B|328:106|328:106|313:125,1,65
262,174,164819,2,0,B|231:208|231:208|229:280,1,97.5,2|2,3:0|0:0,0:0:0:0:
231,302,165172,1,2,0:0:0:0:
304,341,165349,1,0,0:0:0:0:
384,315,165525,6,0,B|418:300|418:300|447:196,1,130,2|0,3:0|0:0,0:0:0:0:
309,105,166231,2,0,B|275:120|275:120|246:224,1,130,2|0,3:0|0:0,0:0:0:0:
257,339,166937,5,2,3:0:0:0:
130,368,167290,1,0,0:0:0:0:
43,242,167643,1,2,3:0:0:0:
170,271,167996,1,0,0:0:0:0:
252,145,168349,6,0,B|273:108|273:108|383:84,1,130,2|0,3:0|0:0,0:0:0:0:
499,223,169055,2,0,B|478:186|478:186|368:162,1,130,2|0,3:0|0:0,0:0:0:0:
289,269,169761,6,0,L|253:145,1,130,2|0,3:0|0:0,0:0:0:0:
187,330,170466,2,0,L|150:205,1,130,2|0,3:0|0:0,0:0:0:0:
44,129,171172,6,0,B|62:88|62:88|160:59,1,130,2|0,3:0|0:0,0:0:0:0:
272,44,171878,1,2,3:0:0:0:
400,63,172231,1,0,0:0:0:0:
323,168,172584,2,0,B|289:190|289:190|278:299,1,130,2|0,3:0|3:0,3:0:0:0:
436,364,173290,2,0,B|470:342|470:342|478:252,1,130,2|0,3:0|0:0,0:0:0:0:
353,288,173996,6,0,L|207:271,1,130,2|0,0:0|0:0,0:0:0:0:
136,176,174702,2,0,L|282:159,1,130,2|0,3:0|0:0,0:0:0:0:
344,57,175408,2,0,P|408:39|482:71,3,130,2|0|0|0,3:0|0:0|0:0|0:0,0:0:0:0:
404,171,176819,5,0,0:0:0:0:
