osu file format v5

[General]
AudioFilename: ESTi feat. Various Artists - Zero Fill Love.mp3
AudioLeadIn: 0
PreviewTime: -1
Countdown: 1
SampleSet: Soft
EditorBookmarks: -209,7972,15245,29790,44336,55700,62518,77063,91609

[Metadata]
Title:Zero Fill Love
Artist:ESTi feat. Various Artists
Creator:Reikin
Version:Insane

[Difficulty]
HPDrainRate:6
CircleSize:6
OverallDifficulty:7
SliderMultiplier:1.3
SliderTickRate:1

[Events]
//Background and Video events
1,0,"ESTi feat. Various Artists - Zero Fill Love.avi"
//Break Periods
2,23627,28925
2,92717,95481
//Storyboard Layer 0 (Background)
//Storyboard Layer 1 (Failing)
//Storyboard Layer 2 (Passing)
//Storyboard Layer 3 (Foreground)
//Storyboard Sound Samples
//Background Colour Transformations
3,100,163,162,255

[TimingPoints]
700,454.545454545455,4,2,0,100

[HitObjects]
120,64,7972,1,2
248,64,8427,1,2
376,64,8881,2,2,B|376:184,2,97.5
472,64,9904,2,2,B|472:176,1,97.5
408,160,10472,1,2
344,160,10700,2,2,B|280:160|272:208,1,65
248,184,11040,1,2
216,184,11154,1,2
152,184,11381,1,2
152,152,11494,1,2
152,120,11608,1,2
256,192,12518,12,2,14336
256,64,15245,5,2
256,128,15472,1,2
256,192,15700,2,2,B|392:192,1,130
152,80,17063,6,2,C|120:80|96:120|32:128,2,130
408,128,18881,6,2,C|440:96|432:64|360:56|360:24|288:24,1,260
256,64,20018,5,2
256,128,20245,1,2
256,256,20700,1,2
128,256,21154,1,2
128,128,21609,1,2
256,128,22063,1,2
256,256,22518,5,2
320,256,22745,1,2
320,192,22972,2,2,B|400:192,2,65
256,192,30245,5,2
256,128,30472,1,2
256,64,30700,2,2,B|192:64|152:96,2,97.5
320,64,31609,1,2
320,128,31836,1,2
320,192,32063,1,2
384,192,32290,1,2
448,192,32518,2,2,B|488:192|504:224,1,65
472,240,32858,1,2
440,248,32972,1,2
376,272,33199,1,2
344,280,33313,1,2
312,280,33427,1,2
248,280,33654,5,2
184,280,33881,1,2
184,216,34109,2,2,B|184:160|120:160,1,65
72,112,34677,2,2,B|8:112|16:48,1,97.5
80,32,35245,2,2,B|160:32,7,65
208,32,37063,1,2
256,72,37290,5,2
256,136,37518,1,2
256,200,37745,1,2
320,200,37972,1,2
392,136,38313,1,2
464,200,38654,1,2
464,264,38881,1,2
400,264,39109,2,2,B|328:264,1,65
272,264,39563,2,2,B|207:264,1,65
144,264,40018,1,2
144,200,40245,1,2
240,192,40586,1,2
256,192,41154,12,2,42517
256,192,42745,1,2
256,128,42972,1,2
256,64,43200,1,2
56,320,44336,6,2,B|56:248,2,65
120,320,45018,1,2
120,256,45245,1,2
120,192,45472,2,2,B|120:120,1,65
120,64,45927,1,2
184,64,46154,1,2
184,128,46381,2,2,B|264:128,1,65
248,192,46836,2,2,B|328:192,1,65
504,368,47972,6,2,B|504:296,1,65
440,304,48427,2,2,B|360:304,1,65
312,304,48881,2,2,B|312:232,1,65
312,176,49336,1,2
280,120,49563,1,2
248,64,49790,1,2
112,288,50700,6,2,B|112:216,2,65
176,288,51381,1,2
240,288,51609,2,2,B|320:288,1,65
304,224,52063,2,2,B|304:152,1,65
304,96,52518,1,2
256,48,52745,1,2
208,96,52972,1,2
208,160,53200,1,2
208,224,53427,2,2,B|208:304,1,65
144,288,53881,2,2,B|144:216,1,65
80,224,54336,2,2,B|80:296,1,65
80,352,54790,2,2,B|0:352,2,65
208,376,55700,6,2,B|208:296,1,65
272,312,56154,2,2,B|272:232,1,65
336,240,56609,2,2,B|336:144,1,65
272,176,57063,2,2,B|272:96,1,65
208,112,57518,2,2,B|208:24,1,65
272,48,57972,2,2,B|272:0|320:0,4,65
208,48,59109,1,2
144,48,59336,1,2
144,112,59563,2,2,B|144:192,1,65
208,176,60018,2,2,B|208:264,1,65
272,240,60472,2,2,B|344:240,1,65
256,192,60927,12,2,62063
256,192,62518,5,2
256,192,62972,1,2
256,128,63200,6,2,B|184:128,2,65
320,128,63881,1,2
320,192,64109,2,2,B|320:264,1,65
256,256,64563,2,2,B|184:256,1,65
128,264,65018,2,2,B|128:192,4,65
64,264,66154,1,2
64,136,66609,5,2
128,136,66836,1,2
192,136,67063,2,2,B|192:56,2,65
256,136,67745,1,2
320,136,67972,2,2,B|400:136,1,65
448,136,68427,2,2,B|448:216,1,65
384,200,68881,2,2,B|304:200,2,65
384,328,69790,5,2
384,264,70018,1,2
320,264,70245,1,2
256,264,70472,1,2
192,264,70700,2,2,B|192:192,2,65
128,264,71381,2,2,B|56:264,1,65
64,200,71836,2,2,B|64:120,1,65
128,136,72290,2,2,B|208:136,1,65
256,192,72972,12,2,74790
384,192,75700,5,2
256,192,76154,5,2
256,192,76495,1,2
160,192,76836,5,2
120,136,77063,2,2,B|120:72|232:80|232:72,1,130
288,80,77745,2,2,B|360:80,1,65
416,80,78200,2,2,B|416:160|416:152,1,65
416,208,78654,1,2
416,272,78881,1,2
352,272,79109,2,2,B|352:216|296:216,1,65
256,216,79563,2,2,B|208:216|208:272,1,65
144,256,80018,2,2,B|96:256|96:192,1,65
144,96,80700,6,2,B|144:48|256:32,1,130
312,40,81381,1,2
312,104,81609,2,2,B|312:176,1,65
312,232,82063,1,2
248,232,82290,1,2
184,232,82518,2,2,B|184:160|280:160,2,130
256,336,83881,5,2
256,272,84109,5,2
256,208,84336,5,2
256,192,84563,12,2,86154
256,192,86836,1,2
256,128,87063,1,2
160,128,87404,1,2
160,224,87745,1,2
210,183,87972,6,2,C|193:160|193:148|210:166|227:150|226:162|210:184,1,130
256,60,88881,2,2,C|239:37|239:25|256:43|273:27|272:39|256:61,1,130
298,182,89790,2,2,C|281:159|281:147|298:165|315:149|314:161|298:183,1,130
257,304,90700,2,2,C|240:281|240:269|257:287|274:271|273:283|257:305,1,130
256,173,91609,1,2
296,168,91836,1,2
256,120,92063,2,2,C|239:97|239:85|256:103|273:87|272:99|256:121,1,130
192,0,96381,5,2
256,0,96608,1,2
256,128,97063,1,2
256,256,97518,1,2
368,192,97972,1,2
240,192,98427,1,2
176,192,98654,1,2
112,192,98881,1,2
144,136,99109,1,2
144,72,99336,6,2,C|127:49|127:37|144:55|161:39|160:51|144:73,1,130
200,184,100245,5,2
256,136,100472,6,2,C|208:80|232:48|255:83|280:48|304:80|248:144,1,325
256,192,102518,12,2,107972
