osu file format v12

[General]
AudioFilename: Obelisque.mp3
AudioLeadIn: 2000
PreviewTime: 46123
Countdown: 0
SampleSet: Soft
StackLeniency: 0.7
Mode: 0
LetterboxInBreaks: 0

[Editor]
Bookmarks: 75662,81200
DistanceSpacing: 0.7
BeatDivisor: 4
GridSize: 8

[Metadata]
Title:Obelisque
TitleUnicode:Obelisque
Artist:ESTi X M2U
ArtistUnicode:ESTi X M2U
Creator:Strawberry
Version:Melt
Source:O2jam U
Tags:Twice Melt Solhouetti Park Jin Bae SilSil Shin Dong Whi Oblivion
BeatmapID:256278
BeatmapSetID:92265

[Difficulty]
HPDrainRate:6
CircleSize:4
OverallDifficulty:6
ApproachRate:8
SliderMultiplier:1.9
SliderTickRate:2

[Events]
//Background and Video events
0,0,"BG.jpg",0,0
//Break Periods
2,75862,80450
//Storyboard Layer 0 (Background)
//Storyboard Layer 1 (Fail)
//Storyboard Layer 2 (Pass)
//Storyboard Layer 3 (Foreground)
//Storyboard Sound Samples
//Background Colour Transformations
3,100,163,162,255

[TimingPoints]
1816,461.538461538462,4,2,1,70,1,0
8508,-83.3333333333333,4,2,1,70,0,0
9200,-83.3333333333333,4,2,1,70,0,1
9662,-83.3333333333333,4,2,1,70,0,0
31354,-83.3333333333333,4,2,1,80,0,1
31816,-83.3333333333333,4,2,1,80,0,0
38739,-83.3333333333333,4,2,1,80,0,1
39200,-83.3333333333333,4,2,1,80,0,0
46123,-100,4,2,1,70,0,0
49758,-100,4,2,1,60,0,0
50681,-100,4,2,1,65,0,0
51604,-100,4,2,1,70,0,0
52527,-100,4,2,1,75,0,0
60892,-90.9090909090909,4,2,1,70,0,0
75142,-90.9090909090909,4,2,1,60,0,0
83046,-83.3333333333333,4,2,1,80,0,1
83508,-83.3333333333333,4,2,1,80,0,0
90431,-83.3333333333333,4,2,1,80,0,1
90892,-83.3333333333333,4,2,1,80,0,0
94066,-83.3333333333333,4,2,1,90,0,0
95912,-83.3333333333333,4,2,1,80,0,0
97816,-90.9090909090909,4,2,1,70,0,0
104450,-90.9090909090909,4,2,1,75,0,0
104681,-90.9090909090909,4,2,1,80,0,0
105142,-90.9090909090909,4,2,1,70,0,0
109758,-90.9090909090909,4,2,1,75,0,0
110681,-90.9090909090909,4,2,1,80,0,0
111604,-90.9090909090909,4,2,1,85,0,0
112527,-90.9090909090909,4,2,1,70,0,0
114373,-90.9090909090909,4,2,1,65,0,0
114835,-90.9090909090909,4,2,1,70,0,0
115296,-90.9090909090909,4,2,1,65,0,0
115758,-90.9090909090909,4,2,1,75,0,0
116219,-90.9090909090909,4,2,1,70,0,0
121758,-90.9090909090909,4,2,1,75,0,0
123604,-90.9090909090909,4,2,1,80,0,0
124527,-90.9090909090909,4,2,1,85,0,0
125450,-90.9090909090909,4,2,1,70,0,0
127354,-83.3333333333333,4,2,1,80,0,1
127816,-83.3333333333333,4,2,1,80,0,0
134739,-83.3333333333333,4,2,1,80,0,1
135200,-83.3333333333333,4,2,1,80,0,0
142527,-83.3333333333333,4,2,1,40,0,0
142642,-83.3333333333333,4,2,1,50,0,0
143969,-83.3333333333333,4,2,1,40,0,0
144085,-83.3333333333333,4,2,1,30,0,0
144431,-83.3333333333333,4,2,1,25,0,0
144892,-83.3333333333333,4,2,1,20,0,0
145354,-83.3333333333333,4,2,1,15,0,0
145816,-83.3333333333333,4,2,1,5,0,0

[Colours]
Combo1 : 249,104,169
Combo2 : 0,128,255
Combo3 : 255,255,128
Combo4 : 128,255,255

[HitObjects]
38,145,1816,2,0,P|105:147|166:86,1,142.5
191,32,2277,2,0,L|292:37,1,95,2|0,0:0|0:0,0:0:0:0:
225,137,2739,2,0,L|320:142,1,95
264,245,3200,2,0,L|365:250,1,95,2|0,0:0|0:0,0:0:0:0:
446,323,3662,2,0,P|476:259|450:184,1,142.5
417,129,4123,2,0,P|390:86|405:30,1,95,2|0,0:0|0:0,0:0:0:0:
463,73,4585,2,0,L|515:64,2,47.5,0|2|0,0:0|0:0|0:0,0:0:0:0:
340,155,5046,2,0,P|292:168|235:147,1,95,2|0,0:0|0:0,0:0:0:0:
0,50,5508,6,0,P|70:37|141:62,1,142.5
201,96,5969,2,0,P|249:83|306:104,1,95,2|0,0:0|0:0,0:0:0:0:
312,206,6431,1,0,0:0:0:0:
426,200,6662,1,0,0:0:0:0:
512,274,6892,1,2,0:0:0:0:
397,278,7123,1,0,0:0:0:0:
312,206,7354,2,0,B|252:204|228:255|228:255|218:299,1,142.5
158,325,7816,2,0,P|105:337|65:323,1,95,2|0,0:0|0:0,0:0:0:0:
116,221,8277,5,0,0:0:0:0:
66,120,8508,2,0,P|130:106|190:135,1,113.999996520996,2|0,0:0|0:0,0:0:0:0:
234,156,8854,1,2,0:0:0:0:
301,138,8969,1,0,0:0:0:0:
344,34,9200,6,0,P|328:121|371:215,1,170.999994781494,4|0,0:0|0:0,0:0:0:0:
451,147,9662,2,0,P|466:210|423:270,1,113.999996520996,8|0,0:0|0:0,0:0:0:0:
243,328,10123,2,0,L|317:358,1,56.9999982604981
243,328,10354,2,0,P|302:329|353:292,2,113.999996520996,0|8|0,0:0|0:0|0:0,0:0:0:0:
1,276,11046,6,0,P|46:247|105:248,1,113.999996520996,2|0,0:0|0:0,0:0:0:0:
277,252,11508,2,0,L|266:189,2,56.9999982604981,8|2|0,0:0|0:0|0:0,0:0:0:0:
324,85,11969,2,0,L|344:197,1,113.999996520996,2|0,0:0|0:0,0:0:0:0:
434,261,12431,2,0,L|413:148,1,113.999996520996,8|2,0:0|0:0,0:0:0:0:
385,33,12892,6,0,P|313:88|216:80,1,170.999994781494
60,56,13354,2,0,P|115:43|172:53,1,113.999996520996,8|0,0:0|0:0,0:0:0:0:
139,172,13816,2,0,L|93:218,1,56.9999982604981
139,172,14046,2,0,P|129:227|142:282,2,113.999996520996,0|8|0,0:0|0:0|0:0,0:0:0:0:
251,226,14739,5,2,0:0:0:0:
251,226,14969,2,0,B|314:205|365:251|365:251|409:234,2,170.999994781494,0|2|0,0:0|0:0|0:0,0:0:0:0:
283,339,15892,1,2,0:0:0:0:
238,350,16008,1,0,0:0:0:0:
193,339,16123,1,2,0:0:0:0:
66,349,16354,1,0,0:0:0:0:
1,239,16585,6,0,B|-27:187|4:121|4:121|70:157,1,170.999994781494,0|0,0:0|0:0,0:0:0:0:
16,37,17046,2,0,L|128:102,1,113.999996520996,8|0,0:0|0:0,0:0:0:0:
233,68,17508,1,0,0:0:0:0:
277,76,17623,1,0,0:0:0:0:
322,68,17739,1,0,0:0:0:0:
431,69,17969,2,0,P|377:54|317:71,1,113.999996520996,8|0,0:0|0:0,0:0:0:0:
381,250,18431,6,0,P|362:197|394:118,1,113.999996520996,2|0,0:0|0:0,0:0:0:0:
456,194,18892,2,0,L|516:192,2,56.9999982604981,8|2|0,0:0|0:0|0:0,0:0:0:0:
282,241,19354,2,0,L|155:245,1,113.999996520996,2|0,0:0|0:0,0:0:0:0:
0,114,19816,2,0,L|127:110,1,113.999996520996,8|2,0:0|0:0,0:0:0:0:
136,334,20277,6,0,P|81:284|98:181,1,170.999994781494
124,4,20738,2,0,P|135:68|83:135,1,113.999996520996,8|0,0:0|0:0,0:0:0:0:
281,157,21200,2,0,L|257:209,1,56.9999982604981
281,157,21431,2,0,P|222:184|143:151,1,113.999996520996,0|8,0:0|0:0,0:0:0:0:
176,176,21892,1,0,0:0:0:0:
215,68,22123,5,2,0:0:0:0:
332,48,22354,2,0,L|456:72,1,113.999996520996,2|0,0:0|0:0,0:0:0:0:
512,161,22700,2,0,L|388:137,1,113.999996520996,2|0,0:0|0:0,0:0:0:0:
332,205,23046,2,0,L|456:229,1,113.999996520996,2|0,0:0|0:0,0:0:0:0:
512,319,23392,2,0,L|388:295,1,113.999996520996,2|0,0:0|0:0,0:0:0:0:
400,297,23739,1,2,0:0:0:0:
278,340,23969,5,4,0:0:0:0:
92,353,24200,2,0,P|135:376|209:361,1,113.999996520996,2|0,0:0|0:0,0:0:0:0:
171,186,24662,2,0,L|149:328,1,113.999996520996,2|0,0:0|0:0,0:0:0:0:
87,220,25008,2,0,L|110:75,1,113.999996520996,2|0,0:0|0:0,0:0:0:0:
2,49,25354,1,2,0:0:0:0:
104,108,25585,1,0,0:0:0:0:
286,69,25816,6,0,P|223:53|159:78,1,113.999996520996,0|2,0:0|0:0,0:0:0:0:
227,246,26277,2,0,L|230:108,1,113.999996520996
225,322,26739,2,0,L|223:396,2,56.9999982604981,0|2|0,0:0|0:0|0:0,0:0:0:0:
177,185,27200,2,0,P|237:168|288:195,1,113.999996520996,2|0,0:0|0:0,0:0:0:0:
468,236,27662,6,0,P|408:249|357:226,2,113.999996520996,0|2|0,0:0|0:0|0:0,0:0:0:0:
512,43,28354,2,0,L|504:205,1,113.999996520996,2|0,0:0|0:0,0:0:0:0:
418,160,28700,2,0,L|407:46,1,113.999996520996,2|0,0:0|0:0,0:0:0:0:
303,69,29046,2,0,L|339:226,1,113.999996520996,2|0,0:0|0:0,0:0:0:0:
409,276,29508,5,0,0:0:0:0:
409,276,29739,1,2,0:0:0:0:
103,276,29969,5,0,0:0:0:0:
103,276,30200,1,2,0:0:0:0:
256,160,30431,5,0,0:0:0:0:
256,160,30662,1,2,0:0:0:0:
256,304,30892,6,0,L|256:368,2,56.9999982604981,0|2|0,0:0|0:0|0:0,0:0:0:0:
194,133,31354,6,0,P|276:162|353:137,1,170.999994781494,4|0,0:0|0:0,0:0:0:0:
151,62,31816,2,0,P|115:115|130:184,1,113.999996520996,8|0,0:0|0:0,0:0:0:0:
164,309,32277,2,0,L|187:384,2,56.9999982604981
66,259,32739,1,8,0:0:0:0:
118,163,32969,1,0,0:0:0:0:
216,210,33200,5,2,0:0:0:0:
422,114,33431,1,0,0:0:0:0:
422,114,33546,2,0,P|368:139|299:132,1,113.999996520996,2|0,0:0|0:0,0:0:0:0:
243,118,33892,1,2,0:0:0:0:
66,92,34123,1,0,0:0:0:0:
66,92,34238,2,0,P|117:78|189:104,1,113.999996520996,2|0,0:0|0:0,0:0:0:0:
243,118,34585,2,0,P|223:180|254:238,1,113.999996520996,10|0,0:0|0:0,0:0:0:0:
467,163,35046,6,0,P|384:190|287:164,1,170.999994781494
264,329,35508,2,0,P|267:270|211:202,1,113.999996520996,8|0,0:0|0:0,0:0:0:0:
79,293,35969,2,0,L|118:339,1,56.9999982604981
79,293,36200,2,0,P|134:309|203:280,2,113.999996520996,0|8|0,0:0|0:0|0:0,0:0:0:0:
135,164,36892,5,0,0:0:0:0:
256,229,37123,2,0,L|330:268,1,56.9999982604981,2|0,0:0|0:0,0:0:0:0:
469,225,37469,2,0,L|418:198,1,56.9999982604981,2|0,0:0|0:0,0:0:0:0:
316,86,37816,5,2,0:0:0:0:
268,66,37931,1,0,0:0:0:0:
217,70,38046,1,2,0:0:0:0:
174,99,38162,1,0,0:0:0:0:
124,86,38277,1,10,0:0:0:0:
94,126,38392,1,0,0:0:0:0:
94,177,38508,1,2,0:0:0:0:
123,219,38623,1,0,0:0:0:0:
12,241,38739,6,0,P|96:217|200:253,1,170.999994781494,4|0,0:0|0:0,0:0:0:0:
368,267,39201,2,0,P|313:281|239:253,1,113.999996520996,8|0,0:0|0:0,0:0:0:0:
440,215,39662,2,0,L|480:260,1,56.9999982604981
440,215,39892,2,0,P|456:271|434:326,1,113.999996520996,0|8,0:0|0:0,0:0:0:0:
437,321,40354,1,0,0:0:0:0:
346,265,40585,5,2,0:0:0:0:
344,154,40816,1,0,0:0:0:0:
344,154,40931,2,0,P|299:115|235:114,1,113.999996520996,2|0,0:0|0:0,0:0:0:0:
182,147,41277,1,2,0:0:0:0:
17,136,41508,1,0,0:0:0:0:
17,136,41623,2,0,P|62:175|126:176,1,113.999996520996,2|0,0:0|0:0,0:0:0:0:
182,147,41970,2,0,P|173:93|205:46,1,113.999996520996,10|0,0:0|0:0,0:0:0:0:
417,108,42431,6,0,P|323:124|246:108,1,170.999994781494
390,42,42893,2,0,P|334:52|256:33,1,113.999996520996,8|0,0:0|0:0,0:0:0:0:
147,20,43354,2,0,L|89:21,1,56.9999982604981
147,20,43585,2,0,P|96:55|82:122,2,113.999996520996,0|8|0,0:0|0:0|0:0,0:0:0:0:
80,198,44277,5,2,0:0:0:0:
157,260,44508,2,0,L|107:336,1,56.9999982604981,2|0,0:0|0:0,0:0:0:0:
355,260,44854,2,0,L|405:336,1,56.9999982604981,2|0,0:0|0:0,0:0:0:0:
256,324,45200,2,0,L|256:396,1,56.9999982604981,2|0,0:0|0:0,0:0:0:0:
256,240,45546,5,2,0:0:0:0:
256,216,45662,1,8,0:0:0:0:
256,192,45777,1,2,0:0:0:0:
256,168,45892,1,0,0:0:0:0:
256,144,46008,1,2,0:0:0:0:
256,120,46123,6,0,P|344:142|442:71,1,190,6|0,0:0|0:0,0:0:0:0:
446,208,46816,2,0,L|463:316,1,95,2|0,0:0|0:0,0:0:0:0:
346,314,47277,2,0,L|351:197,2,95,0|2|0,0:0|0:0|0:0,0:0:0:0:
232,293,47969,2,0,L|256:196,1,95,2|0,0:0|0:0,0:0:0:0:
251,86,48431,1,0,0:0:0:0:
140,56,48662,2,0,P|87:47|41:64,1,95,2|0,0:0|0:0,0:0:0:0:
98,161,49123,2,0,P|58:173|6:164,2,95,2|2|0,0:0|0:0|0:0,0:0:0:0:
209,133,49816,6,0,P|248:120|300:129,1,95,0|2,0:0|0:0,0:0:0:0:
433,252,50277,2,0,P|393:264|341:255,1,95,0|2,0:0|0:0,0:0:0:0:
381,79,50739,2,0,P|393:118|384:170,1,95,0|2,0:0|0:0,0:0:0:0:
259,303,51200,2,0,P|246:263|255:211,1,95,0|2,0:0|0:0,0:0:0:0:
342,255,51662,5,0,0:0:0:0:
342,255,51892,1,2,0:0:0:0:
170,129,52123,1,0,0:0:0:0:
170,129,52353,1,2,0:0:0:0:
373,56,52585,1,0,0:0:0:0:
373,56,52816,1,2,0:0:0:0:
139,328,53046,1,0,0:0:0:0:
139,328,53277,1,2,0:0:0:0:
117,235,53508,6,0,P|168:236|223:279,2,95,0|2|0,0:0|0:0|0:0,0:0:0:0:
45,297,54200,2,0,P|114:238|80:127,1,190,2|0,0:0|0:0,0:0:0:0:
57,63,54892,2,0,P|100:51|168:79,1,95
231,108,55354,1,0,0:0:0:0:
324,89,55585,1,2,0:0:0:0:
417,108,55816,1,0,0:0:0:0:
499,62,56046,2,0,P|502:150|464:188,1,142.5,2|0,0:0|0:0,0:0:0:0:
416,231,56508,2,0,P|435:284|469:303,2,95,2|0|2,0:0|0:0|0:0,0:0:0:0:
330,271,57200,6,0,L|366:379,1,95,0|2,0:0|0:0,0:0:0:0:
182,271,57662,2,0,L|146:379,1,95,0|2,0:0|0:0,0:0:0:0:
256,237,58123,2,0,L|256:94,2,142.5,0|2|0,0:0|0:0|0:0,0:0:0:0:
344,176,59046,2,0,P|237:147|156:185,1,190,0|2,0:0|0:0,0:0:0:0:
90,232,59739,2,0,L|32:278,2,47.5,2|0|2,0:0|0:0|0:0,0:0:0:0:
167,175,60200,1,2,0:0:0:0:
210,260,60431,2,0,P|254:270|325:247,1,95
402,291,60892,5,4,0:0:0:0:
473,215,61123,1,2,0:0:0:0:
400,139,61354,2,0,L|337:138,1,52.2500015945435,0|2,0:0|0:0,0:0:0:0:
292,98,61585,2,0,L|206:98,1,52.2500015945435,0|2,0:0|0:0,0:0:0:0:
178,67,61816,1,2,0:0:0:0:
75,50,62046,5,0,0:0:0:0:
19,138,62277,2,0,L|48:198,1,52.2500015945435,0|2,0:0|0:0,0:0:0:0:
15,248,62508,2,0,L|44:308,1,52.2500015945435,0|2,0:0|0:0,0:0:0:0:
74,354,62739,2,0,B|138:364|178:322|178:322|301:322,1,209.000006378174,2|0,0:0|0:0,0:0:0:0:
390,285,63431,1,2,0:0:0:0:
366,257,63546,1,2,0:0:0:0:
330,246,63662,2,0,L|163:246,2,156.750004783631,2|2|0,0:0|0:0|0:0,0:0:0:0:
228,171,64585,6,0,L|407:171,2,156.750004783631,2|2|0,0:0|0:0|0:0,0:0:0:0:
107,135,65508,1,0,0:0:0:0:
195,46,65739,1,0,0:0:0:0:
317,68,65969,2,0,P|350:116|419:120,1,104.500003189087,0|2,0:0|0:0,0:0:0:0:
497,196,66431,6,0,P|524:272|505:359,2,156.750004783631,2|2|0,0:0|0:0|0:0,0:0:0:0:
385,241,67354,2,0,P|350:273|290:279,1,104.500003189087,0|2,0:0|0:0,0:0:0:0:
297,151,67816,1,0,0:0:0:0:
297,151,68046,1,2,0:0:0:0:
334,31,68277,6,0,P|240:36|183:100,1,156.750004783631,2|0,0:0|0:0,0:0:0:0:
185,94,68739,1,2,0:0:0:0:
173,111,68854,1,2,0:0:0:0:
162,129,68969,1,2,0:0:0:0:
149,145,69085,2,0,P|104:184|10:189,1,156.750004783631,2|0,0:0|0:0,0:0:0:0:
63,117,69662,2,0,L|108:264,1,104.500003189087,2|0,0:0|0:0,0:0:0:0:
40,353,70123,6,0,L|7:231,1,104.500003189087,2|0,0:0|0:0,0:0:0:0:
133,215,70585,1,0,0:0:0:0:
250,259,70816,2,0,P|342:333|503:279,1,261.250007972718,2|0,0:0|0:0,0:0:0:0:
452,239,71508,2,0,L|431:186,1,52.2500015945435,0|2,0:0|0:0,0:0:0:0:
364,166,71739,2,0,L|343:113,1,52.2500015945435,0|2,0:0|0:0,0:0:0:0:
319,48,71969,6,0,P|265:45|207:110,1,104.500003189087,2|0,0:0|0:0,0:0:0:0:
63,137,72431,2,0,P|117:140|175:75,1,104.500003189087,2|2,0:0|0:0,0:0:0:0:
240,153,72892,2,0,P|239:233|169:314,2,156.750004783631,2|2|0,0:0|0:0|0:0,0:0:0:0:
114,329,73816,6,0,P|231:295|318:336,1,209.000006378174,2|0,0:0|0:0,0:0:0:0:
426,365,74508,1,0,0:0:0:0:
509,271,74739,2,0,B|495:220|457:205|457:205|364:190,1,156.750004783631,2|2,0:0|0:0,0:0:0:0:
320,207,75200,2,0,P|265:218|196:193,1,104.500003189087,0|2,0:0|0:0,0:0:0:0:
269,91,75662,1,4,0:0:0:0:
256,192,81200,12,0,82585,0:0:0:0:
341,201,83046,6,0,P|266:157|235:82,1,170.999994781494,4|0,0:0|0:0,0:0:0:0:
423,188,83508,2,0,P|405:250|343:283,1,113.999996520996,8|0,0:0|0:0,0:0:0:0:
378,58,83969,2,0,L|440:-2,2,56.9999982604981
378,58,84431,1,8,0:0:0:0:
256,32,84661,1,0,0:0:0:0:
134,58,84892,5,2,0:0:0:0:
4,13,85123,1,0,0:0:0:0:
4,13,85238,2,0,P|-4:73|29:134,1,113.999996520996,2|0,0:0|0:0,0:0:0:0:
58,181,85584,1,2,0:0:0:0:
3,351,85816,1,0,0:0:0:0:
3,351,85931,2,0,P|-5:291|28:229,1,113.999996520996,2|0,0:0|0:0,0:0:0:0:
58,181,86277,2,0,P|126:193|178:170,1,113.999996520996,10|0,0:0|0:0,0:0:0:0:
417,158,86738,6,0,P|334:131|237:157,1,170.999994781494
262,342,87200,2,0,P|265:283|209:215,1,113.999996520996,8|0,0:0|0:0,0:0:0:0:
58,181,87661,2,0,L|97:227,1,56.9999982604981
58,181,87892,2,0,P|126:193|178:170,2,113.999996520996,0|8|0,0:0|0:0|0:0,0:0:0:0:
109,39,88584,5,0,0:0:0:0:
108,194,88815,2,0,L|109:265,1,56.9999982604981,2|0,0:0|0:0,0:0:0:0:
227,365,89162,2,0,L|226:294,1,56.9999982604981,2|0,0:0|0:0,0:0:0:0:
219,148,89508,5,2,0:0:0:0:
243,102,89623,1,0,0:0:0:0:
289,77,89738,1,2,0:0:0:0:
340,82,89854,1,0,0:0:0:0:
385,48,89969,1,10,0:0:0:0:
436,47,90084,1,0,0:0:0:0:
479,75,90200,1,2,0:0:0:0:
499,121,90315,1,0,0:0:0:0:
512,239,90431,6,0,P|432:258|348:234,1,170.999994781494,4|0,0:0|0:0,0:0:0:0:
199,354,90893,2,0,P|213:299|253:259,1,113.999996520996,8|0,0:0|0:0,0:0:0:0:
231,74,91354,2,0,L|299:91,1,56.9999982604981
231,74,91584,2,0,P|272:114|281:173,2,113.999996520996,0|8|0,0:0|0:0|0:0,0:0:0:0:
173,169,92277,5,2,0:0:0:0:
112,269,92508,1,0,0:0:0:0:
112,269,92623,2,0,P|165:285|230:269,1,113.999996520996,2|0,0:0|0:0,0:0:0:0:
295,249,92969,1,2,0:0:0:0:
480,227,93200,1,0,0:0:0:0:
480,227,93315,2,0,P|427:211|362:227,1,113.999996520996,2|0,0:0|0:0,0:0:0:0:
295,249,93662,2,0,P|266:193|272:129,1,113.999996520996,10|0,0:0|0:0,0:0:0:0:
256,32,94123,5,8,0:0:0:0:
488,192,94469,1,8,0:0:0:0:
256,352,94816,1,8,0:0:0:0:
24,192,95162,1,8,0:0:0:0:
256,32,95508,2,0,B|248:46|248:46|263:46|263:46|256:59|256:59|256:152,1,113.999996520996,8|0,0:0|0:0,0:0:0:0:
256,256,95969,5,2,0:0:0:0:
141,229,96200,2,0,L|91:153,1,56.9999982604981,2|0,0:0|0:0,0:0:0:0:
371,229,96546,2,0,L|421:153,1,56.9999982604981,2|0,0:0|0:0,0:0:0:0:
200,120,96892,6,0,L|216:200,1,56.9999982604981,2|0,0:0|0:0,0:0:0:0:
312,120,97123,2,0,L|296:200,1,56.9999982604981,2|0,0:0|0:0,0:0:0:0:
304,282,97354,1,10,0:0:0:0:
285,294,97469,1,2,0:0:0:0:
263,300,97584,1,2,0:0:0:0:
240,302,97700,1,2,0:0:0:0:
219,299,97816,6,0,P|120:263|5:340,1,209.000006378174,4|0,0:0|0:0,0:0:0:0:
125,376,98508,1,2,0:0:0:0:
16,218,98739,2,0,L|6:90,1,104.500003189087,0|2,0:0|0:0,0:0:0:0:
107,37,99200,2,0,L|118:161,1,104.500003189087,0|2,0:0|0:0,0:0:0:0:
16,218,99662,1,0,0:0:0:0:
125,347,99892,1,2,0:0:0:0:
40,308,100123,1,0,0:0:0:0:
212,312,100354,1,2,0:0:0:0:
297,220,100585,2,0,P|224:188|122:226,2,156.750004783631,0|2|2,0:0|0:0|0:0,0:0:0:0:
489,172,101508,6,0,P|416:187|343:155,1,156.750004783631,0|2,0:0|0:0,0:0:0:0:
427,69,102200,2,0,L|406:245,1,156.750004783631,2|2,0:0|0:0,0:0:0:0:
287,26,102892,2,0,L|274:141,1,104.500003189087,2|0,0:0|0:0,0:0:0:0:
260,252,103354,1,0,0:0:0:0:
155,324,103585,2,0,B|80:315|80:315|45:346|0:336,2,156.750004783631,2|2|0,0:0|0:0|0:0,0:0:0:0:
21,255,104508,1,2,0:0:0:0:
4,121,104739,2,0,L|-1:67,1,52.2500015945435,0|2,0:0|0:0,0:0:0:0:
72,111,104969,2,0,L|66:55,1,52.2500015945435,0|2,0:0|0:0,0:0:0:0:
137,136,105200,6,0,P|187:151|247:136,1,104.500003189087,0|2,0:0|0:0,0:0:0:0:
467,100,105662,1,0,0:0:0:0:
467,100,105777,2,0,P|387:88|310:115,1,156.750004783631,2|0,0:0|0:0,0:0:0:0:
81,277,106469,2,0,P|160:288|238:262,1,156.750004783631,2|0,0:0|0:0,0:0:0:0:
23,199,107046,2,0,P|-10:269|29:359,2,156.750004783631,2|2|0,0:0|0:0|0:0,0:0:0:0:
188,349,107969,1,0,0:0:0:0:
187,349,108085,2,0,P|219:279|197:206,1,156.750004783631,2|0,0:0|0:0,0:0:0:0:
132,23,108662,5,2,0:0:0:0:
132,23,108777,1,2,0:0:0:0:
132,23,108892,2,0,P|99:93|121:165,2,156.750004783631,2|2|0,0:0|0:0|0:0,0:0:0:0:
201,100,109816,2,0,L|34:88,2,156.750004783631,2|2|0,0:0|0:0|0:0,0:0:0:0:
253,146,110623,1,2,0:0:0:0:
307,190,110739,2,0,L|474:202,1,156.750004783631,2|2,0:0|0:0,0:0:0:0:
463,201,111431,1,2,0:0:0:0:
401,126,111662,2,0,P|367:195|426:294,2,156.750004783631,2|2|0,0:0|0:0|0:0,0:0:0:0:
461,53,112585,6,0,P|401:34|350:51,1,104.500003189087,4|2,0:0|0:0,0:0:0:0:
288,65,113046,2,0,P|250:75|190:56,1,104.500003189087,0|2,0:0|0:0,0:0:0:0:
124,0,113508,2,0,P|105:60|114:98,1,104.500003189087,0|2,0:0|0:0,0:0:0:0:
24,102,113969,2,0,P|34:140|81:183,1,104.500003189087,0|2,0:0|0:0,0:0:0:0:
69,270,114431,2,0,L|141:301,3,52.2500015945435,0|2|0|2,0:0|0:0|0:0|0:0,0:0:0:0:
188,275,114892,2,0,L|260:306,3,52.2500015945435,0|2|0|2,0:0|0:0|0:0|0:0,0:0:0:0:
305,327,115354,6,0,L|328:403,1,52.2500015945435,0|2,0:0|0:0,0:0:0:0:
347,233,115585,2,0,L|370:309,1,52.2500015945435,0|2,0:0|0:0,0:0:0:0:
389,139,115816,2,0,L|412:215,1,52.2500015945435,0|2,0:0|0:0,0:0:0:0:
432,45,116046,2,0,L|455:121,1,52.2500015945435,0|2,0:0|0:0,0:0:0:0:
389,139,116277,2,0,P|308:111|235:134,2,156.750004783631,2|2|2,0:0|0:0|0:0,0:0:0:0:
389,139,117316,1,2,0:0:0:0:
301,363,117662,2,0,L|307:252,1,104.500003189087,0|2,0:0|0:0,0:0:0:0:
240,181,118123,6,0,P|316:157|392:195,1,156.750004783631,2|0,0:0|0:0,0:0:0:0:
164,216,118816,2,0,P|88:240|12:202,1,156.750004783631,0|2,0:0|0:0,0:0:0:0:
102,35,119508,2,0,L|96:146,1,104.500003189087,0|2,0:0|0:0,0:0:0:0:
164,216,119969,6,0,P|240:192|307:221,2,156.750004783631,0|2|2,0:0|0:0|0:0,0:0:0:0:
164,216,121008,1,2,0:0:0:0:
473,276,121354,2,0,P|424:283|361:252,1,104.500003189087,0|2,0:0|0:0,0:0:0:0:
432,193,121816,6,0,P|459:124|433:25,1,156.750004783631,0|2,0:0|0:0,0:0:0:0:
235,25,122508,2,0,P|208:94|234:193,1,156.750004783631,0|2,0:0|0:0,0:0:0:0:
277,343,123200,2,0,P|279:288|250:234,1,104.500003189087,0|2,0:0|0:0,0:0:0:0:
181,180,123662,6,0,P|93:169|42:126,2,156.750004783631,0|2|2,0:0|0:0|0:0,0:0:0:0:
277,148,124585,2,0,P|316:69|374:36,2,156.750004783631,0|2|2,0:0|0:0|0:0,0:0:0:0:
258,244,125508,1,4,0:0:0:0:
412,174,125969,6,0,P|456:205|516:206,1,104.500003189087,2|0,0:0|0:0,0:0:0:0:
368,112,126431,2,0,P|372:58|343:6,1,104.500003189087,0|0,0:0|0:0,0:0:0:0:
335,181,126892,2,0,P|286:203|255:255,1,104.500003189087,2|0,0:0|0:0,0:0:0:0:
353,316,127354,6,0,P|280:363|178:332,1,170.999994781494,4|0,0:0|0:0,0:0:0:0:
17,328,127816,2,0,P|69:308|145:334,1,113.999996520996,8|0,0:0|0:0,0:0:0:0:
258,244,128277,2,0,L|247:184,2,56.9999982604981
353,317,128739,1,8,0:0:0:0:
467,273,128969,1,0,0:0:0:0:
373,199,129200,5,2,0:0:0:0:
440,75,129431,1,0,0:0:0:0:
440,75,129546,2,0,P|383:57|319:80,1,113.999996520996,2|0,0:0|0:0,0:0:0:0:
288,132,129892,1,2,0:0:0:0:
130,191,130123,1,0,0:0:0:0:
130,191,130238,2,0,P|184:208|250:178,1,113.999996520996,2|0,0:0|0:0,0:0:0:0:
288,132,130585,2,0,P|226:112|171:145,1,113.999996520996,10|0,0:0|0:0,0:0:0:0:
224,355,131046,6,0,P|212:267|248:172,1,170.999994781494
294,332,131508,2,0,P|285:269|329:191,1,113.999996520996,8|0,0:0|0:0,0:0:0:0:
480,285,131969,2,0,L|425:330,1,56.9999982604981
480,285,132200,2,0,P|427:300|372:284,2,113.999996520996,0|8|0,0:0|0:0|0:0,0:0:0:0:
427,129,132892,5,0,0:0:0:0:
294,41,133123,2,0,L|228:61,1,56.9999982604981,2|0,0:0|0:0,0:0:0:0:
94,47,133469,2,0,L|28:67,1,56.9999982604981,2|0,0:0|0:0,0:0:0:0:
1,201,133816,5,2,0:0:0:0:
32,241,133931,1,0,0:0:0:0:
80,259,134046,1,2,0:0:0:0:
131,248,134162,1,0,0:0:0:0:
170,215,134277,1,10,0:0:0:0:
221,204,134393,1,0,0:0:0:0:
269,222,134508,1,2,0:0:0:0:
300,262,134623,1,0,0:0:0:0:
288,348,134739,6,0,P|299:264|382:186,1,170.999994781494,4|0,0:0|0:0,0:0:0:0:
475,83,135201,2,0,P|471:137|417:191,1,113.999996520996,8|0,0:0|0:0,0:0:0:0:
253,88,135662,2,0,L|305:45,1,56.9999982604981
252,88,135892,2,0,P|308:72|363:94,1,113.999996520996,0|8,0:0|0:0,0:0:0:0:
358,90,136354,1,0,0:0:0:0:
306,187,136585,5,2,0:0:0:0:
362,288,136816,1,0,0:0:0:0:
362,288,136931,2,0,P|315:305|245:285,1,113.999996520996,2|0,0:0|0:0,0:0:0:0:
180,315,137277,1,2,0:0:0:0:
0,343,137508,1,0,0:0:0:0:
0,343,137623,2,0,P|47:326|117:346,1,113.999996520996,2|0,0:0|0:0,0:0:0:0:
180,315,137970,2,0,P|181:261|221:219,1,113.999996520996,10|0,0:0|0:0,0:0:0:0:
338,22,138431,6,0,P|329:118|273:175,1,170.999994781494
140,61,138893,2,0,P|185:91|208:144,1,113.999996520996,8|0,0:0|0:0,0:0:0:0:
290,304,139354,2,0,L|223:309,1,56.9999982604981
289,303,139585,2,0,P|244:273|221:220,2,113.999996520996,0|8|0,0:0|0:0|0:0,0:0:0:0:
335,191,140277,5,2,0:0:0:0:
414,319,140508,2,0,L|364:243,1,56.9999982604981,2|0,0:0|0:0,0:0:0:0:
98,319,140854,2,0,L|148:243,1,56.9999982604981,2|0,0:0|0:0,0:0:0:0:
314,370,141200,6,0,L|298:290,1,56.9999982604981,2|0,0:0|0:0,0:0:0:0:
198,370,141431,2,0,L|214:290,1,56.9999982604981,2|0,0:0|0:0,0:0:0:0:
256,232,141662,2,0,L|256:176,1,56.9999982604981,0|2,0:0|0:0,0:0:0:0:
256,96,141892,2,0,L|256:40,1,56.9999982604981,0|2,0:0|0:0,0:0:0:0:
256,39,142585,1,0,1:0:0:0:
256,192,142700,12,0,145816,0:0:0:0:
