osu file format v9

[General]
AudioFilename: Zero Fill Love (Original Ver) - Pangya Season4 Title Song.mp3
AudioLeadIn: 0
PreviewTime: 63524
Countdown: 0
SampleSet: Soft
StackLeniency: 0.6
Mode: 0
LetterboxInBreaks: 0

[Editor]
Bookmarks: 1820,16365,30910,45456,53638,63638,78183,92729
DistanceSpacing: 1
BeatDivisor: 4
GridSize: 8

[Metadata]
Title:Zero Fill Love
Artist:ESTi
Creator:ykcarrot
Version:Moon Fill Love
Source:Pangya
Tags:bmin11 Sanjenin Nagi -U MoonFragrance Sanch Miku Online Season4 Delight English Japanese Korean

[Difficulty]
HPDrainRate:7
CircleSize:4
OverallDifficulty:7
ApproachRate:7
SliderMultiplier:1.8
SliderTickRate:1

[Events]
//Background and Video events
0,0,"1024x768_9.jpg"
Video,580,"PYS4_promotion.avi"
//Break Periods
//Storyboard Layer 0 (Background)
//Storyboard Layer 1 (Fail)
//Storyboard Layer 2 (Pass)
//Storyboard Layer 3 (Foreground)
//Storyboard Sound Samples
//Background Colour Transformations
3,100,163,162,255

[TimingPoints]
1820,454.545454545455,4,2,2,70,1,0
15342,-100,4,1,1,75,0,0
16251,-100,4,2,1,75,0,0
63070,-100,4,2,1,0,0,0
63297,-100,4,2,1,75,0,0
63638,-100,4,2,1,75,0,1
76365,-100,4,2,1,70,0,0
77160,-100,4,1,1,75,0,0
78070,-100,4,2,1,70,0,0
78183,-100,4,2,1,70,0,1
90910,-100,4,2,1,70,0,0
100115,-100,4,2,0,70,0,0

[Colours]
Combo1 : 180,104,255
Combo2 : 74,255,74
Combo3 : 70,163,255
Combo4 : 255,104,104

[HitObjects]
256,40,1820,1,0
256,40,2274,1,0
192,208,2729,2,0,B|152:272|192:336,2,135
328,208,3751,2,0,B|368:272|328:336,1,135
256,280,4320,1,0
256,280,4547,2,0,B|256:184,2,90
176,328,5229,1,0
176,328,5342,1,0
176,328,5456,6,0,B|120:240|176:160,1,180
312,40,6365,2,0,B|352:104|312:168,1,135
256,288,7047,1,0
200,164,7388,2,0,B|160:100|200:36,1,135
290,36,7956,1,0
379,36,8183,2,0,B|419:100|379:164,1,135
328,288,8865,5,0
240,288,9092,2,0,B|152:344|72:288,1,180,4|2
71,197,9774,1,0
72,104,10001,2,0,B|160:48|240:104,2,180,0|2|0
176,192,11251,2,0,B|136:256|176:320,1,135,2|0
240,256,11820,2,0,B|328:256,2,90,0|2|0
152,256,12501,1,2
152,256,12615,1,0
152,256,12729,6,0,B|96:176|152:88,1,180,2|8
296,192,13638,1,2
368,144,13865,1,0
368,144,13979,1,0
368,144,14092,2,0,B|416:144|440:96,2,90,8|0|0
296,88,14774,1,2
208,88,15001,1,8
208,88,15229,2,0,B|112:88,1,90,0|4
32,192,15797,5,4
118,296,16138,5,4
208,296,16365,6,0,B|304:296,2,90,4|2|8
168,216,17047,1,2
216,136,17274,2,0,B|262:58,1,90,0|2
288,192,17729,2,0,B|352:129,1,90,8|2
328,272,18183,6,0,B|406:228,2,90,0|2|8
256,320,18865,1,2
184,272,19092,1,0
184,272,19206,1,2
184,272,19320,2,0,B|105:228,2,90,10|8|2
212,188,20001,6,0,B|188:148|212:100,1,90,0|2
301,101,20456,2,0,B|324:147|300:187,1,90,8|2
256,264,20910,1,0
256,264,21024,1,8
256,264,21138,2,0,B|256:352,2,90,2|8|2
208,184,21820,5,0
300,188,22047,1,2
392,188,22274,2,0,B|432:220|432:268,2,90,8|2|0
344,112,22956,1,8
256,112,23183,1,8
236,112,23297,1,0
220,112,23410,1,0
200,112,23524,1,0
184,112,23638,6,0,B|88:112,2,90,4|2|8
224,192,24320,1,2
184,272,24547,2,0,B|138:349,1,90,0|2
111,216,25001,2,0,B|47:279,1,90,8|2
72,136,25456,6,0,B|-8:176,2,90,0|2|8
160,104,26138,1,2
256,72,26365,1,0
256,72,26479,1,2
256,72,26592,2,0,B|336:32,2,90,10|8|2
300,152,27274,6,0,B|324:192|300:240,1,90,0|2
211,239,27729,2,0,B|188:193|212:153,1,90,8|2
256,72,28183,1,0
256,72,28297,1,8
256,72,28410,2,0,B|304:72|336:24,2,90,2|8|2
168,72,29092,1,4
256,192,29319,12,0,30909
256,192,31365,5,2
80,144,31819,1,0
80,144,31933,1,0
80,144,32047,2,0,B|80:96|120:64,2,90,0|2|0
80,232,32729,5,0
80,232,32842,1,0
80,232,32956,2,0,B|80:280|120:312,2,90,0|2|0
160,192,33638,2,0,B|296:192,2,135,2|0|2
72,192,34547,5,0
72,192,34660,1,0
72,192,34774,2,0,B|72:144|120:112,2,90,0|2|0
120,264,35456,2,0,B|264:264,1,135
255,264,35910,1,2
344,248,36138,1,0
432,240,36365,5,0
432,240,36479,1,0
432,240,36592,2,0,B|432:288|472:320,2,90,0|2|0
432,152,37274,1,0
432,152,37388,1,0
432,152,37501,2,0,B|432:104|472:72,2,90,2|2|0
352,200,38183,5,0
352,200,38297,1,0
352,200,38410,2,0,B|256:200,2,90,0|2|0
424,256,39092,2,0,B|464:192|424:128,2,135,2|0|2
352,200,40001,5,0
352,200,40115,1,0
352,200,40229,2,0,B|304:224|304:272,2,90,0|2|0
440,232,40910,1,0
424,144,41138,1,2
344,104,41365,2,0,B|280:64|216:104,1,135,2|0
216,103,41820,5,0
136,144,42047,1,0
48,120,42274,2,0,B|16:152|16:208,1,90,2|0
88,256,42729,2,0,B|104:312,1,45,0|2
184,272,43070,2,0,B|200:312,1,45,0|2
288,296,43410,1,0
376,296,43638,5,0
376,296,43751,1,0
376,296,43865,2,0,B|420:272|420:224,2,90,0|2|0
328,216,44547,1,8
240,200,44774,1,8
152,216,45001,1,8
136,220,45115,1,8
120,224,45229,1,0
104,220,45342,1,0
88,216,45456,6,0,B|8:168|48:56,1,180,4|2
137,57,46138,1,0
224,56,46365,2,0,B|320:56,2,90,0|0|2
80,168,47274,6,0,B|8:248|80:328,2,180,0|2|0
168,168,48410,1,0
256,168,48638,1,2
432,168,49092,6,0,B|504:248|432:328,2,180,0|2|0
344,168,50229,1,0
256,168,50456,1,2
168,168,50683,2,0,B|64:168,2,90,0|0|2
212,88,51365,1,0
300,88,51592,1,2
344,168,51819,5,0
344,168,52047,2,0,B|448:168,2,90,0|2|0
256,168,52729,2,0,B|184:244|256:328,1,180,0|2
168,168,53638,5,0
168,168,53865,2,0,B|64:168,2,90,0|2|0
256,168,54547,2,0,B|328:244|256:328,1,180,0|2
168,168,55456,5,0
212,88,55683,1,0
300,88,55910,1,2
344,168,56138,1,0
336,256,56365,6,0,B|256:328|176:256,3,180
256,96,58183,5,0
344,256,58638,1,0
168,256,59092,1,0
256,96,59547,1,0
256,192,60001,12,0,61592
256,24,62047,5,0
300,104,62274,1,0
212,104,62501,1,0
256,184,62729,2,2,B|248:192|248:192|264:200|264:200|248:208|248:208|264:216|264:216|248:224|248:224|264:232|264:232|248:240|248:240|264:248|264:248|248:256|248:256|264:264|264:264|248:272|248:272|264:280|264:280|248:288|248:288|264:296|264:296|248:304|248:304|264:312|264:312|248:320|248:320|264:328|264:328|248:336|248:336|256:344|256:344|256:368|256:368,1,360,0|4
360,344,63865,6,0,B|408:344|440:304,2,90,2|8|2
256,312,64547,1,0
152,344,64774,2,0,B|104:344|72:304,2,90,2|8|2
144,232,65456,6,0,B|88:160,1,90,0|2
208,144,65910,2,0,B|184:57,1,90,8|2
304,144,66365,2,0,B|328:56,1,90,0|2
368,232,66819,2,0,B|424:160,1,90,8|2
472,64,67274,5,0
472,64,67388,1,0
472,64,67501,2,0,B|448:24|392:24,2,90,2|8|2
392,136,68183,1,0
320,216,68410,2,0,B|344:256|400:256,2,90,2|8|2
256,128,69092,5,0
256,128,69206,1,0
256,128,69319,2,0,B|256:24,2,90,2|8|2
192,216,70001,2,0,B|168:256|112:256,2,90,0|10|8
256,128,70683,1,0
364,128,70910,5,0
364,128,71024,1,0
364,128,71138,2,0,B|468:128,2,90,2|8|2
256,128,71819,1,0
148,128,72047,2,0,B|44:128,2,90,2|8|2
200,224,72729,5,0
200,224,72842,1,0
200,224,72956,2,0,B|200:272|160:304,2,90,2|8|2
148,128,73638,2,0,B|148:80|188:48,1,90,0|2
364,127,74092,2,0,B|364:80|326:49,1,90,8|2
256,128,74547,5,0
256,128,74660,1,0
256,128,74774,2,0,B|256:224,2,90,2|8|2
344,64,75456,2,0,B|392:88|392:136,1,90,0|2
343,312,75910,2,0,B|391:288|391:242,1,90,8|2
296,192,76365,5,0
296,192,76479,1,0
296,192,76592,2,0,B|208:192,2,90,2|8|2
336,88,77274,5,4
464,192,77615,1,4
336,296,77956,1,4
232,296,78183,5,0
232,296,78297,1,0
232,296,78410,2,0,B|128:296,2,90,2|8|2
304,208,79092,2,0,B|394:208,1,90,0|2
232,128,79547,2,0,B|136:128,1,90,8|2
32,128,80001,5,0
32,128,80115,1,0
32,128,80229,2,0,B|32:80|80:56,2,90,2|8|2
32,232,80910,1,0
32,232,81024,1,0
32,232,81138,2,0,B|32:280|80:304,2,90,2|8|2
128,176,81819,5,0
128,176,81933,1,0
128,176,82047,2,0,B|218:176,2,90,2|8|2
386,256,82729,2,0,B|296:256,1,90,0|2
126,328,83183,2,0,B|216:328,1,90,8|2
328,328,83638,5,0
328,328,83751,1,0
328,328,83865,2,0,B|384:312|384:256,2,90,2|8|2
256,248,84547,2,0,B|256:158,1,90,0|10
152,240,85001,2,0,B|112:160,1,90,8|2
56,64,85456,5,4
160,64,85683,1,2
160,64,85797,1,0
160,64,85910,2,0,B|256:64,1,90,8|2
304,160,86365,1,0
304,160,86479,1,0
304,160,86592,2,0,B|208:160,2,90,2|8|2
416,160,87274,5,0
464,256,87501,1,2
464,256,87615,1,0
464,256,87729,2,0,B|440:304|392:304,2,90,8|2|0
416,160,88410,1,2
304,160,88638,2,0,B|256:136|256:88,2,90,8|2|0
416,160,89319,5,2
416,160,89433,1,0
416,160,89547,2,0,B|416:64,2,90,8|2|0
416,272,90229,2,0,B|416:320|376:360,1,90,2|8
304,280,90683,2,0,B|280:321|225:336,1,90,2|4
256,192,91138,12,0,92274
200,120,92729,6,0,B|184:72|224:32,2,90,4|2|8
256,192,93410,1,2
312,264,93638,2,0,B|328:312|288:352,2,90,0|2|8
256,192,94319,1,0
168,192,94547,5,0
168,192,94660,1,0
168,192,94774,2,0,B|120:176|80:216,2,90,2|8|2
256,192,95456,1,0
344,192,95683,1,10
344,192,95797,1,0
344,192,95910,2,0,B|392:208|432:168,2,90,8|2|0
296,112,96592,6,0,B|272:25,2,90,2|8|2
256,192,97274,1,0
256,192,97388,1,0
256,192,97501,2,0,B|192:128,2,90,2|8|2
240,280,98183,5,0
240,280,98297,1,8
240,280,98410,2,0,B|152:248,2,90,2|8|2
328,304,99092,1,0
416,320,99319,1,10
472,256,99547,1,8
460,244,99660,1,0
452,228,99774,1,0
448,212,99888,1,0
448,196,100001,6,0,B|448:104,2,90,4|2|0
360,176,100683,1,2
360,176,100910,2,0,B|360:86,1,90,0|2
272,152,101365,2,0,B|272:62,1,90,0|2
184,176,101819,2,0,B|184:80,1,90,0|2
96,152,102274,2,0,B|96:56,1,90,0|2
8,176,102729,2,0,B|8:86,1,90,0|2
8,264,103183,6,0,B|8:360,1,90,0|2
96,288,103638,2,0,B|96:384,1,90,0|2
184,264,104092,2,0,B|184:360,1,90,0|2
272,288,104547,2,0,B|272:384,1,90,0|2
360,264,105001,2,0,B|360:360,1,90,0|2
448,288,105456,6,0,B|464:248,1,45
448,96,105797,2,0,B|464:136,1,45
392,192,106138,1,0
312,232,106365,2,0,B|292:272|220:272|200:232,2,135
304,144,107274,5,0
320,136,107388,1,0
208,144,107615,1,0
192,136,107729,1,0
256,72,107956,1,0
256,72,108183,2,0,B|256:216,2,135
