osu file format v9

[General]
AudioFilename: Zero Fill Love (Original Ver) - Pangya Season4 Title Song.mp3
AudioLeadIn: 0
PreviewTime: 63524
Countdown: 0
SampleSet: Soft
StackLeniency: 0.6
Mode: 0
LetterboxInBreaks: 0

[Editor]
Bookmarks: 1820,16365,30910,45456,63638,78183,92729
DistanceSpacing: 1.5
BeatDivisor: 4
GridSize: 8

[Metadata]
Title:Zero Fill Love
Artist:ESTi
Creator:ykcarrot
Version:BMin Fill Love
Source:Pangya
Tags:bmin11 Sanjenin Nagi -U MoonFragrance Sanch Miku Online Season4 Delight English Japanese Korean

[Difficulty]
HPDrainRate:3
CircleSize:4
OverallDifficulty:3
ApproachRate:4
SliderMultiplier:0.999999999999999
SliderTickRate:1

[Events]
//Background and Video events
0,0,"1024x768_9.jpg"
Video,580,"PYS4_promotion.avi"
//Break Periods
//Storyboard Layer 0 (Background)
//Storyboard Layer 1 (Fail)
//Storyboard Layer 2 (Pass)
//Storyboard Layer 3 (Foreground)
//Storyboard Sound Samples
//Background Colour Transformations
3,100,163,162,255

[TimingPoints]
1820,454.545454545455,4,2,0,70,1,0
45456,-100,4,1,0,70,0,0
45570,-100,4,2,0,70,0,0
63638,-100,4,2,0,70,0,1
78182,-100,4,2,0,70,0,0
78183,-100,4,2,0,70,0,1
92729,-100,4,2,0,70,0,0
108865,-100,4,2,0,0,0,0

[Colours]
Combo1 : 180,104,255
Combo2 : 74,255,74
Combo3 : 70,163,255
Combo4 : 255,104,104

[HitObjects]
184,72,1820,1,0
336,72,2274,1,0
424,192,2729,2,0,B|520:192,3,74.9999999999999,0|2|2|0
464,296,4092,1,0
392,296,4320,1,2
320,296,4547,1,2
328,72,5456,5,0
176,72,5910,1,0
88,192,6365,2,0,B|-8:192,3,74.9999999999999,0|2|2|0
48,296,7729,1,0
120,296,7956,1,2
192,296,8183,2,0,B|280:296,2,74.9999999999999,2|0|2
120,296,9092,5,2
256,112,9774,1,2
256,112,10001,1,2
256,264,10456,1,0
360,152,10910,2,0,B|384:200|352:240,2,74.9999999999999,2|0|2
360,152,11820,1,2
64,192,12729,5,0
64,192,13183,1,2
64,192,13638,2,0,B|144:192,3,74.9999999999999,0|2|2|0
184,88,15001,1,0
256,56,15229,1,2
328,88,15456,1,2
256,176,15797,1,2
256,288,16138,1,2
208,344,16365,6,0,B|264:376|312:336,1,99.9999999999999,0|2
302,343,17274,1,0
416,240,17729,1,2
96,144,18638,5,2
208,48,19092,1,0
256,104,19320,1,2
256,176,19547,1,2
200,232,19774,1,2
128,256,20001,6,0,B|104:312|128:360,1,99.9999999999999,0|2
272,312,20910,1,0
408,248,21365,1,2
360,104,21820,5,2
360,104,22274,1,2
360,104,22729,1,2
360,104,23183,1,2
216,56,23638,6,0,B|184:104|216:168,1,99.9999999999999,0|2
208,151,24547,1,0
336,224,25001,1,2
56,336,25910,5,2
56,184,26365,1,0
128,168,26592,1,2
200,192,26820,1,2
232,256,27047,1,2
216,328,27274,6,0,B|248:360|288:360,2,74.9999999999999,0|2|0
232,256,28183,1,0
360,328,28638,1,2
256,192,29092,12,0,30910
216,56,31819,6,0,B|304:56,2,74.9999999999999,0|0|2
96,152,32956,1,0
136,216,33183,1,2
208,216,33410,1,0
240,288,33638,2,0,B|144:288,2,74.9999999999999,2|0|2
344,256,34660,5,0
400,160,35001,2,0,B|392:104|344:72,1,99.9999999999999,2|0
256,16,35797,1,2
256,128,36138,1,0
256,280,36592,5,0
296,344,36820,1,0
216,344,37047,1,2
256,200,37501,1,0
296,136,37729,1,0
216,136,37956,1,2
256,32,38297,5,0
144,48,38638,1,2
96,192,39092,2,0,B|16:192,2,74.9999999999999,0|2|2
144,296,40115,1,0
256,280,40456,1,2
256,280,40683,1,0
320,320,40910,2,0,B|344:344|384:344,2,50,0|0|2
392,232,41706,1,2
360,128,42047,5,0
320,64,42274,1,2
256,32,42501,1,2
192,64,42729,1,0
256,152,43070,1,2
256,264,43410,1,2
104,256,43865,5,0
72,184,44092,1,0
144,152,44320,1,2
176,224,44547,1,0
312,280,45001,2,0,B|424:280,1,99.9999999999999,0|4
256,112,46138,2,0,B|256:48,1,50,0|2
112,112,46819,1,0
80,256,47274,5,2
224,296,47729,1,2
272,152,48183,2,0,B|320:168|376:168,1,99.9999999999999,0|2
472,56,49092,1,2
320,72,49547,1,2
168,56,50001,1,0
168,56,50229,2,0,B|128:48|104:40,3,50,0|2|0|2
232,144,51365,1,0
360,224,51819,6,0,B|400:216|424:208,4,50,0|2|0|2|0
152,320,53638,2,0,B|112:312|88:304,4,50,0|2|0|2|0
288,352,55001,1,2
408,280,55456,1,0
464,232,55683,1,2
464,160,55910,1,0
408,112,56138,1,2
408,40,56365,5,2
256,40,56819,1,2
104,40,57274,1,2
104,192,57729,1,2
256,192,58183,1,2
408,192,58638,1,2
408,344,59092,1,2
256,344,59547,1,2
104,344,60001,1,2
256,192,60115,12,0,62729
184,272,63638,6,0,B|344:272,1,150
376,328,64547,1,2
464,208,65001,1,0
408,160,65229,1,2
408,88,65456,2,0,B|448:64|512:80,3,99.9999999999999,2|2|0|2
328,112,67274,6,0,B|168:112,1,150,2|0
136,56,68183,1,2
48,176,68638,1,0
104,224,68865,1,2
104,296,69092,2,0,B|64:320|0:304,3,99.9999999999999,2|2|0|2
64,168,70910,6,0,B|64:72|168:72,1,150,2|0
216,120,71819,1,2
280,160,72047,1,0
352,136,72274,1,2
376,64,72501,1,2
448,40,72729,5,2
464,192,73183,1,2
448,344,73638,1,2
296,336,74092,1,2
144,352,74547,1,2
88,216,75001,2,0,B|32:184|48:120|80:72|152:88,1,200,2|0
200,136,76138,2,0,B|216:192|152:232,1,99.9999999999999,2|2
128,160,76819,5,2
256,232,77274,1,2
360,192,77615,1,0
344,304,77956,1,2
280,344,78183,6,0,B|120:344,1,150
130,344,79092,1,2
112,192,79547,1,0
184,176,79774,1,2
256,192,80001,2,0,B|288:232|352:224,1,99.9999999999999,2|2
288,88,80910,2,0,B|256:48|192:48,1,99.9999999999999,0|2
64,136,81819,6,0,B|120:152|120:232|56:248,1,150,2|0
60,246,82729,1,2
184,328,83183,1,0
256,344,83410,1,2
328,328,83638,5,2
256,200,84092,1,2
256,48,84547,1,0
384,120,85001,2,0,B|416:168|480:176,1,99.9999999999999,2|2
464,64,85797,1,0
360,24,86138,1,2
256,72,86479,1,2
128,120,86819,6,0,B|96:168|32:176,1,99.9999999999999,0|2
48,64,87615,1,0
152,24,87956,1,2
152,24,88183,2,0,B|192:24|240:40,2,74.9999999999999,0|2|2
152,24,89092,5,0
48,64,89433,1,2
136,128,89774,1,2
80,184,90001,2,0,B|80:272,2,74.9999999999999,0|2|2
136,128,90910,1,0
136,280,91365,1,2
288,280,91819,1,2
296,128,92274,1,2
208,40,92729,6,0,B|264:8|312:48,1,99.9999999999999,0|2
302,41,93638,1,0
416,144,94092,1,2
96,240,95001,1,2
208,336,95456,1,0
256,280,95683,1,2
256,208,95910,1,2
200,152,96138,1,2
128,128,96365,6,0,B|104:72|128:24,1,99.9999999999999,0|2
272,72,97274,1,0
408,136,97729,1,2
360,280,98183,5,2
360,280,98638,1,2
360,280,99092,1,2
360,280,99547,1,2
216,328,100001,6,0,B|184:280|216:216,1,99.9999999999999,0|2
208,233,100910,1,0
272,96,101365,2,0,B|264:32|208:8|144:32|144:104,2,200,2|0|2
272,96,103410,1,0
336,136,103638,5,2
336,288,104092,1,2
208,208,104547,1,2
104,168,104888,1,0
112,280,105229,1,2
256,192,105456,12,0,107047
256,192,107274,12,0,108865
