osu file format v7

[General]
AudioFilename: ESTi - SIN THE LAST SCENE.mp3
AudioLeadIn: 0
PreviewTime: 50418
Countdown: 0
SampleSet: Soft
StackLeniency: 0.8
Mode: 0
LetterboxInBreaks: 1

[Editor]
DistanceSpacing: 1
BeatDivisor: 4
GridSize: 8

[Metadata]
Title:SIN THE LAST SCENE
Artist:ESTi
Creator:soulfear
Version:HD
Source:DJMAX
Tags:DRUM N BASS RESS psj1226 Psj TKiller ignorethis

[Difficulty]
HPDrainRate:3
CircleSize:3
OverallDifficulty:3
SliderMultiplier:1.5
SliderTickRate:2

[Events]
//Background and Video events
Video,-961,"YouTube - DJ Max Trilogy [MV] SIN -The Last Scene-.flv"
0,0,"DJMax@090403_220433.jpg"
//Break Periods
//Storyboard Layer 0 (Background)
//Storyboard Layer 1 (Fail)
//Storyboard Layer 2 (Pass)
//Storyboard Layer 3 (Foreground)
//Storyboard Sound Samples
//Background Colour Transformations
3,100,163,162,255

[TimingPoints]
30,300,4,2,1,70,1,0
31080,-200,4,2,1,30,0,0
40230,-200,4,2,1,50,0,0
49080,-50,4,2,1,60,0,0
50280,-100,4,2,1,60,0,0
80130,1200,4,2,1,60,1,0
99330,300,4,2,1,60,1,0
99480,-100,4,1,0,40,0,0

[Colours]
Combo1 : 128,0,0
Combo2 : 128,64,64
Combo3 : 255,0,0
Combo4 : 128,128,128

[HitObjects]
48,192,9630,1,2
200,192,9930,2,2,L|352:192,2,150
192,344,10830,1,2
344,344,11130,2,2,L|344:192,2,150
192,344,12030,5,2
192,192,12330,1,2
192,40,12630,1,2
344,40,12930,1,2
344,192,13230,2,2,L|192:192,3,150
88,296,14430,6,2,L|88:144,1,150
240,144,15030,2,2,L|240:296,1,150
392,296,15630,2,2,L|392:144,1,150
240,144,16230,1,2
240,144,16530,1,2
88,144,16830,6,2,L|88:296,2,150
240,144,17730,1,2
240,144,17880,2,2,L|320:144,4,75
240,72,18630,2,2,L|320:72,3,75
315,72,19230,5,2
464,72,19530,1,2
464,72,19830,1,2
464,224,20130,1,2
312,224,20430,2,2,L|160:224,3,150
256,104,21630,5,2
352,216,21930,1,2
320,320,22230,1,2
192,320,22530,5,2
160,216,22830,1,2
256,120,23130,5,2
256,272,23430,1,2
256,120,23730,1,2
104,120,24030,5,2
104,272,24330,2,2,L|184:272,2,75
256,272,24930,2,2,L|176:272,2,75
408,272,25530,1,2
408,120,25830,1,2
256,120,26130,1,2
104,120,26430,5,2
256,120,26730,1,2
256,120,27030,1,2
384,192,27330,1,2
256,264,27630,1,2
128,192,27930,1,2
256,120,28230,2,0,B|256:40,2,75
256,192,28830,12,0,30630
48,192,31230,5,2
160,192,31530,2,2,L|200:192,2,37.5
160,192,32130,2,2,L|120:192,2,37.5
160,80,32730,1,2
272,80,33030,1,2
384,80,33330,1,2
384,192,33630,1,2
272,192,33930,2,2,L|272:272,2,75
160,192,34830,1,2
48,192,35130,2,2,L|48:112,2,75
160,192,36030,5,2
48,192,36330,1,2
112,288,36630,2,2,L|176:288,2,56.25
112,248,37230,5,2
224,248,37530,1,2
336,248,37830,1,2
448,248,38130,1,2
448,136,38430,2,2,L|448:72,2,56.25
392,136,39030,2,2,L|392:200,2,56.25,2|2|2
392,136,39630,1,2
104,64,40830,5,2
216,64,41130,2,2,L|216:104,2,37.5
216,176,41730,1,2
328,176,42030,1,2
328,64,42330,5,2
408,136,42630,1,2
488,64,42930,1,2
488,176,43230,5,2
376,176,43530,2,2,L|376:136,2,37.5
264,176,44130,2,2,L|264:216,2,37.5
152,176,44730,2,2,L|112:176,6,37.5
152,288,45930,1,2
232,288,46230,1,2
312,288,46530,1,2
312,176,46830,5,2
232,176,47130,1,2
152,176,47430,2,2,L|112:176,2,37.5
256,192,48030,12,0,50130
224,64,50430,5,2
376,64,50730,1,0
376,64,50880,2,2,L|376:144,4,75
304,64,51630,2,2,L|304:144,3,75
232,136,52230,2,2,L|232:216,3,75
232,211,52830,5,2
80,216,53130,1,2
80,64,53430,2,2,L|80:144,3,75
152,144,54030,2,2,L|152:224,3,75
224,216,54630,2,2,L|224:296,3,75
224,291,55230,6,2,L|304:291,1,75
448,293,55680,1,2
448,293,55830,2,2,L|448:213,1,75
448,72,56280,1,2
448,72,56430,2,2,L|368:72,1,75
224,72,56880,1,2
224,72,57030,2,2,L|144:72,1,75
144,224,57480,1,2
144,224,57630,2,2,L|144:304,2,75
296,224,58230,2,2,L|296:304,2,75
256,192,58830,12,0,59730
48,336,60030,5,4
48,336,60330,1,2
48,336,60630,1,2
168,240,60930,1,2
280,336,61230,2,2,L|432:336,2,150
128,336,62130,1,2
128,184,62430,6,2,L|128:32,2,150,4|2|2
128,336,63330,1,2
280,336,63630,2,0,L|280:184,1,150,2|2
128,208,64230,2,0,L|280:208,1,150,2|2
355,336,64830,5,4
355,336,65130,1,2
355,336,65430,1,2
352,184,65730,1,2
352,184,65880,1,2
352,184,66030,2,2,L|352:32,1,150
352,32,66630,2,2,L|272:32,3,75
352,32,67230,5,4
352,32,67530,1,2
352,32,67830,1,2
256,192,68130,12,0,69480
144,168,69630,5,4
288,144,69930,1,2
440,168,70230,1,2
288,184,70530,2,2,L|288:264,2,75
288,32,71130,1,2
328,176,71430,2,2,L|248:176,1,75
256,248,71730,2,2,L|336:248,1,75
408,248,72030,5,4
408,96,72330,1,0
256,96,72630,1,2
104,96,72930,2,2,L|104:16,2,75
104,136,73380,1,2
104,176,73530,2,2,L|104:256,5,75
176,256,74430,5,4
328,256,74730,1,2
256,128,75030,1,2
104,128,75330,2,2,L|104:208,2,75
256,128,75930,1,2
408,128,76230,2,2,L|408:208,3,75
408,203,76830,5,4
256,200,77130,1,2
104,200,77430,1,2
184,72,77730,2,2,L|104:72,2,75
336,72,78330,2,2,L|416:72,5,75
456,192,80430,5,2
376,192,81030,1,2
296,192,81630,2,2,L|256:192,3,37.5
224,192,82830,5,2
144,192,83430,1,2
64,192,84030,2,2,L|16:192,3,37.5
24,264,85230,5,2
104,264,85830,1,2
184,264,86430,2,2,L|224:264,3,37.5
256,264,87630,5,2
336,264,88230,1,2
416,264,88830,2,2,L|456:264,3,37.5
448,192,90030,6,2,L|408:192,3,37.5
376,192,91230,2,2,L|336:192,3,37.5,2|2|2|2
304,192,92430,2,2,L|264:192,3,37.5,2|2|2|2
232,192,93630,2,2,L|192:192,3,37.5,2|2|2|2
192,120,94830,6,2,L|232:120,1,37.5
264,120,95430,2,2,L|304:120,1,37.5
336,120,96030,2,2,L|376:120,1,37.5
408,120,96630,2,2,L|448:120,1,37.5
448,160,97230,2,2,L|448:200,1,37.5
448,232,97830,2,2,L|448:272,1,37.5
448,304,98430,2,2,L|448:344,1,37.5
408,336,99030,2,2,L|368:336,1,37.5
328,192,99630,5,0
192,120,99930,1,0
336,160,100230,1,0
184,152,100530,1,0
328,128,100830,1,0
192,184,101130,1,0
312,96,101430,1,0
312,96,101730,1,0
120,320,102030,5,0
192,184,102330,1,0
152,328,102630,1,0
160,176,102930,1,0
184,320,103230,1,0
128,184,103530,1,0
216,304,103830,1,0
216,304,104130,1,0
352,40,104430,5,0
464,136,104730,1,0
328,64,105030,1,0
472,104,105330,1,0
320,96,105630,1,0
464,72,105930,1,0
328,128,106230,1,0
328,128,106530,1,0
48,240,106830,5,0
192,288,107130,1,0
120,152,107430,1,0
40,280,107730,1,0
192,288,108030,5,0
344,288,108330,1,0
344,136,108630,1,0
192,136,108930,1,0
272,208,109230,1,0
