osu file format v5

[General]
AudioFilename: SIN.mp3
AudioLeadIn: 0
PreviewTime: 10207
Countdown: 1
SampleSet: Soft
StackLeniency: 0.7
Mode: 0
LetterboxInBreaks: 1
EditorDistanceSpacing: 2

[Metadata]
Title:SIN
Artist:ESTi
Creator:lesjuh
Version:NormalStyle
Source:DJMAX
Tags:esti sin sti djmax

[Difficulty]
HPDrainRate:4
CircleSize:4
OverallDifficulty:5
SliderMultiplier:1
SliderTickRate:1

[Events]
//Background and Video events
0,0,"SIN_NormalStyle.png"
1,-1602,"SIN.avi"
//Break Periods
//Storyboard Layer 0 (Background)
//Storyboard Layer 1 (Failing)
//Storyboard Layer 2 (Passing)
//Storyboard Layer 3 (Foreground)
//Storyboard Sound Samples
//Background Colour Transformations
3,100,163,162,255

[TimingPoints]
5154,315.795766192734,4,2,1,90,1,0
9576,-200,4,2,0,90,0,0
17789,-200,4,2,1,0,0,0
20316,-100,4,2,1,90,0,0
22528,-100,4,2,1,89,0,0
33180,-200,4,2,1,90,0,0
35575,-100,4,2,1,90,0,0
48023,-50,4,2,1,90,0,0
49221,-100,4,2,1,90,0,0
49996,-100,4,2,1,70,0,0
51812,-100,4,2,1,90,0,0
59330,-200,4,2,1,90,0,0
70860,-100,4,2,0,89,0,0
81916,-100,4,2,1,89,0,0
95342,-100,4,2,1,90,0,0
102449,-100,4,2,1,89,0,1
110189,-100,4,2,1,66,0,0

[Colours]
Combo1 : 0,0,179
Combo2 : 255,255,255
Combo3 : 206,0,0

[HitObjects]
104,80,10206,2,0,B|104:168|200:192,1,150,4|2
280,160,11469,2,0,B|376:144|416:224,1,150,0|2
336,280,12733,2,0,B|296:352|192:336,1,150,2|0
144,256,13996,2,0,B|136:168|216:128,1,150,0|2
312,128,15259,2,0,B|336:152|368:128,3,50,0|0|0|2
288,64,16522,2,0,B|256:80|224:56,3,50,0|0|0|2
256,160,17785,6,0,L|272:168|256:176|272:184|256:192|272:200|256:208|272:216|256:224|272:232|256:240|272:248|256:256|272:264|256:272|272:280|256:288|272:296|256:304|272:312|256:320|272:328|256:336|272:344,1,400,2|10
261,338,20785,1,8
261,338,21259,1,8
264,152,21733,2,0,L|264:120,6,22.5
48,192,22838,6,0,B|56:280|160:296,2,150
64,96,24101,2,0,B|104:56|168:64,1,100,4|2
240,184,24891,1,2
168,256,25207,6,0,B|216:304,1,50,4|0
304,296,25680,2,0,B|352:344,1,50
440,328,26154,2,0,B|392:280,1,50
336,224,26628,5,4
336,224,26943,1,2
224,120,27417,2,2,B|176:72,3,50
112,216,28364,1,4
216,320,28838,1,4
224,216,29154,5,4
224,216,29470,1,2
352,144,29943,6,0,B|408:104,3,50,0|0|0|2
408,216,30733,2,0,B|368:248,1,50,2|0
288,304,31207,2,0,B|248:336,1,50,0|2
144,336,31680,5,4
112,240,31996,1,2
80,144,32312,1,2
48,48,32628,1,4
256,32,33259,5,8
256,104,33733,1,8
256,176,34207,1,8
256,248,34680,1,8
256,320,35154,2,0,B|256:376,1,50,4|0
112,320,35944,5,0
72,176,36417,1,0
152,120,36733,2,0,B|208:80,2,50,4|0|2
288,184,37523,6,0,B|256:248,1,50,2|0
296,320,37996,2,0,B|368:184,1,150,2|0
368,336,38944,2,0,B|440:200,1,150,2|0
392,112,39891,6,0,B|376:64|328:72,2,75,0|2|2
376,160,40523,1,2
232,200,40996,1,2
88,232,41470,1,2
392,272,42417,6,0,B|376:320|328:312,2,75,0|2|2
376,224,43049,1,2
232,184,43522,1,0
88,152,43996,1,0
88,248,44312,6,0,B|88:280|48:296,2,50,0|0|2
176,288,44944,2,0,B|176:320|216:336,2,50,2|2|0
160,184,45575,6,0,B|256:144|368:192,3,200,0|2|0|2
320,280,47786,1,0
256,352,48102,2,2,B|256:320,11,25,2|2|2|2|2|2|2|2|2|2|2|2
40,176,49365,5,4
112,104,49681,1,2
256,72,50154,1,2
256,168,50470,2,0,B|232:192|256:232,3,50,0|0|0|2
256,264,51102,2,0,B|280:288|256:328,2,50,2|2|0
184,248,51891,6,0,B|264:288|352:240,2,150
64,88,53470,1,2
256,48,54102,1,2
448,88,54733,1,2
432,240,55207,2,2,B|408:264|368:264,2,50
368,160,55839,2,0,B|304:152,1,50,0|2
256,288,56470,6,2,B|256:224,2,50,2|2|2
184,336,56944,6,0,B|264:376|352:328,3,150,0|0|0|2
424,192,59470,5,2
232,112,60734,6,2,B|208:128|208:152,2,37.5
280,112,61365,2,2,B|304:128|304:152,2,37.5
256,64,61997,1,0
256,280,63892,6,2,B|232:264|232:240,2,37.5
304,280,64523,2,0,B|352:280|352:336,2,75
200,280,65786,2,0,B|152:280|152:336,2,75,0|0|0
256,192,67049,1,0
256,88,67365,2,0,B|256:64,10,12.5,0|0|0|0|2|2|2|0|0|0|0
256,192,68234,12,0,69576
256,192,70997,6,0,B|256:176,12,12.5,0|0|0|0|0|0|0|0|0|0|0|0|4
