osu file format v5

[General]
AudioFilename: SIN.mp3
AudioLeadIn: 0
PreviewTime: 10207
Countdown: 1
SampleSet: Soft
StackLeniency: 0.7
Mode: 0
LetterboxInBreaks: 1
EditorDistanceSpacing: 0.899999976158142

[Metadata]
Title:SIN
Artist:ESTi
Creator:lesjuh
Version:MXStyle
Source:DJMAX
Tags:esti sin sti djmax

[Difficulty]
HPDrainRate:6
CircleSize:4
OverallDifficulty:7
SliderMultiplier:1.6
SliderTickRate:1

[Events]
//Background and Video events
0,0,"SIN_MXStyle.png"
Video,-1730,"SIN.avi"
//Break Periods
2,71691,81332
//Storyboard Layer 0 (Background)
//Storyboard Layer 1 (Fail)
//Storyboard Layer 2 (Pass)
//Storyboard Layer 3 (Foreground)
//Storyboard Sound Samples
//Background Colour Transformations
3,100,163,162,255

[TimingPoints]
5154,315.795766192734,4,2,1,91,1,0
9576,-200,4,2,0,71,0,0
17789,-200,4,2,1,0,0,0
20316,-100,4,2,1,89,0,0
22528,-100,4,2,1,90,0,0
25292,-200,4,2,1,90,0,0
25608,-100,4,2,1,90,0,0
26003,-100,4,2,1,90,0,0
33180,-200,4,2,1,90,0,0
35575,-100,4,2,1,81,0,0
48062,-50,4,2,1,90,0,0
49221,-100,4,2,1,90,0,0
50865,-100,4,2,1,70,0,0
51812,-100,4,2,1,90,0,0
59330,-200,4,2,1,70,0,0
70860,-100,4,2,0,90,0,0
81916,-100,4,2,1,90,0,0
95342,-100,4,2,1,90,0,0
102449,-100,4,2,1,90,0,1
110189,-100,4,2,1,66,0,0

[Colours]
Combo1 : 0,0,179
Combo2 : 255,255,255
Combo3 : 206,0,0

[HitObjects]
80,192,10206,2,0,L|176:192,1,80,4|0
264,192,10996,1,0
264,192,11154,1,2
336,192,11469,1,0
408,192,11785,1,2
416,296,12259,5,0
416,296,12417,1,2
352,296,12733,1,0
288,296,13048,1,2
96,296,13522,5,0
96,296,13680,1,2
160,296,13996,1,0
224,296,14312,1,2
176,80,14785,5,2
176,80,14943,1,2
176,80,15101,2,2,B|176:56,2,20,2|2|2
176,80,15575,1,2
136,280,15891,5,0
136,280,16048,1,2
136,280,16206,1,2
392,312,16522,5,2
392,312,16680,1,0
392,312,16838,1,2
416,104,17154,5,2
416,104,17312,1,0
416,104,17470,1,2
416,104,17627,1,2
256,24,17785,6,0,L|272:32|256:40|272:48|256:56|272:64|256:72|272:80|256:88|272:96|256:104|272:112|256:120|272:128|256:136|272:144|256:152|272:160|256:168|272:176|256:184|272:192|256:200|272:208|256:216|272:224|256:232|272:240|256:248|272:256|256:264|272:272|256:280|272:288|256:296|272:304|256:312|272:320|256:328,1,640,2|10
259,310,20549,1,8
259,310,20785,1,8
259,310,21022,1,8
259,310,21259,1,8
256,128,21733,2,0,L|256:96,10,22.5
64,184,22838,5,4
136,184,22996,1,0
184,128,23154,1,2
256,128,23312,2,4,L|440:128,1,160,4|0
416,128,23785,1,4
376,264,24101,5,4
344,320,24259,1,4
280,320,24417,1,2
72,232,24891,1,2
192,152,25207,1,2
192,152,25364,2,0,L|208:88,1,45,0|0
264,128,25680,2,0,B|312:72,2,40,0|0|2
224,264,26154,1,2
160,304,26312,1,0
72,192,26628,5,4
128,152,26786,1,4
184,112,26943,1,2
240,72,27101,2,0,B|312:232,1,160,0|2
336,272,27575,2,4,B|368:336,2,40
408,264,27891,5,2
440,200,28049,1,2
472,136,28207,2,0,L|328:136,1,120,2|2
288,48,28680,1,2
224,80,28838,2,2,L|184:112,1,40
104,168,29154,5,4
152,224,29312,1,4
200,280,29470,1,2
424,240,29943,1,2
392,176,30101,1,0
328,208,30259,1,2
296,144,30417,2,0,B|184:144,1,80
168,88,30733,2,0,B|96:88,2,40,0|0|2
312,80,31207,1,2
384,80,31365,2,0,B|424:128,1,40,0|0
480,216,31680,5,4
432,272,31838,1,4
384,328,31996,1,2
336,272,32154,2,0,B|232:272,1,80,4|0
184,272,32470,1,2
128,224,32628,2,4,L|88:224,1,40,4|0
136,56,32944,6,0,L|264:56,1,90,0|2
280,56,33259,2,0,L|352:56,2,40,8|0|0
240,104,33733,2,0,B|184:104,2,40,8|0|0
280,152,34207,2,0,B|328:152,2,40,8|0|0
240,200,34680,2,0,B|184:200,2,40,8|0|0
280,248,35154,2,0,L|288:240|296:248|304:240|312:248|320:240|328:248|336:240|344:248|352:240|360:248,1,80,0|4
400,264,35628,5,0
448,208,35786,1,2
432,136,35944,2,0,B|368:80|344:192|272:104,1,160,4|2
285,118,36417,1,4
144,160,36733,5,4
144,160,36891,1,4
72,184,37049,1,2
280,312,37523,1,2
352,312,37680,1,4
424,312,37838,1,0
440,240,37996,6,0,B|464:80|312:48,1,240,2|0
112,128,38944,2,2,B|56:272|224:344,1,240
408,312,39891,6,2,B|336:344|280:288,1,120
352,208,40365,1,2
280,192,40523,2,2,B|280:64|400:40|464:96,1,240,0|2
440,80,41470,1,2
80,104,42417,6,0,B|120:168|208:120,1,120,0|2
280,88,42891,1,0
280,88,43049,2,2,B|368:176|200:232|296:320,1,240,0|0
283,307,43996,1,0
136,328,44312,5,4
64,328,44470,1,4
24,272,44628,1,8
64,208,44786,2,0,B|136:144,1,80,4|8
176,200,45102,2,0,B|96:272,1,80,8|4
288,104,45575,6,0,B|360:104,3,40,4|0|0|0
288,104,45891,1,2
176,192,46207,2,0,B|120:192,3,40,4|0|0|0
176,192,46523,1,2
288,280,46839,2,0,B|360:280,3,40,4|0|0|0
288,280,47154,1,2
216,280,47312,2,2,B|216:184,1,80
288,200,47628,2,2,B|288:104,1,80,2|0
216,120,47944,1,2
256,56,48102,2,2,B|256:8,10,40
104,160,49365,5,4
96,232,49523,2,0,B|112:288|184:280,1,80,0|10
224,280,49839,1,4
280,144,50154,5,4
352,144,50312,1,2
424,144,50470,1,0
464,200,50628,1,4
464,200,50786,1,4
424,256,50944,2,0,B|360:320,1,80,8|8
328,256,51260,2,8,B|256:328,1,80
232,256,51575,2,0,B|152:336,1,80,8|8
144,248,51891,6,0,B|48:272|8:176,1,160,0|2
80,168,52365,2,0,B|176:192|216:96,1,160,0|2
136,96,52839,2,0,B|40:120|0:24,1,160,0|0
256,48,53470,5,2
256,48,53628,1,4
256,192,53944,1,4
256,264,54102,1,2
256,336,54260,1,2
256,336,54418,5,4
120,296,54733,1,2
144,232,54891,1,0
120,88,55207,1,2
144,152,55365,1,0
352,192,55839,1,4
352,192,55997,1,2
144,264,56470,5,2
208,304,56628,1,2
280,312,56786,1,2
288,240,56944,6,0,B|384:264|424:168,1,160,0|2
352,168,57418,2,0,B|256:192|216:96,1,160,0|2
296,96,57891,2,0,B|392:120|432:24,1,160,0|0
352,32,58365,1,2
256,192,59470,5,2
256,192,59786,1,8
168,256,60260,1,2
168,256,60418,1,8
264,296,60734,5,0
320,288,60970,1,2
352,240,61207,1,2
160,144,61365,5,2
192,96,61601,1,2
248,88,61839,1,2
256,192,61997,5,4
256,192,62313,5,8
256,296,62786,1,2
256,296,62944,1,8
256,296,63260,6,10,B|256:328,2,20
256,296,63576,1,8
264,88,63892,5,2
320,96,64128,1,2
352,144,64365,1,2
256,192,64523,5,4
256,192,64839,5,8
256,192,64997,1,0
184,192,65313,1,8
144,192,65470,1,0
104,192,65628,1,2
64,192,65786,5,8
448,192,66102,1,8
256,72,66418,1,8
256,72,66576,2,8,B|256:40,2,20
64,192,67049,5,4
64,264,67365,2,8,B|112:264,1,40
176,264,67839,5,8
176,224,67997,1,8
176,264,68155,1,8
248,264,68471,5,8
248,224,68628,1,8
248,264,68786,2,8,B|280:264,2,20
320,264,69260,6,2,B|344:216|320:152,1,80,0|0
256,80,70997,6,0,B|256:48,12,20,0|0|0|0|0|0|0|0|0|0|0|0|4
136,104,82208,6,0,C|96:88|104:32,2,80,0|0|2
184,160,82681,2,0,C|224:144|216:88,2,80,0|0|2
136,216,83155,2,0,C|96:200|104:144,2,80,0|0|2
184,264,83629,2,0,C|224:248|216:192,2,80,0|0|2
184,336,84102,5,0
256,336,84260,1,0
328,336,84418,1,2
400,336,84576,1,0
432,272,84734,6,0,C|472:288|464:344,2,80,0|0|2
392,208,85207,2,0,C|352:224|360:280,2,80,0|0|2
432,144,85681,2,0,C|472:160|464:216,2,80,0|0|2
384,88,86155,2,0,C|344:104|352:160,2,80,0|0|2
384,16,86629,5,0
312,16,86787,1,0
240,16,86945,1,2
168,16,87103,1,0
168,88,87260,6,0,C|128:104|136:160,2,80,0|0|2
208,144,87733,2,0,C|248:160|240:216,2,80,0|0|2
168,200,88207,2,0,C|128:216|136:272,2,80,0|0|2
208,256,88681,2,0,C|248:272|240:328,2,80,0|0|2
176,320,89155,5,2
224,368,89313,1,0
296,368,89471,1,2
344,320,89629,1,0
352,248,89787,6,0,C|392:232|424:280,2,80,0|0|2
304,192,90260,2,0,C|264:176|272:120,2,80,0|0|2
376,176,90734,2,0,C|416:160|408:104,2,80,0|0|2
328,120,91208,2,0,C|344:80|400:88,2,80,0|0|2
272,160,91682,5,2
216,200,91839,1,0
160,240,91997,1,2
104,280,92155,1,0
104,280,92313,6,2,B|40:328,2,40
104,280,92787,1,2
256,336,93103,1,4
256,336,93261,1,8
392,296,93576,1,4
424,152,93892,1,8
152,48,94366,5,4
160,120,94524,1,10
168,192,94682,1,0
224,232,94839,2,2,B|320:232,1,80,4|0
304,232,95313,1,8
432,296,95629,1,4
432,296,95787,1,8
344,368,96103,6,2,B|264:328,1,80,2|0
208,368,96418,2,2,B|99:319,1,80,8|4
72,368,96734,2,2,B|-37:319,1,80,2|4
32,272,97050,1,8
72,208,97208,1,2
112,144,97366,2,4,B|208:144,1,80,4|0
192,144,97840,1,2
328,112,98155,5,4
328,112,98313,1,10
368,248,98629,1,4
248,328,98945,1,8
72,192,99419,5,4
112,128,99576,1,8
184,128,99734,1,0
232,72,99892,2,0,B|352:72,1,80,4|0
312,72,100366,1,2
256,296,100682,5,2
256,296,100840,2,2,B|256:344,4,40
184,296,101313,2,0,B|184:184,1,80,2|8
256,216,101629,2,0,B|256:120,1,80,0|2
184,136,101945,2,0,B|184:32,1,80,0|8
184,56,102261,1,2
256,56,102419,6,2,B|408:64|416:232,1,240,6|2
240,192,103208,1,4
240,192,103366,1,8
240,192,103524,1,2
176,152,103682,2,2,B|80:192,1,80,0|2
160,224,103998,2,2,B|96:280,1,80,8|2
168,296,104313,2,2,B|104:392,2,80,2|2|8
240,272,104787,5,10
240,272,104866,1,2
240,272,104945,2,0,B|344:304,1,80,4|0
448,240,105419,1,2
352,112,105734,5,4
288,144,105892,1,8
216,120,106050,1,4
144,144,106208,1,4
144,144,106366,1,4
80,176,106524,6,4,B|24:264,1,80,8|2
112,240,106840,2,0,B|56:328,1,80,0|4
144,304,107156,2,0,B|88:400,1,80,8|2
184,368,107471,1,4
184,368,107629,1,2
256,240,107945,1,2
256,96,108261,5,4
256,96,108419,2,0,B|256:32,4,40,8|0|2|0|2
256,240,109050,1,10
408,80,109524,5,4
448,136,109682,1,8
440,208,109840,1,2
384,248,109998,1,0
384,248,110156,1,0
328,184,110313,6,0,B|304:96|192:96,1,160,8|0
224,176,110787,2,0,B|312:224|264:336,1,160,8|0
192,320,111261,2,0,B|184:216|72:208,1,160,8|0
40,144,111735,2,0,B|32:40|136:32,1,160,8|0
126,32,112208,1,4
