osu file format v5

[General]
AudioFilename: SIN.mp3
AudioLeadIn: 0
PreviewTime: 10207
Countdown: 1
SampleSet: Soft
StackLeniency: 0.7
Mode: 0
LetterboxInBreaks: 1
EditorDistanceSpacing: 1

[Metadata]
Title:SIN
Artist:ESTi
Creator:lesjuh
Version:HardStyle
Source:DJMAX
Tags:esti sin sti djmax

[Difficulty]
HPDrainRate:4
CircleSize:4
OverallDifficulty:5
SliderMultiplier:1.4
SliderTickRate:1

[Events]
//Background and Video events
0,0,"SIN_HardStyle.png"
1,-1730,"SIN.avi"
//Break Periods
2,71691,81332
//Storyboard Layer 0 (Background)
//Storyboard Layer 1 (Failing)
//Storyboard Layer 2 (Passing)
//Storyboard Layer 3 (Foreground)
//Storyboard Sound Samples
//Background Colour Transformations
3,100,163,162,255

[TimingPoints]
5154,315.795766192734,4,2,1,90,1,0
9576,-200,4,2,0,90,0,0
17789,-200,4,2,1,0,0,0
20316,-100,4,2,1,90,0,0
22528,-100,4,2,1,89,0,0
25292,-200,4,2,1,90,0,0
25608,-100,4,2,1,90,0,0
26003,-100,4,2,1,90,0,0
33180,-200,4,2,1,90,0,0
35575,-100,4,2,1,90,0,0
48023,-50,4,2,1,90,0,0
49221,-100,4,2,1,90,0,0
49996,-100,4,2,1,70,0,0
51812,-100,4,2,1,90,0,0
59330,-200,4,2,1,90,0,0
70860,-100,4,2,0,89,0,0
81916,-100,4,2,1,89,0,0
95342,-100,4,2,1,90,0,0
102449,-100,4,2,1,89,0,1
110189,-100,4,2,1,66,0,0

[Colours]
Combo1 : 0,0,179
Combo2 : 255,255,255
Combo3 : 206,0,0

[HitObjects]
72,128,10206,2,0,B|72:256|208:272,1,210,4|2
280,152,11469,2,0,B|408:152|424:288,1,210,0|2
280,280,12733,2,0,B|280:328|216:336,1,70,2|0
184,288,13206,2,0,B|112:288|112:376,1,105,0|2
88,208,13996,2,0,B|88:88|216:56,1,210,0|2
312,152,15259,2,0,B|352:176|400:152,1,70,0|2
504,96,15891,2,0,B|464:120|416:96,1,70,0|2
312,32,16522,2,2,B|352:56|400:32,3,70
256,112,17785,6,0,L|272:120|256:128|272:136|256:144|272:152|256:160|272:168|256:176|272:184|256:192|272:200|256:208|272:216|256:224|272:232|256:240|272:248|256:256|272:264|256:272|272:280|256:288|272:296|256:304|272:312|256:320|272:328|256:336|272:344|256:352|272:360|256:368|272:376,1,560,2|10
267,362,20549,1,8
267,362,20785,1,8
267,362,21022,1,8
267,362,21259,1,8
264,152,21733,2,0,L|264:120,9,22.5,0|0|0|0|0|0|0|0|0|0
64,192,22838,6,0,B|64:280|160:296,1,140,4|2
184,232,23312,2,0,B|256:288|344:232,1,140,4|2
315,247,23785,1,0
416,152,24101,5,4
384,88,24259,1,4
312,88,24417,1,2
104,128,24891,1,2
80,264,25207,6,0,B|64:360,2,70,0|2|0
128,208,25680,2,0,B|168:208,2,35
264,208,26154,1,2
264,208,26312,1,0
320,80,26628,5,4
384,104,26786,1,4
448,128,26943,1,2
392,256,27417,1,2
336,304,27575,1,4
264,288,27733,1,2
264,288,27891,2,2,B|200:248|144:320,2,105
256,144,28680,1,2
256,144,28838,1,2
120,112,29154,5,4
168,56,29312,1,4
240,56,29470,1,2
448,152,29943,1,2
424,216,30101,1,0
400,280,30259,1,2
328,272,30417,2,0,B|304:344,1,70
305,338,30733,2,0,B|256:320,2,35
176,280,31207,1,2
176,280,31365,2,0,B|128:256,1,35,2|0
96,168,31680,5,4
128,104,31838,1,4
192,72,31996,1,2
264,72,32154,2,0,B|360:216,1,140,4|2
341,188,32628,1,4
336,344,32944,6,0,L|232:344,1,70,0|2
208,304,33259,2,0,L|256:256,2,35,8|0|0
152,264,33733,2,0,B|112:304,2,35,8|0|0
104,216,34207,2,0,B|144:176,2,35,8|0|0
48,176,34680,2,0,B|8:216,2,35,8|0|0
56,104,35154,2,0,L|64:96|72:104|80:96|88:104|96:96|104:104|112:96|120:104|128:96,1,70,0|4
176,104,35628,5,0
248,104,35786,1,2
320,104,35944,2,0,B|384:152|264:192|360:240,1,140,4|2
339,227,36417,1,4
200,232,36733,5,4
136,264,36891,1,4
72,296,37049,1,2
280,336,37523,1,2
352,344,37680,1,4
416,320,37838,1,2
456,264,37996,6,0,B|488:128|336:96,1,210,2|2
152,120,38944,2,2,B|24:176|72:320,1,210
264,336,39891,2,2,B|336:368|392:312,1,120
336,248,40365,1,2
408,240,40523,2,2,B|416:120|320:88|256:112,1,210
286,105,41470,1,2
56,208,42417,6,0,B|96:272|184:224,1,120,0|2
240,192,42891,1,0
304,176,43049,2,2,B|416:168|296:336|432:320,1,210,2|0
409,320,43996,1,0
272,344,44312,5,4
200,328,44470,1,4
136,296,44628,2,4,B|64:264|56:168,1,140,8|8
58,187,45102,2,0,B|144:144,1,70,8|4
240,88,45575,6,0,B|168:88,2,40
240,88,45891,1,2
336,192,46207,2,0,B|392:192,2,40
336,192,46523,1,2
248,296,46839,2,0,B|176:296,2,40
248,296,47154,1,2
320,296,47312,6,2,B|264:208,1,70
216,224,47628,2,2,B|272:136,1,70
253,164,47944,1,2
256,96,48102,2,2,B|256:48,10,40,2|2|2|2|2|2|2|2|2|2|2
64,208,49365,6,0,B|72:296|160:312,1,140,4|2
146,308,49839,1,4
208,144,50154,5,2
280,144,50312,1,0
352,144,50470,2,0,B|400:128|440:168,1,70,2|0
480,184,50786,1,4
480,256,50944,2,0,B|424:312,1,70,8|8
392,248,51260,2,8,B|323:314,1,70
296,248,51575,2,8,B|227:314,1,70
192,344,51891,6,0,B|96:368|48:288,1,140,0|2
80,240,52365,2,0,B|160:264|208:184,1,140,0|2
192,120,52839,2,0,B|104:144|56:56,1,140,0|0
232,32,53470,5,2
232,32,53628,1,4
352,96,53944,1,4
392,152,54102,1,2
432,208,54260,1,2
432,208,54418,5,4
320,288,54733,1,2
320,288,54891,1,0
200,208,55207,1,2
200,208,55365,1,0
48,64,55839,1,0
48,64,55997,1,2
56,272,56470,5,2
104,320,56628,1,2
168,344,56786,1,2
240,352,56944,6,0,B|328:368|368:272,1,140,0|2
384,232,57418,2,0,B|304:264|248:176,1,140,0|2
216,144,57891,2,0,B|304:160|344:80,1,140,0|0
376,32,58365,1,2
256,192,59470,5,2
256,192,59786,1,8
192,280,60260,1,2
192,280,60418,1,8
256,304,60734,2,2,B|304:320|336:288,2,70
256,304,61523,2,2,B|248:328,2,17.5
256,160,62313,5,8
168,104,62786,1,2
168,104,62944,1,8
104,128,63260,2,8,B|80:112,4,17.5
112,200,63892,5,2
88,224,64049,2,8,B|64:248,2,17.5
208,296,64839,5,8
208,296,64997,1,0
280,296,65313,1,8
304,272,65470,1,0
328,248,65628,1,2
352,224,65786,2,8,B|296:176,1,70
248,128,66418,1,8
248,128,66576,2,8,B|224:104,2,20
200,176,67049,5,2
152,224,67365,2,8,B|184:256,1,35,8|0
232,288,67839,2,8,B|232:328,2,35
304,288,68471,5,8
304,288,68628,1,8
304,288,68786,2,8,B|336:288,2,20
256,192,69102,12,0,70523
256,192,70997,6,0,B|256:160,11,20,0|0|0|0|0|0|0|0|0|0|0|4
40,160,82208,6,0,B|48:112|144:112|152:168,1,140,0|2
150,159,82681,2,0,B|158:111|254:111|262:167,1,140,0|2
260,158,83155,2,0,B|268:110|364:110|372:166,1,140,0|2
370,157,83628,2,0,B|378:109|474:109|482:165,1,140,0|2
480,224,84102,1,0
480,224,84260,2,0,B|408:224,2,70,2|0|2
480,296,84734,6,0,B|472:344|376:344|368:288,1,140,0|2
370,297,85207,2,0,B|362:345|266:345|258:289,1,140,0|2
260,298,85681,2,0,B|252:346|156:346|148:290,1,140,0|2
150,299,86154,2,0,B|142:347|46:347|38:291,1,140,0|2
40,232,86628,1,0
40,232,86786,2,0,B|112:232,2,70,2|0|2
40,160,87260,6,0,B|48:112|144:112|152:168,1,140,0|2
150,159,87733,2,0,B|158:111|254:111|262:167,1,140,0|2
260,158,88207,2,0,B|268:110|364:110|372:166,1,140,0|2
370,157,88680,2,0,B|378:109|474:109|482:165,1,140,0|2
480,224,89155,2,0,B|408:224,2,70,2|0|2
480,224,89629,1,0
480,296,89786,6,0,B|472:344|376:344|368:288,1,140,0|2
370,297,90259,2,0,B|362:345|266:345|258:289,1,140,0|2
260,298,90733,2,0,B|252:346|156:346|148:290,1,140,0|2
150,299,91206,2,0,B|142:347|46:347|38:291,1,140,0|2
40,232,91682,2,0,B|112:232,2,70,2|0|2
40,232,92155,1,2
40,160,92313,6,2,B|104:40|240:112,1,210,4|2
344,160,93103,2,2,B|384:112,4,35
344,160,93576,5,2
120,328,94208,1,2
56,288,94366,5,4
56,216,94524,1,10
56,72,94839,2,0,B|144:72,1,70,0|2
126,72,95313,1,2
344,160,95629,1,4
344,160,95787,1,8
384,288,96103,6,2,B|248:224,1,140,2|0
168,336,96734,2,2,B|32:272,1,140,2|0
40,208,97208,1,2
40,136,97366,2,2,B|120:136,1,70,0|2
110,136,97840,1,2
304,96,98155,5,4
304,96,98313,1,10
392,200,98629,1,4
280,288,98945,1,8
72,272,99419,5,4
104,208,99576,1,8
136,144,99734,1,2
208,144,99892,2,0,B|304:144,1,70,4|2
278,144,100366,1,2
344,256,100682,5,2
344,256,100840,2,2,B|344:304,3,40
256,304,101313,2,0,B|256:192,1,80,2|2
192,224,101629,2,0,B|192:320,1,80,0|2
128,304,101945,2,0,B|128:200,1,80,0|2
128,160,102261,1,2
176,112,102419,6,2,B|288:64|384:176,1,210,4|2
240,216,103208,1,4
240,216,103366,1,8
240,216,103524,1,2
168,232,103682,2,2,B|104:296,1,70,0|2
176,320,103998,2,2,B|248:296,1,70,8|2
304,328,104313,2,2,B|400:344,3,70,2|2|8|2
392,272,104945,2,0,B|488:288,1,70,4|2
461,283,105419,1,2
408,152,105734,5,4
336,152,105892,1,8
264,152,106050,1,4
192,152,106208,1,4
192,152,106366,1,4
120,152,106524,6,4,B|64:240,1,80,8|0
136,216,106840,2,0,B|80:304,1,80,0|4
152,280,107156,2,0,B|96:376,1,80,8|2
111,349,107471,1,4
111,349,107629,1,2
256,344,107945,1,2
256,192,108261,5,4
256,192,108419,2,0,B|256:136,4,35,8|0|2|0|2
256,48,109050,1,10
464,88,109524,5,4
448,152,109682,1,8
432,216,109840,1,2
416,280,109998,1,0
352,256,110156,1,0
328,192,110313,2,0,B|304:112|208:120,1,140,8|0
216,192,110787,2,0,B|296:232|264:336,1,140,8|0
200,312,111261,2,0,B|176:224|80:224,1,140,8|0
56,176,111735,2,0,B|48:88|136:72,1,140,8|0
128,73,112208,1,4
