osu file format v9

[General]
AudioFilename: 02 Ray of Illuminati (DJMAX).mp3
AudioLeadIn: 0
PreviewTime: 13060
Countdown: 0
SampleSet: Normal
StackLeniency: 0.3
Mode: 0
LetterboxInBreaks: 1

[Editor]
DistanceSpacing: 1.2
BeatDivisor: 4
GridSize: 4

[Metadata]
Title:Ray of Illuminati
Artist:ESTi
Creator:fanzhen0019
Version:lF Style
Source:DJMAX
Tags:loveFantasy mekadon Portable Trilogy Fever Hot Tunes Technika2

[Difficulty]
HPDrainRate:5
CircleSize:4
OverallDifficulty:4
ApproachRate:6
SliderMultiplier:0.8
SliderTickRate:1

[Events]
//Background and Video events
0,0,"BG.jpg"
//Break Periods
//Storyboard Layer 0 (Background)
//Storyboard Layer 1 (Fail)
//Storyboard Layer 2 (Pass)
//Storyboard Layer 3 (Foreground)
//Storyboard Sound Samples
//Background Colour Transformations
3,100,163,162,255

[TimingPoints]
364,400,4,1,1,40,1,0
7164,-100,4,1,1,60,0,0
7564,-100,4,2,2,60,0,0
7964,-100,4,1,1,40,0,0
8764,-100,4,1,1,60,0,0
9164,-100,4,2,2,60,0,0
9564,-100,4,1,1,40,0,0
10364,-100,4,1,1,60,0,0
10764,-100,4,2,2,60,0,0
11164,-100,4,1,1,40,0,0
11964,-100,4,1,1,60,0,0
12764,-100,4,1,1,80,0,0
13164,-100,4,1,1,50,0,1
19764,-100,4,2,2,60,0,1
19964,-100,4,1,1,50,0,1
24364,-66.6666666666667,4,1,1,50,0,1
25164,-100,4,1,1,50,0,1
25364,-100,4,1,1,80,0,1
25964,-100,4,1,1,50,0,0
26364,-100,4,1,1,35,0,0
32364,-100,4,1,1,50,0,0
35964,-100,4,2,2,50,0,0
36364,-100,4,1,1,50,0,0
36564,-100,4,2,2,50,0,0
36964,-100,4,1,1,50,0,0
37964,-100,4,1,1,60,0,0
38364,-100,4,1,1,70,0,0
38964,-100,4,2,0,70,0,0
40164,-100,4,2,0,55,0,0
40564,-100,4,2,0,70,0,0
43364,-100,4,2,0,55,0,0
43764,-100,4,2,0,70,0,0
44764,-100,4,1,1,50,0,0
45364,-100,4,2,0,70,0,0
46564,-100,4,2,0,55,0,0
46964,-66.6666666666667,4,1,1,50,0,0
48564,-100,4,2,0,70,0,0
51164,-100,4,1,1,50,0,0
51264,-100,4,1,1,59,0,0
51364,-100,4,1,1,67,0,0
51464,-100,4,1,1,76,0,0
51564,-100,4,1,1,85,0,0
51964,-100,4,1,1,60,0,0
52364,-100,4,1,1,45,0,0
52764,-100,4,1,1,60,0,0
53164,-100,4,1,1,45,0,0
53564,-100,4,1,1,60,0,0
53964,-100,4,1,1,45,0,0
54364,-100,4,1,1,60,0,0
54764,-100,4,1,1,45,0,0
55164,-100,4,1,1,60,0,0
55564,-100,4,1,1,45,0,0
55964,-100,4,1,1,60,0,0
56364,-100,4,1,1,45,0,0
56764,-100,4,1,1,60,0,0
57164,-100,4,1,1,45,0,0
57564,-100,4,1,1,60,0,0
58164,-100,4,2,0,70,0,0
59364,-100,4,2,0,55,0,0
59764,-100,4,1,1,60,0,0
60164,-100,4,1,1,45,0,0
60564,-100,4,1,1,60,0,0
60964,-100,4,1,1,45,0,0
61164,-100,4,1,1,70,0,0
61564,-100,4,1,1,60,0,0
61964,-100,4,1,1,70,0,0
62364,-100,4,1,1,60,0,0
62764,-66.6666666666667,4,1,1,70,0,0
64364,-100,4,1,1,30,0,0
65964,-100,4,1,1,60,0,1
66078,-100,4,1,1,60,0,0
66365,-100,4,1,1,45,0,0
67364,-100,4,1,1,60,0,0
67764,-100,4,1,1,45,0,0
68164,-100,4,1,1,60,0,0
68564,-100,4,1,1,45,0,0
68764,-100,4,1,1,60,0,0
68964,-100,4,1,1,45,0,0
69564,-100,4,1,1,60,0,0
69964,-100,4,1,1,45,0,0
70364,-100,4,1,1,60,0,0
70964,-100,4,1,1,45,0,0
71164,-100,4,1,1,60,0,0
71764,-100,4,1,1,45,0,0
71964,-100,4,1,1,60,0,0
72564,-100,4,1,1,45,0,0
73564,-100,4,1,1,60,0,0
73764,-100,4,1,1,45,0,0
74164,-100,4,1,1,60,0,0
74564,-100,4,1,1,45,0,0
74964,-100,4,1,1,60,0,0
75364,-100,4,1,1,45,0,0
75564,-100,4,1,1,60,0,0
77164,-66.6666666666667,4,1,1,70,0,0
78364,-100,4,1,1,60,0,0
78764,-100,4,1,1,40,0,0
79564,-100,4,2,2,100,0,0
80164,-100,4,1,1,40,0,0
81164,-100,4,2,2,100,0,0
81764,-100,4,1,1,40,0,0
82764,-100,4,2,2,100,0,0
83364,-100,4,1,1,40,0,0
84764,-100,4,1,1,60,0,0
84964,-100,4,1,1,40,0,0
85164,-100,4,1,1,60,0,0
85564,-100,4,1,1,80,0,0
85964,-100,4,1,1,40,0,0
86364,-100,4,1,1,60,0,0
86764,-100,4,1,1,40,0,0
87164,-100,4,1,1,60,0,0
87564,-100,4,1,1,40,0,0
87964,-100,4,1,1,60,0,0
88364,-100,4,1,1,40,0,0
88764,-100,4,1,1,60,0,0
89164,-100,4,1,1,40,0,0
89564,-100,4,1,1,60,0,0
89964,-100,4,1,1,40,0,0
90364,-100,4,1,1,60,0,0
90564,-100,4,1,1,40,0,0
91164,-100,4,1,1,60,0,0
91364,-100,4,1,1,40,0,0
91564,-100,4,1,1,60,0,0
91764,-100,4,2,2,60,0,0
92364,-100,4,1,1,40,0,0
92764,-100,4,1,1,60,0,0
92964,-100,4,1,1,40,0,0
93564,-100,4,1,1,60,0,0
93964,-100,4,2,2,60,0,0
94364,-100,4,1,1,40,0,0
95164,-100,4,2,2,60,0,0
95564,-100,4,1,1,40,0,0
95964,-100,4,1,1,60,0,0
96164,-100,4,1,1,40,0,0
96764,-100,4,1,1,60,0,0
96964,-100,4,1,1,40,0,0
97564,-100,4,1,1,60,0,0
97764,-100,4,1,1,40,0,0
97964,-66.6666666666667,4,1,1,60,0,0
98764,-100,4,1,1,40,0,0
99364,-100,4,1,1,43,0,0
99964,-100,4,1,1,47,0,0
100564,-100,4,1,1,50,0,0
101164,-100,4,1,1,53,0,0
101764,-100,4,1,1,57,0,0
102364,-100,4,1,1,60,0,0
104364,-100,4,1,0,60,0,0
104564,-100,4,1,1,30,0,0
106764,-100,4,2,0,30,0,0
110764,-100,4,1,1,70,0,1
113964,-100,4,1,1,55,0,1
116564,-100,4,1,1,70,0,1
117364,-100,4,2,2,80,0,1
117564,-100,4,1,1,70,0,1
120364,-100,4,1,1,73,0,1
120564,-100,4,1,1,77,0,1
120764,-100,4,1,1,80,0,1
120964,-100,4,1,1,83,0,1
121164,-100,4,1,1,87,0,1
121364,-100,4,1,1,90,0,1
121564,-100,4,1,1,93,0,1
121764,-100,4,1,1,97,0,1
121964,-66.6666666666667,4,1,1,90,0,1
122564,-66.6666666666667,4,1,1,80,0,1
123164,-66.6666666666667,4,1,1,75,0,1
123264,-66.6666666666667,4,1,1,67,0,1
123364,-66.6666666666667,4,1,1,60,0,1
123464,-66.6666666666667,4,1,1,53,0,1
123564,-66.6666666666667,4,1,1,45,0,0
126764,-66.6666666666667,4,1,1,15,0,0

[Colours]
Combo1 : 11,163,244
Combo2 : 122,231,245
Combo3 : 245,245,137
Combo4 : 6,242,255

[HitObjects]
140,128,6764,2,0,B|260:56|396:144,1,240
368,208,8364,2,0,B|248:280|112:192,1,240
60,208,9964,2,0,B|72:64|232:56,1,240
296,57,11564,2,0,B|443:64|464:213,1,240,0|4
456,280,13164,5,0
396,332,13564,1,0
336,280,13964,1,0
336,240,14164,1,0
296,240,14364,1,8
256,240,14564,5,8
192,288,14964,1,0
112,296,15364,1,8
96,216,15764,1,0
96,176,15964,1,8
136,176,16164,1,0
176,176,16364,5,0
176,96,16764,1,8
248,136,17164,1,0
248,56,17564,1,8
320,96,17964,6,0,B|376:96,1,40,0|8
416,152,18564,1,8
416,232,18964,1,8
384,256,19164,1,8
352,280,19364,6,0,B|296:296|232:280,1,120,0|8
152,288,20364,2,0,B|112:320,2,40,0|0|8
184,264,20964,1,0
112,224,21364,1,0
72,152,21764,1,0
64,72,22164,1,0
104,72,22364,2,0,B|152:72,1,40,8|0
184,72,22764,5,0
224,144,23164,1,8
264,72,23564,1,0
304,56,23764,1,0
344,72,23964,1,8
364,108,24164,1,0
376,152,24364,6,0,B|392:204|340:252,2,89.9999973177911
304,184,25164,2,0,B|272:216|280:264,2,80
256,120,26364,5,0
352,104,26764,1,0
440,72,27164,1,8
256,176,27964,5,0
168,144,28364,1,0
72,128,28764,1,8
168,304,29564,5,0
256,264,29964,1,0
344,304,30364,1,8
384,272,30564,1,0
408,232,30764,2,0,B|424:176,3,40
432,96,31764,1,0
432,96,31964,1,0
344,64,32364,5,0
256,104,32764,1,2
168,64,33164,1,0
256,32,33564,1,2
280,128,33964,6,0,B|320:168|304:208,1,80,0|2
232,128,34764,2,0,B|192:168|208:208,1,80,0|2
230,244,35364,1,0
282,244,35564,1,0
312,288,35764,2,0,B|256:328|176:280,2,120
352,240,37164,5,4
304,96,37564,1,4
160,144,37964,1,4
208,288,38364,1,4
352,240,38764,1,4
352,240,38964,6,0,B|368:200|412:200,1,60,2|0
405,133,39564,1,2
360,80,39864,2,0,B|336:64|304:64,1,60,0|4
256,144,40564,5,2
208,224,40964,1,0
256,144,41364,1,2
208,64,41764,1,0
112,64,42164,6,0,B|88:88|80:128,1,60,2|0
64,184,42764,2,0,B|56:216|64:256,1,60,2|0
88,312,43364,1,4
184,288,43764,5,2
280,312,44164,1,0
376,288,44564,1,2
420,264,44764,2,0,B|460:300,2,40
440,216,45364,6,0,B|456:184|444:152,1,60,2|0
416,96,45964,2,0,B|400:68|364:64,1,60,2|0
296,68,46564,1,4
200,72,46964,6,0,B|192:136|120:160,1,119.999996423721
128,72,47764,2,0,B|64:80|48:160,1,119.999996423721
48,248,48564,5,2
112,288,48864,1,0
168,240,49164,2,0,B|192:216|192:184,2,60,2|0|2
256,192,50164,1,0
256,192,50364,1,0
344,240,50764,1,0
432,280,51164,2,0,B|454:283,4,20,8|0|0|0|4
408,184,51964,5,8
360,104,52364,1,0
280,48,52764,1,8
184,56,53164,1,0
112,120,53564,1,8
80,208,53964,2,0,B|56:256,1,40
128,208,54364,2,0,B|144:248,1,40
168,288,54764,6,0,B|248:288,1,80
192,208,55564,2,0,B|280:208,1,80
216,128,56364,2,0,B|296:128,1,80
360,56,57164,2,0,B|360:136,1,80
360,184,57764,1,0
384,224,57964,5,4
336,224,58164,2,0,B|304:256|304:288,4,60,0|0|0|0|4
256,192,59764,1,8
176,248,60164,1,0
256,192,60564,1,8
176,144,60964,2,0,B|144:128,2,20,0|0|4
256,96,61564,5,0
256,192,61964,1,4
256,288,62364,1,0
214,194,62764,2,0,B|258:166|323:206,4,89.9999973177911
214,194,64164,1,0
256,192,64364,12,0,65564
256,192,65964,5,4
304,128,66364,1,0
352,192,66764,1,8
352,192,66964,1,0
432,192,67364,5,8
432,272,67764,1,8
352,272,68164,1,8
312,344,68564,1,8
292,308,68764,1,8
272,272,68964,1,0
248,240,69164,6,0,B|208:236,2,40,0|0|8
288,168,69964,2,0,B|336:172,2,40,0|0|8
248,96,70764,2,0,B|208:88,2,40,4|0|4
324,76,71564,2,0,B|372:92,1,40,4|0
400,76,71964,2,0,B|444:88,1,40,4|4
456,124,72364,5,0
416,196,72764,1,8
392,272,73164,1,0
352,284,73364,1,0
312,288,73564,1,8
272,280,73764,5,0
208,328,74164,1,8
128,328,74564,1,0
80,264,74964,1,0
88,224,75164,1,8
96,184,75364,1,0
104,144,75564,5,4
152,80,75964,2,0,B|136:64,4,20
232,64,76764,1,0
264,136,77164,2,0,B|296:208,1,59.9999982118607
240,192,77564,2,0,B|216:256,1,59.9999982118607
268,248,77964,2,0,B|300:320,1,59.9999982118607
256,332,78364,1,0
256,332,78564,1,0
256,332,78764,5,4
176,332,79164,2,0,B|72:312|36:192,1,200
38,200,80364,5,0
76,128,80764,2,0,B|144:176|200:80|284:132,1,200
268,123,81964,5,0
256,192,82364,2,0,B|312:152|368:248|456:184,1,200
447,189,83564,5,0
416,264,83964,1,0
352,320,84364,1,0
312,320,84564,1,0
272,320,84764,1,8
232,320,84964,1,0
192,320,85164,6,0,B|184:352|152:360|112:208,1,160,4|0
104,144,86364,1,8
128,64,86764,1,0
208,64,87164,2,0,B|296:64,2,80,8|0|8
256,128,88364,6,0,B|256:216,1,80,0|8
328,240,89164,2,0,B|328:160,1,80,0|8
400,128,89964,2,0,B|400:224,1,80,0|8
400,248,90564,1,0
400,288,90764,2,0,B|360:336,1,40
336,320,91164,2,0,B|288:320,1,40,0|0
256,320,91564,6,0,B|248:352|216:360|176:208,1,160,4|0
104,192,92764,2,0,B|80:200|64:224,2,40
168,144,93564,2,0,B|192:56|304:48,1,160,8|0
325,50,94564,1,0
368,48,94764,6,0,B|440:112|400:200,1,160
320,192,95964,2,0,B|320:232,2,40
240,192,96764,2,0,B|240:152,1,40,8|0
196,192,97164,2,0,B|196:232,1,40
152,192,97564,2,0,B|152:152,1,40,8|0
152,112,97964,2,0,B|112:112|116:64,2,59.9999982118607,4|0|12
232,64,98764,5,0
316,108,99164,2,0,B|292:152,2,40,8|0|0
408,128,99964,1,8
408,128,100164,1,0
368,216,100564,1,0
368,216,100764,1,8
352,312,101164,6,0,B|312:344,1,40
272,328,101564,2,0,B|228:320,1,40,8|0
212,276,101964,1,0
133,330,102364,1,8
96,304,102564,1,0
72,264,102764,6,0,B|58:244|56:216,1,40
56,176,103164,2,0,B|56:158|64:136,1,40,8|0
88,96,103564,2,0,B|100:77|120:64,1,40
159,47,103964,2,0,B|185:36|218:30,1,40,8|0
245,30,104364,1,4
256,192,104564,12,0,106764
256,192,107564,12,4,110764
256,192,111164,1,8
328,160,111564,1,0
328,120,111764,1,8
256,80,112164,5,0
184,112,112564,1,0
112,80,112964,1,0
112,160,113364,2,0,B|72:160,2,40,8|0|8
112,200,113964,5,0
72,272,114364,1,8
152,272,114764,1,0
192,200,115164,1,8
272,200,115564,6,0,B|328:200,1,40,0|8
392,200,116164,1,8
424,272,116564,1,8
392,296,116764,1,8
352,280,116964,6,0,B|296:296|232:280,1,120,0|8
152,288,117964,2,0,B|152:240,3,40
152,168,118964,1,0
72,168,119364,1,0
72,88,119764,1,0
112,88,119964,2,0,B|160:88,1,40,8|0
192,88,120364,5,0
234,81,120564,1,0
278,76,120764,1,0
324,83,120964,1,0
369,101,121164,1,0
403,137,121364,1,0
420,185,121564,1,0
424,237,121764,1,0
406,286,121964,6,0,B|376:323|326:331,1,89.9999973177911
268,319,122564,2,0,B|223:313|189:256,1,89.9999973177911
199,200,123164,2,0,B|202:184|218:172,4,29.9999991059304
256,192,123664,12,0,126764
