osu file format v9

[General]
AudioFilename: 02 Ray of Illuminati (DJMAX).mp3
AudioLeadIn: 0
PreviewTime: 13060
Countdown: 0
SampleSet: Normal
StackLeniency: 0.3
Mode: 1
LetterboxInBreaks: 1

[Editor]
DistanceSpacing: 1.34
BeatDivisor: 4
GridSize: 8

[Metadata]
Title:Ray of Illuminati
Artist:ESTi
Creator:fanzhen0019
Version:Taiko
Source:DJMAX
Tags:loveFantasy mekadon Portable Trilogy Fever Hot Tunes Technika2

[Difficulty]
HPDrainRate:5
CircleSize:7
OverallDifficulty:5
ApproachRate:10
SliderMultiplier:1.4
SliderTickRate:2

[Events]
//Background and Video events
0,0,"12.jpg"
//Break Periods
//Storyboard Layer 0 (Background)
//Storyboard Layer 1 (Fail)
//Storyboard Layer 2 (Pass)
//Storyboard Layer 3 (Foreground)
//Storyboard Sound Samples
//Background Colour Transformations
3,100,163,162,255

[TimingPoints]
364,400,4,1,0,80,1,0
6364,-100,4,1,0,80,0,0
12564,-100,4,1,0,80,0,0
12764,-100,4,1,0,80,0,0
12964,-100,4,1,0,80,0,0
13164,-100,4,1,0,80,0,1
25964,-100,4,1,0,80,0,0
32364,-100,4,1,0,80,0,0
62764,-50,4,1,0,80,0,0
65564,-100,4,1,0,80,0,0
97964,-100,4,1,0,80,0,0
101164,-100,4,1,0,80,0,0
104474,-100,4,1,0,80,0,0
110764,-100,4,1,0,80,0,1
123564,-100,4,1,0,80,0,0
123764,-100,4,1,0,80,0,0

[Colours]
Combo1 : 11,163,244
Combo2 : 122,231,245
Combo3 : 245,245,137
Combo4 : 6,242,255

[HitObjects]
416,112,6764,5,0
403,182,7164,1,0
403,182,7364,1,0
403,182,7564,1,8
473,165,7964,1,0
281,88,8364,1,0
385,112,8964,1,0
385,112,9164,1,8
424,100,9564,1,0
424,100,9964,1,0
321,146,10364,1,0
321,146,10564,1,0
321,146,10764,1,8
393,187,11164,1,0
232,163,11564,1,0
161,193,11864,1,0
161,193,12164,1,0
211,121,12364,1,0
211,121,12564,1,8
211,121,12764,1,8
230,126,12964,1,8
250,85,13164,1,0
383,187,13564,1,0
286,197,13897,1,0
456,108,13964,1,0
416,122,14164,1,8
173,147,14364,1,0
325,103,14564,1,0
209,203,14964,1,0
273,133,15364,1,0
443,154,15764,1,0
439,203,15964,1,8
439,203,16164,1,8
412,69,16364,1,0
439,93,16464,1,8
456,105,16564,1,0
391,111,16664,1,8
358,151,16764,1,0
312,170,16864,1,0
261,197,16964,1,8
359,54,17064,1,0
443,154,17164,1,0
443,154,17264,1,0
204,160,17364,1,8
191,106,17464,1,0
281,86,17564,1,0
281,86,17630,1,0
281,86,17697,1,0
281,86,17764,1,8
443,80,18164,1,8
484,121,18564,1,8
473,197,18764,1,0
473,197,18964,1,0
412,172,19164,1,8
412,172,19364,1,8
372,211,19564,1,0
336,120,19964,1,0
411,81,20264,1,8
328,150,20364,1,0
217,131,20564,1,0
419,145,20764,1,8
492,167,20964,1,0
262,183,21364,1,0
191,131,21764,1,0
177,178,22164,1,0
195,192,22364,1,0
395,66,22564,1,0
298,101,22764,1,0
437,53,22864,1,0
196,75,22964,1,0
321,95,23164,1,0
432,141,23264,1,8
389,200,23464,1,8
262,162,23764,1,0
292,175,23964,1,8
446,99,24164,1,8
446,99,24230,1,8
446,99,24297,1,8
480,126,24364,1,0
231,77,24664,1,4
181,49,24964,1,0
231,77,25164,1,0
281,58,25364,1,0
445,152,25564,1,8
445,152,25764,1,8
420,231,25964,1,0
329,149,26164,1,0
337,168,26264,1,8
429,63,26464,1,0
438,95,26564,1,8
186,72,26764,1,0
206,88,26864,1,8
358,60,27064,1,0
364,83,27164,1,8
288,152,27364,1,8
288,193,27564,1,0
339,209,27764,1,8
343,247,27864,1,0
93,112,27964,1,0
178,126,28064,1,8
468,160,28264,1,0
469,184,28364,1,8
442,100,28564,1,0
419,127,28664,1,8
378,192,28864,1,0
426,224,28964,1,8
250,225,29164,1,8
343,134,29364,1,8
343,134,29464,1,8
348,165,29564,1,0
399,58,29764,1,8
461,167,29964,1,0
488,86,30164,1,8
482,121,30264,1,8
371,116,30464,1,8
371,116,30564,1,8
386,222,30764,1,0
295,279,30864,1,8
216,232,31064,1,0
264,248,31164,1,8
245,80,31364,1,0
257,127,31464,1,8
442,165,31664,1,0
463,198,31764,1,8
361,194,31964,1,0
466,79,32164,1,8
486,118,32264,1,8
485,153,32364,1,0
379,102,32564,1,8
153,87,32764,1,0
153,87,32864,1,0
211,184,32964,1,8
447,208,33164,1,0
273,88,33364,1,8
343,139,33464,1,0
351,201,33664,1,0
381,202,33764,1,8
253,197,33964,1,8
247,241,34064,1,0
247,241,34164,1,0
333,263,34364,1,0
333,263,34464,1,0
389,270,34564,1,8
433,112,34764,1,0
463,145,34964,1,8
468,180,35064,1,0
382,179,35264,1,0
387,152,35364,1,0
382,179,35464,1,8
382,179,35564,1,0
263,150,35764,1,0
263,150,35864,1,0
256,191,35964,1,8
344,91,36164,1,8
363,224,36364,1,0
431,125,36564,1,8
468,180,36664,1,0
363,224,36864,1,0
430,219,36964,1,8
413,38,37164,1,4
477,80,37364,1,12
477,80,37564,1,12
455,94,37764,1,12
267,121,37964,1,4
346,179,38164,1,12
346,179,38364,1,12
346,179,38564,1,12
304,241,38764,1,4
419,127,38964,1,0
419,127,39064,1,0
436,118,39164,1,8
479,193,39364,1,8
395,194,39564,1,0
408,222,39764,1,8
402,259,39864,1,0
402,259,40064,1,0
424,270,40164,1,8
293,154,40364,1,0
293,154,40464,1,0
316,171,40564,1,8
361,109,40764,1,8
361,109,40864,1,8
361,109,40964,1,8
438,153,41164,1,0
457,116,41364,1,8
458,185,41464,1,0
475,143,41664,1,8
458,185,41764,1,0
245,180,41964,1,0
275,225,42164,1,0
275,225,42264,1,0
295,256,42364,1,8
346,156,42564,1,8
389,204,42764,1,0
381,104,42964,1,8
400,184,43064,1,0
420,194,43264,1,0
431,214,43364,1,8
299,150,43564,1,0
299,150,43664,1,0
299,150,43764,1,8
462,167,43964,1,0
324,80,44164,1,8
448,66,44364,1,8
470,101,44464,1,0
470,101,44564,1,0
474,143,44664,1,8
420,194,44864,1,0
431,214,44964,1,8
330,199,45164,1,0
394,117,45364,1,8
375,150,45464,1,0
422,148,45564,1,8
492,205,45764,1,8
395,263,45964,1,0
278,230,46164,1,8
238,202,46264,1,0
305,93,46464,1,0
341,76,46564,1,8
341,76,46664,1,8
373,72,46764,1,0
129,177,46964,1,0
129,177,47064,1,0
129,177,47164,1,8
226,147,47364,1,8
217,185,47564,1,0
424,153,47764,1,0
443,174,47864,1,8
358,200,48064,1,0
380,226,48164,1,8
430,96,48364,1,0
430,96,48464,1,0
430,96,48564,1,0
430,96,48664,1,0
445,114,48764,1,8
288,118,48964,1,8
346,113,49164,1,0
480,139,49364,1,8
478,163,49464,1,0
396,181,49664,1,0
388,208,49764,1,8
296,186,49964,1,0
296,186,50064,1,0
293,205,50164,1,8
411,68,50364,1,8
446,69,50564,1,8
446,69,50664,1,8
446,69,50764,1,8
446,69,50964,1,8
446,69,51164,1,8
332,145,51364,1,8
408,186,51564,1,0
344,244,51964,1,8
239,179,52364,1,0
239,179,52564,1,0
239,179,52764,1,8
319,142,53164,1,0
371,120,53364,1,0
445,164,53464,1,8
413,91,53664,1,0
452,75,53764,1,8
463,123,53964,1,0
335,198,54164,1,8
239,179,54364,1,0
230,196,54464,1,0
269,186,54564,1,8
298,144,54764,1,0
343,142,54964,1,8
374,263,55164,1,0
179,257,55564,1,0
183,282,55764,1,0
411,168,55964,1,0
384,78,56097,1,0
384,78,56230,1,0
455,133,56364,1,8
266,111,56564,1,0
266,111,56664,1,0
363,193,56764,1,8
441,220,56964,1,8
371,247,57164,1,0
371,247,57264,1,0
371,247,57364,1,8
443,190,57564,1,0
460,163,57764,1,8
482,199,57964,1,0
159,168,58364,1,0
291,127,58564,1,8
192,117,58764,1,0
372,132,58864,1,8
456,122,59064,1,0
460,163,59164,1,8
316,194,59364,1,8
316,194,59464,1,8
414,211,59564,1,0
372,132,59764,1,8
460,163,59964,1,0
462,87,60164,1,8
477,128,60364,1,0
372,132,60564,1,8
349,133,60664,1,0
361,98,60864,1,0
372,132,60964,1,8
316,150,61030,1,8
316,150,61097,1,8
316,150,61164,1,8
165,112,61564,1,8
419,254,61864,1,0
430,270,61964,1,8
424,207,62164,1,0
366,186,62364,1,8
366,186,62564,1,8
210,147,62764,1,4
210,147,63064,1,4
210,147,63364,1,4
206,166,63664,1,4
269,64,63964,1,12
295,74,64164,1,12
256,192,64364,12,4,65564
369,135,65964,5,0
224,178,66364,1,0
363,208,66764,1,0
384,207,66964,1,0
405,208,67164,1,8
428,214,67364,1,0
300,270,67764,1,0
256,190,68164,1,0
256,190,68364,1,0
209,237,68564,1,0
309,207,68764,1,8
309,207,68964,1,8
428,143,69164,1,0
428,143,69264,1,0
428,143,69364,1,0
464,179,69464,1,8
309,207,69764,1,0
309,207,69864,1,0
309,207,69964,1,0
345,224,70064,1,8
338,140,70364,1,0
211,255,70464,1,0
338,140,70564,1,0
395,176,70664,1,8
257,157,70964,1,0
257,157,71064,1,0
257,157,71164,1,0
206,270,71364,1,0
206,270,71564,1,0
206,270,71764,1,0
419,99,71964,1,8
456,163,72164,1,8
456,163,72230,1,8
456,163,72297,1,8
370,196,72364,1,0
210,248,72764,1,0
296,298,73164,1,0
296,298,73364,1,0
278,303,73764,1,0
354,165,74064,1,0
302,203,74164,1,8
150,174,74364,1,8
451,159,74564,1,0
419,240,74664,1,8
267,219,74964,1,0
419,240,75164,1,8
411,223,75364,1,8
468,233,75564,1,0
353,159,75764,1,8
353,159,75964,1,8
353,159,76164,1,8
156,144,76264,1,0
289,209,76464,1,0
380,196,76564,1,8
380,196,76664,1,8
380,196,76764,1,0
452,154,76964,1,0
192,222,77164,1,0
171,110,77564,1,0
247,139,77864,1,0
247,139,77964,1,0
247,139,78064,1,0
247,139,78164,1,0
101,161,78364,1,0
101,161,78564,1,0
272,200,78764,1,0
408,152,78964,1,8
432,200,79164,1,0
432,200,79264,1,0
447,163,79364,1,8
350,103,79564,1,0
452,101,79764,1,8
341,163,79964,1,0
341,163,80064,1,0
327,197,80164,1,8
225,176,80364,1,0
299,246,80564,1,8
262,106,80764,1,0
262,106,80864,1,0
262,106,80964,1,8
418,149,81164,1,0
439,168,81364,1,0
428,249,81464,1,8
33,148,81664,1,0
327,197,81764,1,8
152,130,81964,1,0
442,99,82164,1,8
442,99,82264,1,8
468,130,82364,1,0
367,114,82564,1,8
205,123,82764,1,0
369,229,82964,1,8
389,235,83064,1,0
440,211,83264,1,0
444,192,83364,1,8
355,171,83564,1,0
355,171,83664,1,0
355,171,83764,1,8
468,130,83964,1,0
367,114,84164,1,8
367,114,84264,1,8
367,114,84364,1,0
310,223,84564,1,8
310,223,84764,1,8
150,233,84964,1,8
423,207,85164,1,0
259,107,85364,1,8
376,165,85564,1,0
376,165,85664,1,0
376,165,85764,1,8
423,114,85964,1,0
470,173,86164,1,8
476,104,86364,1,0
476,104,86464,1,0
476,104,86564,1,8
300,254,86764,1,0
250,186,86964,1,8
250,186,87064,1,0
365,233,87264,1,8
365,233,87364,1,0
138,232,87564,1,0
286,166,87764,1,8
403,165,87964,1,0
403,165,88064,1,0
403,165,88164,1,8
332,116,88364,1,0
452,120,88564,1,8
452,120,88664,1,8
452,120,88764,1,0
441,206,88964,1,8
441,206,89064,1,0
441,206,89164,1,0
302,233,89364,1,0
302,233,89464,1,0
302,233,89564,1,8
270,256,89764,1,8
166,95,89964,2,4,B|233:98,12,35
235,246,91364,1,0
299,155,91564,1,0
299,155,91664,1,0
299,155,91764,1,8
380,236,91964,1,0
380,236,92064,1,0
380,236,92164,1,8
421,124,92364,1,0
421,124,92464,1,0
421,124,92564,1,8
459,206,92764,1,0
459,206,92864,1,0
459,206,92964,1,8
365,186,93164,1,0
449,163,93364,1,8
449,163,93464,1,0
467,121,93664,1,0
282,256,93764,1,8
322,109,93964,1,0
376,166,94164,1,8
376,166,94264,1,0
216,173,94464,1,0
251,175,94564,1,8
251,175,94664,1,8
274,188,94764,1,0
373,249,94964,1,8
430,223,95164,1,0
430,223,95264,1,0
430,223,95364,1,8
468,165,95564,1,0
468,165,95664,1,0
468,165,95764,1,8
404,121,95964,1,0
404,121,96064,1,0
404,121,96164,1,8
301,230,96364,1,0
377,181,96564,1,8
377,181,96664,1,0
327,151,96864,1,0
468,165,96964,1,8
468,165,97064,1,8
468,165,97164,1,0
433,252,97364,1,8
433,252,97564,1,8
433,252,97764,1,8
375,97,97964,1,0
468,107,98164,1,8
468,107,98264,1,0
393,167,98464,1,0
393,167,98564,1,8
460,189,98764,1,0
279,149,98964,1,8
323,222,99164,1,0
323,222,99264,1,0
299,216,99364,1,8
365,67,99564,1,0
444,67,99764,1,8
468,107,99864,1,0
375,118,100064,1,0
355,152,100164,1,8
407,190,100364,1,0
452,163,100564,1,8
201,203,100764,1,0
220,177,100864,1,8
220,177,100964,1,8
267,246,101164,1,0
387,249,101364,1,8
446,238,101564,1,0
470,223,101764,1,8
364,106,101964,1,0
364,106,102164,1,0
464,148,102364,1,8
464,148,102564,1,8
269,199,102764,1,4
206,220,103064,1,4
171,235,103364,1,4
171,235,103664,1,4
187,180,103964,1,4
187,180,104164,1,4
256,192,104364,12,0,106364
256,192,106764,12,0,109164
250,85,110764,1,0
383,187,111164,1,0
286,197,111464,1,8
456,108,111564,1,0
416,122,111764,1,8
173,147,111964,1,0
325,103,112164,1,0
209,203,112564,1,0
273,133,112964,1,0
443,154,113364,1,0
439,203,113564,1,8
439,203,113764,1,8
412,69,113964,1,0
439,93,114064,1,8
456,105,114164,1,0
391,111,114264,1,8
358,151,114364,1,0
312,170,114464,1,0
261,197,114564,1,8
359,54,114664,1,0
443,154,114764,1,0
443,154,114864,1,0
204,160,114964,1,8
191,106,115064,1,0
281,86,115164,1,0
281,86,115230,1,0
281,86,115297,1,0
281,86,115364,1,8
443,80,115764,1,8
484,121,116164,1,8
473,197,116364,1,0
473,197,116564,1,0
412,172,116764,1,8
412,172,116964,1,8
372,211,117164,1,0
336,120,117564,1,0
411,81,117864,1,8
328,150,117964,1,0
217,131,118164,1,0
419,145,118364,1,8
492,167,118564,1,0
262,183,118964,1,0
191,131,119364,1,0
177,178,119764,1,0
195,192,119964,1,0
395,66,120164,1,0
298,101,120364,1,0
437,53,120464,1,0
196,75,120564,1,0
321,95,120764,1,0
432,141,120864,1,8
389,200,121064,1,8
262,162,121364,1,0
292,175,121564,1,8
446,99,121764,1,8
446,99,121830,1,8
446,99,121897,1,8
480,126,121964,1,0
231,77,122264,1,4
186,189,122564,1,4
171,201,122864,1,4
204,201,123164,1,4
204,201,123364,1,4
256,192,123564,12,0,126764
