osu file format v9

[General]
AudioFilename: 02 Ray of Illuminati (DJMAX).mp3
AudioLeadIn: 0
PreviewTime: 13060
Countdown: 0
SampleSet: Soft
StackLeniency: 0.3
Mode: 0
LetterboxInBreaks: 1

[Editor]
DistanceSpacing: 1.7
BeatDivisor: 4
GridSize: 8

[Metadata]
Title:Ray of Illuminati
Artist:ESTi
Creator:fanzhen0019
Version:Maniac
Source:DJMAX
Tags:loveFantasy mekadon Portable Trilogy Fever Hot Tunes Technika2

[Difficulty]
HPDrainRate:7
CircleSize:4
OverallDifficulty:8
ApproachRate:8
SliderMultiplier:1.6
SliderTickRate:2

[Events]
//Background and Video events
0,0,"BG.jpg"
//Break Periods
//Storyboard Layer 0 (Background)
//Storyboard Layer 1 (Fail)
//Storyboard Layer 2 (Pass)
//Storyboard Layer 3 (Foreground)
//Storyboard Sound Samples
//Background Colour Transformations
3,100,163,162,255

[TimingPoints]
364,400,4,1,2,70,1,0
12564,-100,4,1,2,40,0,0
12764,-100,4,1,2,50,0,0
12964,-100,4,1,2,60,0,0
13164,-100,4,1,2,70,0,1
13264,-100,4,2,1,70,0,1
14714,-100,4,1,2,70,0,1
14814,-100,4,2,1,70,0,1
19714,-100,4,1,2,70,0,1
19814,-100,4,2,1,70,0,1
20114,-100,4,1,2,70,0,1
20214,-100,4,2,1,70,0,1
24364,-100,4,1,2,40,0,1
25114,-100,4,2,1,60,0,1
25364,-100,4,2,1,70,0,1
25964,-100,4,2,1,70,0,0
48364,-100,4,2,1,70,0,0
51714,-100,4,1,2,70,0,0
51814,-100,4,2,1,70,0,0
53314,-100,4,1,2,70,0,0
53414,-100,4,2,1,70,0,0
58164,-100,4,2,1,70,0,0
62764,-100,4,1,2,70,0,0
64364,-100,4,2,1,70,0,0
65164,-100,4,2,1,50,0,0
65964,-100,4,2,1,70,0,0
66114,-100,4,1,2,5,0,0
66214,-100,4,2,1,70,0,0
66514,-100,4,1,2,5,0,0
66614,-100,4,2,1,70,0,0
71164,-125,4,2,1,60,0,0
71364,-100,4,2,1,60,0,0
72464,-100,4,2,1,70,0,0
72514,-100,4,1,2,5,0,0
72614,-100,4,2,1,70,0,0
72914,-100,4,2,1,5,0,0
73014,-100,4,2,1,70,0,0
77164,-100,4,2,1,70,0,0
97964,-100,4,2,1,70,0,0
104564,-100,4,1,2,5,0,0
110764,-100,4,2,1,70,0,1
113964,-100,4,2,1,70,0,1
117064,-100,4,2,1,80,0,1
117264,-100,4,2,1,70,0,1
120364,-66.6666666666667,4,2,1,70,0,1
121964,-100,4,1,2,50,0,1
123564,-100,4,2,1,50,0,1
123764,-100,4,1,2,5,0,0

[Colours]
Combo1 : 11,163,244
Combo2 : 122,231,245
Combo3 : 245,245,137
Combo4 : 6,242,255

[HitObjects]
96,48,6764,2,0,B|96:192|96:192|256:264,1,320,0|4
256,112,7964,1,0
416,48,8364,2,0,B|416:192|416:192|256:264,1,320,0|4
96,48,9964,2,0,B|424:48,1,320,0|4
112,192,11564,2,0,B|256:256|256:256|408:192,1,320,0|4
405,192,12564,2,0,B|408:136,5,40
405,192,13164,6,0,B|404:300,1,80
328,128,13564,2,0,B|272:200,1,80,8|0
248,192,13864,1,0
216,192,13964,2,0,B|216:304,2,80,0|0|8
136,256,14564,2,0,B|216:272|216:272|304:256|304:256,2,160
136,256,15764,1,0
136,96,15964,2,0,B|136:56|136:56|168:16,1,80,8|0
200,120,16364,5,0
240,120,16464,1,0
272,144,16564,1,2
304,168,16664,1,0
344,168,16764,5,8
304,168,16864,1,0
272,192,16964,1,2
240,216,17064,1,0
200,216,17164,5,0
240,216,17264,1,0
272,240,17364,1,2
304,264,17464,1,2
336,288,17564,2,0,B|424:352,1,80,8|2
224,361,17964,5,0
452,256,18164,1,0
354,25,18364,1,8
124,124,18564,1,0
248,128,18764,5,0
367,173,18964,1,0
320,288,19164,1,8
202,247,19364,1,0
216,280,19464,1,0
232,312,19564,6,0,B|400:312,2,160,0|8|0
192,312,20464,1,0
152,312,20564,1,0
48,192,20764,2,0,B|144:192,1,80,8|0
256,288,21164,2,0,B|256:192,1,80
464,192,21564,2,0,B|368:192,1,80,8|0
256,88,21964,1,0
256,88,22064,2,0,B|256:168,1,80,8|0
256,168,22364,1,8
120,208,22564,1,0
88,184,22664,1,8
56,160,22764,6,0,B|120:96,1,80
264,64,23164,2,0,B|207:120,1,80,8|0
192,280,23564,2,0,B|256:216,1,80
408,184,23964,2,0,B|351:240,1,80,8|0
192,280,24364,2,12,B|64:280,2,120
288,208,25164,1,4
288,208,25564,5,0
232,280,25764,1,0
176,352,25964,2,0,B|104:352|104:352|80:352,1,80,0|2
56,280,26364,2,0,B|128:280,1,40,0|2
144,216,26664,1,0
144,216,26764,2,0,B|240:216,1,80,2|0
232,128,27164,2,0,B|144:128,2,80,0|2|0
264,128,27664,5,0
296,128,27764,1,2
424,200,27964,1,0
424,200,28064,2,0,B|312:200,1,80,2|0
344,200,28364,1,2
304,272,28564,2,0,B|392:272,2,80,0|2|2
224,272,29164,6,0,B|128:272,1,80,0|2
112,200,29564,1,2
80,128,29764,1,0
80,128,29864,1,2
128,64,30064,1,0
128,64,30164,1,2
184,8,30364,2,2,B|184:120,1,80
256,128,30764,5,0
256,128,30864,1,0
256,128,30964,2,0,B|256:240,1,80,2|2
256,208,31264,1,2
336,208,31464,1,0
336,208,31564,5,2
256,288,31764,1,2
176,208,31964,1,0
256,128,32164,1,2
176,56,32364,5,0
144,56,32464,1,0
112,56,32564,1,2
16,128,32764,2,0,B|128:128,1,80,0|2
128,128,33064,1,0
160,128,33164,5,0
256,200,33364,1,0
352,128,33564,1,2
256,56,33764,1,2
104,168,33964,6,0,B|80:208|80:208|96:248,1,80,0|2
419,238,34364,2,0,B|432:208|432:208|408:168,1,80,2|0
256,128,34764,1,0
256,168,34864,1,2
256,208,34964,1,0
256,312,35164,1,2
256,312,35364,1,0
360,256,35564,6,0,B|360:152,1,80
256,128,35964,1,2
152,176,36164,1,0
152,176,36264,1,0
152,176,36364,2,0,B|152:256,1,80,2|0
256,312,36764,1,0
256,312,36964,1,2
82,345,37164,5,4
429,38,37564,1,4
82,38,37964,1,4
429,345,38364,1,4
256,192,38764,6,0,B|336:192|336:192,1,80,0|2
336,352,39164,2,0,B|296:328,1,40,0|2
168,264,39464,2,0,B|216:240,1,40,0|2
336,168,39764,2,0,B|296:144,1,40,0|2
168,72,40064,2,0,B|208:48,1,40,0|2
256,192,40364,5,0
256,352,40564,1,2
192,152,40764,1,8
192,312,40964,1,2
128,112,41164,1,0
128,144,41264,1,8
128,176,41364,1,2
128,272,41564,1,10
56,192,41964,6,0,B|136:192,1,80,0|2
296,192,42364,1,0
336,192,42464,1,2
216,88,42664,1,0
176,88,42764,1,2
296,192,42964,1,0
336,192,43064,2,0,B|440:192,1,80,2|0
456,192,43364,1,2
400,336,43564,5,0
240,336,43764,1,2
384,264,43964,1,8
224,264,44164,1,2
368,192,44364,1,0
360,160,44464,1,8
352,128,44564,1,2
192,128,44764,1,10
320,64,44964,1,0
320,64,45064,1,8
320,64,45164,6,0,B|384:64|384:64|424:64,1,80,0|2
480,200,45564,1,0
480,200,45664,1,2
320,200,45864,1,0
320,200,45964,2,0,B|248:200|248:200|216:200,1,80,2|0
240,200,46264,1,2
80,200,46464,1,0
80,200,46564,1,2
176,280,46764,5,0
216,128,46964,1,2
256,280,47164,1,8
296,128,47364,1,2
336,280,47564,1,0
344,248,47664,1,8
352,216,47764,1,2
376,128,47964,1,10
472,256,48364,6,0,B|448:224|448:224|448:160,1,80,0|2
376,328,48764,1,0
376,328,48864,2,0,B|376:232,1,80,2|0
376,248,49164,1,2
304,160,49364,1,0
304,160,49464,2,0,B|304:264,1,80,2|0
304,240,49764,1,2
248,89,49964,5,0
360,89,50164,1,0
248,89,50364,1,10
360,89,50564,1,0
256,224,50764,5,0
144,224,50964,1,2
256,224,51164,1,10
144,224,51364,1,2
72,136,51564,6,0,B|144:64|144:64|232:64,1,160,0|10
312,64,52164,1,0
416,112,52364,1,0
416,224,52564,1,0
312,272,52764,1,10
440,136,53164,6,0,B|368:64|368:64|280:64,1,160,0|10
200,64,53764,1,0
96,112,53964,1,0
96,168,54064,1,2
96,224,54164,1,0
200,272,54364,1,10
200,128,54764,5,0
312,256,54964,1,2
168,192,55164,1,10
344,192,55364,1,2
200,256,55564,1,0
312,128,55764,1,2
256,192,55964,2,0,B|256:104,2,80,10|2|0
176,328,56564,1,2
336,328,56764,1,10
256,192,56964,5,0
256,192,57164,2,0,B|256:248,2,40,0|2|0
256,32,57564,1,10
144,80,57764,1,8
144,112,57864,1,2
144,144,57964,6,0,B|120:184|120:184|120:248,1,80,0|2
192,256,58364,2,0,B|192:192,1,40,2|0
256,176,58664,2,0,B|256:240,1,40,0|2
320,176,58964,2,0,B|320:112,1,40,2|0
384,96,59264,2,0,B|384:160,1,40,0|2
384,224,59564,5,0
272,72,59764,1,2
320,264,59964,1,8
208,112,60164,1,2
256,304,60364,1,0
144,152,60564,1,2
192,344,60764,1,8
80,192,60964,1,2
56,208,61064,1,0
32,224,61164,6,0,B|32:328,1,80,0|2
176,240,61564,2,0,B|272:176,1,80,8|0
304,48,61964,2,0,B|240:88,1,40,0|2
120,72,62264,1,2
120,72,62464,2,0,B|56:112,1,40,0|2
24,136,62764,5,4
168,224,63064,1,4
256,80,63364,1,4
344,224,63664,1,4
487,136,63964,1,4
487,136,64164,1,0
487,136,64364,5,2
464,168,64464,1,0
440,200,64564,1,0
416,232,64664,1,0
400,208,64764,5,2
376,232,64864,1,0
352,256,64964,1,2
328,280,65064,1,0
304,256,65164,5,0
280,232,65264,1,2
256,208,65364,1,0
232,184,65464,1,0
232,144,65564,5,2
200,152,65664,1,0
168,160,65764,1,2
136,168,65864,1,0
104,176,65964,6,0,B|104:352,2,160,6|2|2
104,40,66964,1,2
272,136,67364,2,0,B|272:240,1,80,2|0
384,208,67764,2,0,B|320:272,1,80,2|0
488,288,68164,2,0,B|392:288,1,80,2|0
248,288,68564,1,0
248,288,68764,1,4
368,64,69164,5,0
328,64,69264,1,0
288,64,69364,2,0,B|216:64,1,40,2|0
128,144,69764,5,0
168,144,69864,1,0
208,144,69964,2,0,B|272:144,1,40,2|0
368,224,70364,5,0
328,224,70464,1,0
288,224,70564,2,0,B|232:224,1,40,2|0
128,304,70964,5,0
168,304,71064,1,0
208,304,71164,2,0,B|272:304,1,64,4|0
400,304,71564,5,4
400,304,71764,1,0
400,144,71964,1,4
400,144,72164,1,4
368,128,72264,1,0
336,112,72364,6,0,B|353:190|353:190|328:288,2,160,4|2|0
280,192,73364,2,0,B|256:80,1,80,0|2
224,272,73764,2,0,B|248:384,1,80,0|2
160,352,74164,1,0
152,320,74264,1,2
144,288,74364,1,0
144,256,74464,1,0
144,224,74564,1,2
280,192,74764,5,0
424,184,74964,1,0
424,184,75164,2,2,B|424:96,1,80,2|2
352,200,75564,6,0,B|352:304,2,80,0|2|2
280,296,76164,2,0,B|280:280|280:280|280:224,1,40,0|2
280,224,76364,1,2
280,192,76464,1,0
280,160,76564,1,0
248,144,76664,1,0
216,160,76764,2,0,B|216:272,1,80,0|2
120,360,77164,5,0
96,328,77264,1,2
72,296,77364,1,0
48,264,77464,1,0
32,232,77564,2,0,B|72:232,3,40,2|2|0|2
48,200,77964,1,2
64,168,78064,1,0
80,136,78164,1,0
96,104,78264,1,0
112,72,78364,2,0,B|168:72,3,40,2|0|2|2
192,72,78764,6,0,B|296:72,1,80
472,208,79164,2,0,B|368:208,1,80,2|0
224,112,79564,2,0,B|312:112,1,80
496,248,79964,2,0,B|408:248,1,80,2|0
264,160,80364,5,2
104,160,80564,1,0
104,160,80664,1,0
104,160,80764,1,2
184,24,80964,1,0
184,184,81164,1,2
72,296,81364,1,0
104,296,81464,1,0
144,296,81564,1,2
296,296,81764,1,0
400,176,81964,6,0,B|400:280,1,80,2|0
368,272,82264,1,0
336,288,82364,2,0,B|336:184,1,80,2|2
112,208,82764,2,0,B|112:104,1,80,0|0
144,112,83064,1,0
176,96,83164,2,0,B|176:200,1,80,2|2
304,248,83564,5,2
288,272,83664,1,0
256,272,83764,1,0
224,272,83864,1,0
208,248,83964,1,2
280,96,84164,1,0
256,80,84264,1,0
232,96,84364,1,2
96,184,84564,1,0
256,296,84764,1,2
416,184,84964,1,2
352,72,85164,6,0,B|352:128|352:128|392:160,1,80
440,288,85564,2,0,B|440:232|440:232|408:192,1,80,2|0
160,72,85964,2,0,B|160:128|160:128|120:160,1,80
72,288,86364,2,0,B|72:232|72:232|104:192,1,80,2|0
160,72,86764,2,0,B|248:72,1,80
352,72,87164,2,0,B|264:72,1,80,2|0
256,232,87564,2,0,B|256:328,2,80,0|0|2
360,104,88164,5,0
360,144,88264,1,2
360,184,88364,2,0,B|360:288,2,80,0|0|2
360,184,88964,1,0
256,224,89164,2,0,B|256:320,2,80,0|0|2
256,224,89764,1,0
152,184,89964,2,0,B|152:288,2,80,0|2|0
152,184,90564,1,2
120,56,90764,5,0
152,72,90864,1,0
184,88,90964,1,2
216,72,91064,1,0
248,56,91164,1,0
280,72,91264,1,0
312,88,91364,1,2
344,72,91464,1,2
376,56,91564,1,0
448,200,91764,5,2
416,200,91864,1,2
384,200,91964,1,0
280,200,92164,1,2
344,280,92364,2,0,B|440:280,2,80,0|2|0
208,280,92964,1,2
384,192,93164,2,0,B|352:112,1,80,0|2
128,192,93564,2,0,B|160:272,1,80,0|2
256,56,93964,1,0
256,88,94064,1,0
256,120,94164,1,2
256,152,94264,1,0
256,184,94364,1,2
256,264,94564,1,0
168,200,94764,6,0,B|216:160|216:160|216:160|224:120,1,80,0|2
256,120,95064,1,2
292,142,95164,2,0,B|296:160|296:160|296:160|344:200,1,80,0|2
422,196,95564,2,0,B|405:165|405:165|366:143,1,80,0|2
145,143,95964,2,0,B|107:165|107:165|90:196,1,80,0|2
168,264,96364,6,0,B|216:304|216:304|248:280,1,80,0|2
256,272,96664,1,2
281,293,96764,2,0,B|296:304|296:304|344:264,1,80,0|2
344,232,97064,1,2
344,200,97164,5,2
344,80,97364,1,2
168,144,97564,1,0
168,24,97764,1,2
256,152,97964,6,0,B|256:64,1,80,0|2
336,48,98364,1,0
336,48,98464,2,0,B|336:136,1,80,2|0
416,104,98864,1,0
416,104,98964,2,0,B|416:16,2,80,2|0|2
256,232,99564,6,0,B|256:320,1,80,0|2
176,336,99964,1,0
176,336,100064,2,0,B|176:232,2,80,2|0|0
176,336,100564,1,2
96,288,100764,1,2
96,200,100964,1,2
200,136,101164,5,0
256,32,101364,1,2
312,136,101564,1,0
192,88,101764,5,2
320,88,101964,1,0
256,192,102164,1,2
256,328,102364,5,0
160,192,102564,1,2
352,192,102764,1,2
256,256,102964,5,2
256,256,103164,1,2
256,256,103364,1,2
160,280,103564,5,2
184,248,103664,1,2
208,216,103764,1,0
232,184,103864,1,0
256,152,103964,1,2
280,184,104064,1,0
304,216,104164,1,2
328,248,104264,1,2
352,280,104364,1,2
256,192,104464,12,0,106764
256,192,107564,12,0,109964
256,192,110764,5,4
256,192,111164,1,8
384,232,111564,2,0,B|464:184,1,80,0|0
384,288,111964,2,0,B|304:336|304:336,1,80,8|0
196,329,112364,2,0,B|208:336|128:288,1,80,0|0
59,190,112763,2,0,B|128:232,1,80,8|0
176,120,113164,1,0
256,208,113364,1,0
336,120,113564,1,8
256,32,113764,1,0
164,100,113964,6,0,B|108:44,1,80,2|0
346,282,114364,2,0,B|403:339,1,80,2|0
186,157,114764,2,0,B|112:128,1,80,2|0
325,226,115163,2,0,B|400:256,1,80,2|0
207,207,115564,2,0,B|128:200,1,80,2|0
304,176,115965,2,0,B|384:184,1,80,2|0
256,280,116364,6,0,B|256:224,3,40,0|0|2|2
256,200,116764,1,0
256,152,116864,1,0
256,104,116964,1,2
256,56,117064,1,2
256,8,117164,1,4
256,8,117564,5,8
200,136,117964,1,0
256,152,118064,1,0
312,136,118164,1,0
392,224,118364,2,0,B|464:312,1,80,8|0
256,360,118764,2,0,B|256:248,1,80
120,224,119164,2,0,B|48:312,2,80,8|0|0
184,320,119764,1,0
256,224,119964,1,8
328,320,120164,1,0
256,112,120364,6,0,B|256:72|256:72|264:64|264:64|248:64|248:64|256:56|256:56|256:-16,2,119.999996423721,0|8|0
256,224,120964,1,8
256,224,121164,2,0,B|256:264|256:264|264:272|264:272|248:272|248:272|256:280|256:280|256:352,2,119.999996423721,0|8|0
256,112,121764,1,8
176,192,121964,5,4
256,48,122264,1,4
336,192,122564,1,4
256,344,122864,1,4
176,192,123164,5,0
256,112,123364,1,0
336,192,123564,1,4
256,192,123764,12,0,126764
