osu file format v9

[General]
AudioFilename: 02 Ray of Illuminati (DJMAX).mp3
AudioLeadIn: 0
PreviewTime: 13060
Countdown: 0
SampleSet: Soft
StackLeniency: 0.3
Mode: 0
LetterboxInBreaks: 1

[Editor]
DistanceSpacing: 1.3
BeatDivisor: 4
GridSize: 4

[Metadata]
Title:Ray of Illuminati
Artist:ESTi
Creator:fanzhen0019
Version:Hard
Source:DJMAX
Tags:loveFantasy mekadon Portable Trilogy Fever Hot Tunes Technika2

[Difficulty]
HPDrainRate:5
CircleSize:4
OverallDifficulty:5
ApproachRate:7
SliderMultiplier:1.2
SliderTickRate:2

[Events]
//Background and Video events
0,0,"BG.jpg"
//Break Periods
//Storyboard Layer 0 (Background)
//Storyboard Layer 1 (Fail)
//Storyboard Layer 2 (Pass)
//Storyboard Layer 3 (Foreground)
//Storyboard Sound Samples
//Background Colour Transformations
3,100,163,162,255

[TimingPoints]
364,400,4,1,2,70,1,0
6364,-153.846153846154,4,1,2,70,0,0
12564,-153.846153846154,4,1,2,40,0,0
12764,-153.846153846154,4,1,2,50,0,0
12964,-153.846153846154,4,1,2,60,0,0
13164,-100,4,2,1,70,0,1
19764,-100,4,2,0,70,0,1
19864,-100,4,2,1,70,0,1
21364,-100,4,2,0,70,0,1
21464,-100,4,2,1,70,0,1
25964,-100,4,2,1,70,0,0
29364,-100,4,2,0,70,0,0
30264,-100,4,2,1,70,0,0
32364,-100,4,2,1,70,0,0
37164,-100,4,2,0,70,0,0
38364,-100,4,2,1,70,0,0
52564,-100,4,2,0,70,0,0
54264,-100,4,2,1,70,0,0
54964,-100,4,2,0,70,0,0
55864,-100,4,2,1,70,0,0
59564,-100,4,2,0,70,0,0
62764,-100,4,1,2,40,0,0
65164,-100,4,2,1,50,0,0
65964,-100,4,2,1,70,0,0
68364,-100,4,2,1,30,0,0
68664,-100,4,2,1,70,0,0
71564,-100,4,2,1,60,0,0
72364,-100,4,2,0,70,0,0
75564,-100,4,2,1,70,0,0
85364,-100,4,2,0,70,0,0
88764,-100,4,2,1,70,0,0
91764,-100,4,2,0,70,0,0
97964,-100,4,2,1,70,0,0
101164,-100,4,2,1,70,0,0
104474,-100,4,1,2,5,0,0
110764,-100,4,2,1,70,0,1
110964,-100,4,2,0,70,0,1
112664,-100,4,2,1,70,0,1
113964,-100,4,2,1,70,0,1
115564,-100,4,2,1,70,0,1
117364,-100,4,2,0,70,0,1
117464,-100,4,2,1,70,0,1
121964,-100,4,1,2,40,0,1
123564,-100,4,2,1,70,0,0
123764,-100,4,2,1,5,0,0

[Colours]
Combo1 : 11,163,244
Combo2 : 122,231,245
Combo3 : 245,245,137
Combo4 : 6,242,255

[HitObjects]
112,96,6764,2,0,B|280:96,1,155.999997210503,0|4
368,96,7964,1,0
448,192,8364,2,0,B|280:192,1,155.999997210503,0|4
112,272,9964,6,0,B|270:272,1,155.999997210503,0|4
368,272,11164,1,0
424,192,11564,2,0,B|264:192,1,155.999997210503,0|4
268,192,12564,2,0,B|268:232|268:224,6,19.4999996513128
392,192,13564,6,0,B|392:120,1,60,2|0
284,120,13964,2,0,B|340:156,1,60
384,48,14364,2,0,B|320:96,1,60,2|0
268,48,14764,5,0
208,96,14964,1,0
196,20,15164,1,2
268,48,15364,5,0
304,116,15564,1,0
344,180,15764,1,2
384,116,15964,1,2
424,52,16164,1,0
448,128,16364,6,0,B|469:106,3,30
448,164,16764,2,0,B|488:204,3,30,2|0|0|0
424,144,17164,2,0,B|384:144,3,30
356,144,17564,2,0,B|292:144,1,60,2|0
240,88,17964,5,0
184,144,18164,1,0
240,200,18364,1,2
296,256,18564,1,0
244,316,18764,2,0,B|244:400,2,60,0|2|2
244,240,19364,1,0
244,164,19564,6,0,B|116:164,1,120,0|2
200,28,20364,1,0
244,92,20564,1,0
288,28,20764,1,2
364,164,21164,6,0,B|244:164,1,120,0|2
200,228,21764,1,0
200,304,21964,2,0,B|200:352,2,30,0|2|0
200,304,22364,1,2
312,40,22764,6,0,B|312:104,1,60
200,80,23164,2,0,B|200:160,1,60,2|0
312,168,23564,2,0,B|312:240,1,60,0|0
200,208,23964,2,0,B|200:272,1,60,2|0
256,296,24364,5,12
200,192,24664,1,12
312,192,24964,1,8
312,192,25164,1,12
296,40,25564,1,0
216,40,25764,1,0
256,104,25964,6,0,B|256:88|256:40,2,60,0|2|0
256,264,26764,2,0,B|256:336,2,60,0|2|0
160,136,27564,1,0
200,64,27764,1,2
240,136,27964,1,0
392,136,28364,1,0
352,208,28564,1,2
312,136,28764,1,0
328,280,29164,6,0,B|192:280,1,120,0|2
76,200,29964,2,0,B|212:200,1,120,0|2
344,148,30764,5,0
448,212,30964,1,2
448,136,31164,1,0
344,224,31364,1,2
348,300,31564,2,0,B|268:312,1,60,0|2
212,296,31964,2,2,B|132:308,1,60
168,224,32364,5,0
112,168,32564,1,0
168,112,32764,1,2
344,224,33164,1,0
400,168,33364,1,0
344,112,33564,1,2
296,256,33964,5,0
256,320,34164,1,0
216,256,34364,1,2
256,192,34564,1,0
296,128,34764,1,0
256,64,34964,1,0
216,128,35164,1,2
336,216,35564,6,0,B|416:216,2,60,0|0|2
256,256,36164,1,0
176,216,36364,2,0,B|112:216,2,60,0|0|2
256,176,36964,1,0
256,88,37164,6,4,B|176:184,1,120
332,180,37964,2,4,B|256:88,1,120
168,216,38764,6,0,B|100:216,1,60
168,216,39164,2,0,B|168:132,1,60,2|0
168,216,39564,2,0,B|236:216,1,60
168,216,39964,2,0,B|168:292,1,60,2|0
244,288,40364,5,0
168,324,40564,1,0
92,288,40764,1,2
64,216,40964,1,0
96,144,41164,1,0
168,116,41364,1,0
240,144,41564,1,2
376,224,41964,6,0,B|300:224,1,60
316,164,42364,2,0,B|316:224,1,60,2|0
256,224,42764,2,0,B|332:224,1,60
316,284,43164,2,0,B|316:224,1,60,2|0
264,164,43564,6,0,B|320:112,1,60
364,176,43964,2,0,B|416:232,1,60,2|0
348,272,44364,2,0,B|292:324,1,60
256,252,44764,1,2
272,40,45164,6,0,B|320:104,1,60
232,112,45564,2,0,B|280:176,1,60,2|0
232,208,45964,2,0,B|268:160,1,60
272,280,46364,2,0,B|320:216,1,60,2|0
360,160,46764,2,0,B|432:160,2,60,0|0|2
280,160,47364,1,0
200,160,47564,2,0,B|120:160,1,60
64,160,47964,1,2
192,264,48364,6,0,B|160:200,1,60,0|0
160,136,48764,2,0,B|192:64,1,60,2|0
264,80,49164,1,0
320,136,49364,1,0
264,192,49564,1,2
208,136,49764,1,0
256,192,49964,12,0,51564
256,192,51964,5,2
288,264,52164,1,0
320,336,52364,2,0,B|184:336,1,120,0|2
256,192,53164,1,0
256,192,53564,1,2
224,120,53764,1,0
192,48,53964,2,0,B|328:48,1,120,0|2
216,160,54764,6,0,B|256:272,1,120,0|2
296,160,55564,2,0,B|256:280,1,120,0|2
128,192,56364,1,0
256,280,56764,1,2
384,192,57164,1,0
256,104,57564,1,2
320,148,57764,1,0
384,192,57964,5,0
448,232,58164,1,0
384,272,58364,1,2
320,232,58564,1,0
240,232,58764,2,0,B|240:180,2,30,0|2|0
176,272,59164,1,2
112,232,59364,1,0
112,192,59464,1,2
112,152,59564,2,0,B|112:32,3,120,0|2|0|2
256,80,61164,6,0,B|256:216,1,120,0|2
256,320,61964,2,0,B|256:192,1,120,0|2
64,184,62764,5,4
168,88,63064,1,4
256,200,63364,1,4
344,88,63664,1,4
456,184,63964,1,4
456,184,64164,1,4
256,192,64364,12,0,65964
256,56,66364,5,2
256,208,66764,2,0,B|256:272,1,60,0|2
168,104,67364,2,0,B|208:152,1,60,0|2
256,208,67764,2,0,B|256:136,1,60,2|0
344,104,68164,2,0,B|304:144|304:144|304:280,1,180,2|4
96,56,69164,6,0,B|40:56,2,30,0|0|2
136,56,69464,1,0
240,108,69764,2,0,B|184:108,2,30,0|0|2
280,108,70064,1,0
212,204,70364,2,0,B|156:204,2,30,0|0|2
252,204,70664,1,0
380,232,70964,2,0,B|324:232,2,30,0|0|6
420,232,71264,1,0
456,256,71364,1,0
456,256,71564,5,6
396,304,71764,1,0
336,256,71964,1,6
276,304,72164,1,6
212,256,72364,6,0,B|212:128,2,120,6|2|0
152,304,73364,1,0
152,304,73564,1,2
96,256,73764,2,0,B|96:120,1,120
96,60,74364,1,2
160,12,74564,2,0,B|160:204,1,180,0|2
352,192,75564,5,0
256,191,75764,1,0
160,192,75964,1,2
256,168,76164,1,0
352,192,76364,1,0
256,144,76564,1,0
160,192,76764,1,2
256,120,76964,1,0
176,120,77164,6,0,B|176:88|176:88|176:88,3,30
208,64,77564,2,0,B|232:40|232:40,3,30,2|0|0|0
282,42,77964,2,0,B|280:40|304:64,3,30
336,90,78364,2,0,B|336:88|336:88|336:120,3,30,2|0|0|0
336,152,78764,1,4
168,232,79164,5,2
256,104,79564,1,0
344,232,79964,1,2
256,284,80364,5,0
168,148,80764,1,2
344,148,81164,1,0
256,192,81564,5,2
256,192,81764,1,0
256,192,81964,6,0,B|324:232,1,60
304,300,82364,2,0,B|252:269,1,60,2|0
184,232,82764,2,0,B|132:201,2,60,0|0|2
156,304,83364,1,0
88,264,83564,5,0
88,264,83764,1,0
40,204,83964,1,2
40,204,84164,1,0
88,144,84364,1,2
88,144,84564,1,2
40,80,84764,1,2
40,80,84964,1,2
88,16,85164,6,0,B|216:16,1,120,0|2
296,144,85964,2,0,B|160:144,1,120,0|2
252,272,86764,2,0,B|140:272,2,90,0|0|2
320,272,87564,2,0,B|456:272,1,120,0|2
408,208,88164,5,0
376,208,88264,1,0
344,208,88364,2,0,B|216:208,1,120,0|2
208,136,88964,1,0
152,88,89164,2,0,B|128:160,1,60
80,56,89564,2,0,B|80:128,1,60,2|2
80,192,89964,5,0
192,192,90164,1,2
96,224,90364,1,0
208,224,90564,1,2
112,256,90764,1,0
224,256,90964,1,2
128,288,91164,1,0
240,288,91364,1,2
264,272,91464,1,0
288,256,91564,6,0,B|416:256,1,120,0|2
344,128,92364,2,0,B|200:128,1,120,0|2
96,128,93164,2,0,B|160:128,1,60,0|0
152,200,93564,2,0,B|200:144,1,60,2|0
232,232,93964,2,0,B|232:160,1,60
232,80,94364,1,2
296,120,94564,1,0
328,144,94664,1,0
344,176,94764,6,0,B|344:248,2,60,0|0|2
296,120,95364,1,0
248,176,95564,2,0,B|248:248,2,60,0|0|2
200,120,96164,1,0
152,176,96364,2,0,B|152:288,2,90
104,120,97164,1,2
152,64,97364,1,2
200,120,97564,1,2
248,64,97764,1,2
304,120,97964,6,0,B|304:208,1,60,0|2
368,136,98364,2,0,B|368:192,1,30,0|2
432,120,98664,1,0
496,136,98864,1,0
496,136,98964,2,0,B|496:216,2,60,2|0|2
432,176,99564,5,0
368,216,99764,2,0,B|368:288,1,60,2|0
368,276,100064,1,2
296,248,100264,2,0,B|296:184,1,60
296,188,100564,1,2
224,160,100764,1,2
224,160,100964,1,2
224,240,101164,6,0,B|152:204,1,60
101,180,101564,2,0,B|132:115,1,60,2|0
161,58,101964,2,0,B|225:89,1,60
283,117,102364,2,0,B|251:181,1,60,2|0
224,240,102764,1,2
288,288,102964,1,2
352,240,103164,1,2
416,288,103364,1,2
480,240,103564,2,0,B|480:200,8,30
256,192,104464,12,0,106764
256,192,107564,12,0,110364
256,88,110764,6,0,B|392:88,1,120,0|2
240,144,111564,2,0,B|384:144,1,120,0|2
224,200,112364,2,0,B|344:200,1,120,0|2
208,256,113164,1,0
328,256,113564,1,2
208,184,113964,6,0,B|144:184,1,60
208,128,114364,2,0,B|208:56,1,60,2|0
264,128,114764,2,0,B|328:128,1,60
264,184,115164,2,0,B|264:264,1,60,2|0
320,216,115564,6,0,B|376:272,1,60
392,216,115964,2,0,B|456:216,1,60,2|0
360,160,116364,1,0
320,216,116564,1,0
256,248,116764,1,2
192,216,116964,1,0
152,160,117164,6,0,B|152:296,1,120,0|2
272,192,117964,2,0,B|328:192,2,30
152,192,118564,1,0
256,96,118964,1,0
360,192,119364,1,0
256,280,119764,5,0
256,200,119964,2,0,B|256:128,1,60
256,80,120364,6,0,B|256:8,1,60,0|2
192,64,120764,2,0,B|192:136,1,60,0|2
128,88,121164,2,0,B|128:8,1,60,0|2
64,64,121564,2,0,B|64:136,1,60,0|2
112,160,121964,5,4
200,96,122264,1,4
256,192,122564,1,4
312,96,122864,1,4
400,160,123164,1,4
400,160,123364,1,4
400,160,123564,5,4
256,192,123764,12,0,126764
