osu file format v14

[General]
AudioFilename: Ray of Illuminati.mp3
AudioLeadIn: 0
PreviewTime: -1
Countdown: 0
SampleSet: Soft
StackLeniency: 0.7
Mode: 3
LetterboxInBreaks: 0
SpecialStyle: 0
WidescreenStoryboard: 1

[Editor]
DistanceSpacing: 0.8
BeatDivisor: 4
GridSize: 8
TimelineZoom: 1.8

[Metadata]
Title:Ray of Illuminati
TitleUnicode:Ray of Illuminati
Artist:ESTi
ArtistUnicode:ESTi
Creator:Mashiro-Fang
Version:NM with bie
Source:
Tags:Marirose biemote
BeatmapID:820152
BeatmapSetID:374396

[Difficulty]
HPDrainRate:8
CircleSize:4
OverallDifficulty:8
ApproachRate:5
SliderMultiplier:1.4
SliderTickRate:1

[Events]
//Background and Video events
0,0,"nm.JPG",0,0
//Break Periods
//Storyboard Layer 0 (Background)
//Storyboard Layer 1 (Fail)
//Storyboard Layer 2 (Pass)
//Storyboard Layer 3 (Foreground)
//Storyboard Sound Samples

[TimingPoints]
161,400,4,2,0,0,1,0

[HitObjects]
192,192,161,5,0,0:0:0:0:
320,192,1761,1,0,0:0:0:0:
64,192,2561,1,0,0:0:0:0:
192,192,3361,1,0,0:0:0:0:
448,192,4161,1,0,0:0:0:0:
448,192,6561,1,0,0:0:0:0:
320,192,6561,1,0,0:0:0:0:
192,192,8161,1,0,0:0:0:0:
320,192,9761,1,0,0:0:0:0:
448,192,11361,1,0,0:0:0:0:
64,192,12561,1,0,0:0:0:0:
192,192,12661,1,0,0:0:0:0:
320,192,12761,1,0,0:0:0:0:
448,192,12861,1,0,0:0:0:0:
320,192,12961,1,0,0:0:0:0:
192,192,12961,1,0,0:0:0:0:
448,192,13361,1,0,0:0:0:0:
64,192,13761,1,0,0:0:0:0:
320,192,13961,1,0,0:0:0:0:
448,192,14361,1,0,0:0:0:0:
320,192,14761,1,0,0:0:0:0:
192,192,15161,1,0,0:0:0:0:
64,192,15761,1,0,0:0:0:0:
192,192,15961,1,0,0:0:0:0:
448,192,16161,1,0,0:0:0:0:
320,192,16361,1,0,0:0:0:0:
192,192,16561,1,0,0:0:0:0:
320,192,16761,1,0,0:0:0:0:
64,192,16961,1,0,0:0:0:0:
448,192,17161,1,0,0:0:0:0:
192,192,17361,1,0,0:0:0:0:
320,192,17561,1,0,0:0:0:0:
192,192,17961,1,0,0:0:0:0:
64,192,18361,1,0,0:0:0:0:
448,192,18561,1,0,0:0:0:0:
64,192,19361,1,0,0:0:0:0:
320,192,19361,1,0,0:0:0:0:
448,192,19761,1,0,0:0:0:0:
64,192,20161,1,0,0:0:0:0:
192,192,20261,1,0,0:0:0:0:
320,192,20361,1,0,0:0:0:0:
448,192,20761,1,0,0:0:0:0:
320,192,21161,1,0,0:0:0:0:
192,192,21561,1,0,0:0:0:0:
64,192,22161,1,0,0:0:0:0:
192,192,22361,1,0,0:0:0:0:
320,192,22561,1,0,0:0:0:0:
448,192,22761,1,0,0:0:0:0:
192,192,22961,1,0,0:0:0:0:
64,192,23061,1,0,0:0:0:0:
320,192,23261,1,0,0:0:0:0:
448,192,23561,1,0,0:0:0:0:
192,192,23661,1,0,0:0:0:0:
320,192,23761,1,0,0:0:0:0:
448,192,23961,1,0,0:0:0:0:
320,192,24161,1,0,0:0:0:0:
192,192,24461,1,0,0:0:0:0:
64,192,24761,1,0,0:0:0:0:
320,192,24961,1,0,0:0:0:0:
192,192,25361,1,0,0:0:0:0:
320,192,25461,1,0,0:0:0:0:
192,192,25561,1,0,0:0:0:0:
448,192,25761,1,0,0:0:0:0:
320,192,26161,1,0,0:0:0:0:
64,192,26461,1,0,0:0:0:0:
192,192,26761,1,0,0:0:0:0:
448,192,27161,1,0,0:0:0:0:
320,192,27461,1,0,0:0:0:0:
64,192,27761,1,0,0:0:0:0:
192,192,28061,1,0,0:0:0:0:
320,192,28361,1,0,0:0:0:0:
192,192,28561,1,0,0:0:0:0:
448,192,28761,1,0,0:0:0:0:
320,192,28961,1,0,0:0:0:0:
192,192,29161,1,0,0:0:0:0:
64,192,29361,1,0,0:0:0:0:
320,192,29661,1,0,0:0:0:0:
448,192,29961,1,0,0:0:0:0:
192,192,30361,1,0,0:0:0:0:
64,192,30561,1,0,0:0:0:0:
192,192,30661,1,0,0:0:0:0:
320,192,30761,1,0,0:0:0:0:
192,192,30961,1,0,0:0:0:0:
448,192,31061,1,0,0:0:0:0:
320,192,31261,1,0,0:0:0:0:
192,192,31561,1,0,0:0:0:0:
64,192,31761,1,0,0:0:0:0:
320,192,31961,1,0,0:0:0:0:
448,192,32161,128,0,32961:0:0:0:0:
192,192,32561,1,0,0:0:0:0:
192,192,32961,128,0,33761:0:0:0:0:
320,192,33361,1,0,0:0:0:0:
64,192,33761,128,0,34561:0:0:0:0:
448,192,34161,1,0,0:0:0:0:
448,192,34561,128,0,35361:0:0:0:0:
192,192,34961,1,0,0:0:0:0:
192,192,35361,128,0,36961:0:0:0:0:
320,192,35761,1,0,0:0:0:0:
448,192,36561,1,0,0:0:0:0:
320,192,36961,1,0,0:0:0:0:
448,192,36961,1,0,0:0:0:0:
64,192,37361,1,0,0:0:0:0:
192,192,37361,1,0,0:0:0:0:
192,192,37761,1,0,0:0:0:0:
320,192,37761,1,0,0:0:0:0:
64,192,38161,1,0,0:0:0:0:
448,192,38161,1,0,0:0:0:0:
64,192,38561,1,0,0:0:0:0:
320,192,38561,1,0,0:0:0:0:
448,192,38761,1,0,0:0:0:0:
64,192,38961,1,0,0:0:0:0:
192,192,39061,1,0,0:0:0:0:
320,192,39261,1,0,0:0:0:0:
448,192,39361,1,0,0:0:0:0:
192,192,39661,1,0,0:0:0:0:
320,192,39961,1,0,0:0:0:0:
64,192,40161,1,0,0:0:0:0:
192,192,40261,1,0,0:0:0:0:
320,192,40361,1,0,0:0:0:0:
448,192,40461,1,0,0:0:0:0:
192,192,40561,1,0,0:0:0:0:
64,192,40661,1,0,0:0:0:0:
192,192,40761,1,0,0:0:0:0:
320,192,40861,1,0,0:0:0:0:
448,192,40961,1,0,0:0:0:0:
320,192,41061,1,0,0:0:0:0:
192,192,41161,1,0,0:0:0:0:
64,192,41261,1,0,0:0:0:0:
320,192,41361,1,0,0:0:0:0:
448,192,41461,1,0,0:0:0:0:
320,192,41561,1,0,0:0:0:0:
192,192,41661,1,0,0:0:0:0:
64,192,41761,1,0,0:0:0:0:
320,192,41961,1,0,0:0:0:0:
192,192,42161,1,0,0:0:0:0:
448,192,42261,1,0,0:0:0:0:
64,192,42461,1,0,0:0:0:0:
320,192,42561,1,0,0:0:0:0:
64,192,42861,1,0,0:0:0:0:
192,192,43161,1,0,0:0:0:0:
320,192,43361,1,0,0:0:0:0:
448,192,43461,1,0,0:0:0:0:
64,192,43561,1,0,0:0:0:0:
192,192,43661,1,0,0:0:0:0:
320,192,43761,1,0,0:0:0:0:
448,192,43861,1,0,0:0:0:0:
320,192,43961,1,0,0:0:0:0:
192,192,44061,1,0,0:0:0:0:
320,192,44161,1,0,0:0:0:0:
448,192,44261,1,0,0:0:0:0:
320,192,44361,1,0,0:0:0:0:
192,192,44461,1,0,0:0:0:0:
64,192,44561,1,0,0:0:0:0:
448,192,44661,1,0,0:0:0:0:
320,192,44761,1,0,0:0:0:0:
192,192,44861,1,0,0:0:0:0:
64,192,44961,1,0,0:0:0:0:
320,192,45161,1,0,0:0:0:0:
192,192,45361,1,0,0:0:0:0:
448,192,45461,1,0,0:0:0:0:
64,192,45661,1,0,0:0:0:0:
320,192,45761,1,0,0:0:0:0:
192,192,46061,1,0,0:0:0:0:
448,192,46361,1,0,0:0:0:0:
64,192,46561,1,0,0:0:0:0:
320,192,46661,1,0,0:0:0:0:
192,192,46761,1,0,0:0:0:0:
448,192,46861,1,0,0:0:0:0:
320,192,46961,1,0,0:0:0:0:
192,192,47061,1,0,0:0:0:0:
64,192,47161,1,0,0:0:0:0:
192,192,47261,1,0,0:0:0:0:
448,192,47361,1,0,0:0:0:0:
320,192,47461,1,0,0:0:0:0:
192,192,47561,1,0,0:0:0:0:
64,192,47661,1,0,0:0:0:0:
448,192,47761,1,0,0:0:0:0:
320,192,47861,1,0,0:0:0:0:
192,192,47961,1,0,0:0:0:0:
64,192,48061,1,0,0:0:0:0:
320,192,48161,1,0,0:0:0:0:
448,192,48361,1,0,0:0:0:0:
64,192,48561,1,0,0:0:0:0:
192,192,48661,1,0,0:0:0:0:
320,192,48861,1,0,0:0:0:0:
448,192,48961,1,0,0:0:0:0:
192,192,49261,1,0,0:0:0:0:
320,192,49561,1,0,0:0:0:0:
64,192,49761,1,0,0:0:0:0:
320,192,49961,1,0,0:0:0:0:
448,192,50161,1,0,0:0:0:0:
192,192,50361,1,0,0:0:0:0:
64,192,50561,1,0,0:0:0:0:
320,192,50761,1,0,0:0:0:0:
192,192,50961,1,0,0:0:0:0:
320,192,51161,1,0,0:0:0:0:
448,192,51361,128,0,54161:0:0:0:0:
64,192,51761,1,0,0:0:0:0:
64,192,52561,1,0,0:0:0:0:
64,192,53361,1,0,0:0:0:0:
64,192,53861,1,0,0:0:0:0:
64,192,54161,1,0,0:0:0:0:
320,192,54161,1,0,0:0:0:0:
192,192,54361,1,0,0:0:0:0:
64,192,54561,128,0,55761:0:0:0:0:
320,192,54961,1,0,0:0:0:0:
192,192,55761,1,0,0:0:0:0:
448,192,55761,1,0,0:0:0:0:
320,192,55961,1,0,0:0:0:0:
448,192,56161,128,0,57161:0:0:0:0:
64,192,56561,1,0,0:0:0:0:
64,192,57061,1,0,0:0:0:0:
320,192,57161,1,0,0:0:0:0:
192,192,57261,1,0,0:0:0:0:
64,192,57361,1,0,0:0:0:0:
448,192,57361,1,0,0:0:0:0:
64,192,57761,128,0,59161:0:0:0:0:
320,192,57761,1,0,0:0:0:0:
448,192,57961,1,0,0:0:0:0:
192,192,58261,1,0,0:0:0:0:
448,192,58561,1,0,0:0:0:0:
320,192,58861,1,0,0:0:0:0:
448,192,59161,1,0,0:0:0:0:
192,192,59361,1,0,0:0:0:0:
64,192,59761,1,0,0:0:0:0:
448,192,59761,1,0,0:0:0:0:
192,192,60161,1,0,0:0:0:0:
320,192,60261,1,0,0:0:0:0:
64,192,60561,1,0,0:0:0:0:
448,192,60561,1,0,0:0:0:0:
192,192,60761,1,0,0:0:0:0:
448,192,60961,1,0,0:0:0:0:
64,192,60961,1,0,0:0:0:0:
448,192,61361,1,0,0:0:0:0:
192,192,61361,1,0,0:0:0:0:
64,192,61561,1,0,0:0:0:0:
320,192,61561,1,0,0:0:0:0:
448,192,61761,1,0,0:0:0:0:
192,192,61761,1,0,0:0:0:0:
64,192,62061,1,0,0:0:0:0:
320,192,62061,1,0,0:0:0:0:
192,192,62361,1,0,0:0:0:0:
448,192,62361,1,0,0:0:0:0:
64,192,62561,1,0,0:0:0:0:
320,192,62561,1,0,0:0:0:0:
192,192,62861,1,0,0:0:0:0:
320,192,62861,1,0,0:0:0:0:
192,192,63161,1,0,0:0:0:0:
448,192,63161,1,0,0:0:0:0:
64,192,63461,1,0,0:0:0:0:
320,192,63461,1,0,0:0:0:0:
192,192,63761,1,0,0:0:0:0:
320,192,63761,1,0,0:0:0:0:
64,192,63961,1,0,0:0:0:0:
448,192,63961,1,0,0:0:0:0:
320,192,64161,128,0,65761:0:0:0:0:
448,192,65761,1,0,0:0:0:0:
448,192,66161,1,0,0:0:0:0:
192,192,66561,1,0,0:0:0:0:
192,192,66761,1,0,0:0:0:0:
64,192,67161,1,0,0:0:0:0:
64,192,67561,1,0,0:0:0:0:
448,192,67961,128,0,68861:0:0:0:0:
64,192,68961,1,0,0:0:0:0:
320,192,69261,1,0,0:0:0:0:
192,192,69561,1,0,0:0:0:0:
448,192,69861,1,0,0:0:0:0:
64,192,70161,1,0,0:0:0:0:
320,192,70461,1,0,0:0:0:0:
192,192,70761,1,0,0:0:0:0:
448,192,70961,1,0,0:0:0:0:
320,192,71161,1,0,0:0:0:0:
192,192,71361,1,0,0:0:0:0:
64,192,71561,1,0,0:0:0:0:
192,192,71761,1,0,0:0:0:0:
320,192,71961,1,0,0:0:0:0:
448,192,72161,1,0,0:0:0:0:
448,192,72561,1,0,0:0:0:0:
192,192,72961,1,0,0:0:0:0:
192,192,73161,1,0,0:0:0:0:
64,192,73561,1,0,0:0:0:0:
192,192,73861,1,0,0:0:0:0:
448,192,73961,1,0,0:0:0:0:
320,192,74161,1,0,0:0:0:0:
64,192,74361,128,0,75261:0:0:0:0:
192,192,75361,1,0,0:0:0:0:
448,192,75561,1,0,0:0:0:0:
64,192,75761,1,0,0:0:0:0:
448,192,75961,1,0,0:0:0:0:
192,192,76061,1,0,0:0:0:0:
64,192,76261,1,0,0:0:0:0:
320,192,76361,1,0,0:0:0:0:
192,192,76561,1,0,0:0:0:0:
448,192,76761,1,0,0:0:0:0:
64,192,76961,1,0,0:0:0:0:
192,192,77161,1,0,0:0:0:0:
320,192,77361,1,0,0:0:0:0:
448,192,77561,1,0,0:0:0:0:
320,192,77761,1,0,0:0:0:0:
192,192,77961,1,0,0:0:0:0:
64,192,78161,1,0,0:0:0:0:
320,192,78361,1,0,0:0:0:0:
64,192,78561,1,0,0:0:0:0:
320,192,78961,1,0,0:0:0:0:
448,192,79361,1,0,0:0:0:0:
192,192,79761,1,0,0:0:0:0:
320,192,80161,1,0,0:0:0:0:
64,192,80461,1,0,0:0:0:0:
448,192,80761,1,0,0:0:0:0:
192,192,80961,128,0,81561:0:0:0:0:
64,192,81561,1,0,0:0:0:0:
448,192,81761,1,0,0:0:0:0:
192,192,82061,1,0,0:0:0:0:
320,192,82361,1,0,0:0:0:0:
64,192,82561,1,0,0:0:0:0:
448,192,82961,1,0,0:0:0:0:
192,192,83361,128,0,83961:0:0:0:0:
448,192,83961,1,0,0:0:0:0:
64,192,84161,128,0,84761:0:0:0:0:
320,192,84761,1,0,0:0:0:0:
448,192,84961,1,0,0:0:0:0:
192,192,85361,1,0,0:0:0:0:
320,192,85761,1,0,0:0:0:0:
64,192,86161,1,0,0:0:0:0:
192,192,86561,1,0,0:0:0:0:
320,192,86861,1,0,0:0:0:0:
448,192,87161,1,0,0:0:0:0:
64,192,87361,128,0,87961:0:0:0:0:
320,192,87961,1,0,0:0:0:0:
448,192,88161,1,0,0:0:0:0:
320,192,88461,1,0,0:0:0:0:
192,192,88761,1,0,0:0:0:0:
64,192,88961,1,0,0:0:0:0:
320,192,89361,1,0,0:0:0:0:
448,192,89761,1,0,0:0:0:0:
320,192,89961,1,0,0:0:0:0:
192,192,90161,1,0,0:0:0:0:
64,192,90361,1,0,0:0:0:0:
192,192,90561,1,0,0:0:0:0:
320,192,90761,1,0,0:0:0:0:
448,192,90961,1,0,0:0:0:0:
192,192,91161,1,0,0:0:0:0:
64,192,91361,1,0,0:0:0:0:
320,192,91761,1,0,0:0:0:0:
448,192,92161,1,0,0:0:0:0:
192,192,92561,1,0,0:0:0:0:
320,192,92961,1,0,0:0:0:0:
192,192,93261,1,0,0:0:0:0:
64,192,93561,1,0,0:0:0:0:
448,192,93761,128,0,94361:0:0:0:0:
192,192,94361,1,0,0:0:0:0:
320,192,94561,1,0,0:0:0:0:
192,192,94861,1,0,0:0:0:0:
64,192,95161,1,0,0:0:0:0:
320,192,95361,1,0,0:0:0:0:
448,192,95761,1,0,0:0:0:0:
192,192,96161,128,0,96761:0:0:0:0:
320,192,96761,1,0,0:0:0:0:
448,192,96961,128,0,97761:0:0:0:0:
320,192,97761,1,0,0:0:0:0:
192,192,98061,1,0,0:0:0:0:
64,192,98361,128,0,99161:0:0:0:0:
320,192,99161,1,0,0:0:0:0:
448,192,99361,1,0,0:0:0:0:
192,192,99661,1,0,0:0:0:0:
320,192,99961,128,0,100961:0:0:0:0:
64,192,100961,1,0,0:0:0:0:
192,192,101361,1,0,0:0:0:0:
320,192,101561,1,0,0:0:0:0:
448,192,101761,1,0,0:0:0:0:
64,192,102061,1,0,0:0:0:0:
320,192,102361,1,0,0:0:0:0:
448,192,102561,1,0,0:0:0:0:
192,192,102961,1,0,0:0:0:0:
320,192,103361,1,0,0:0:0:0:
64,192,103761,1,0,0:0:0:0:
448,192,104161,128,0,106561:0:0:0:0:
64,192,106561,128,0,107361:0:0:0:0:
448,192,107361,128,0,110561:0:0:0:0:
192,192,110561,1,0,0:0:0:0:
192,192,110961,1,0,0:0:0:0:
64,192,111361,1,0,0:0:0:0:
320,192,111561,1,0,0:0:0:0:
448,192,111961,1,0,0:0:0:0:
192,192,112361,1,0,0:0:0:0:
192,192,112761,1,0,0:0:0:0:
64,192,113161,1,0,0:0:0:0:
192,192,113361,1,0,0:0:0:0:
320,192,113561,1,0,0:0:0:0:
448,192,113761,1,0,0:0:0:0:
320,192,113961,1,0,0:0:0:0:
192,192,114161,1,0,0:0:0:0:
64,192,114361,1,0,0:0:0:0:
320,192,114561,1,0,0:0:0:0:
192,192,114761,1,0,0:0:0:0:
320,192,114961,1,0,0:0:0:0:
448,192,115161,1,0,0:0:0:0:
192,192,115561,1,0,0:0:0:0:
64,192,115961,1,0,0:0:0:0:
320,192,116161,1,0,0:0:0:0:
192,192,116961,1,0,0:0:0:0:
448,192,117361,1,0,0:0:0:0:
64,192,117761,1,0,0:0:0:0:
320,192,117861,1,0,0:0:0:0:
448,192,117961,1,0,0:0:0:0:
320,192,118361,1,0,0:0:0:0:
192,192,118761,1,0,0:0:0:0:
64,192,119161,1,0,0:0:0:0:
192,192,119561,1,0,0:0:0:0:
320,192,119761,1,0,0:0:0:0:
448,192,119961,1,0,0:0:0:0:
64,192,120161,1,0,0:0:0:0:
320,192,120361,1,0,0:0:0:0:
192,192,120561,1,0,0:0:0:0:
448,192,120661,1,0,0:0:0:0:
320,192,120861,1,0,0:0:0:0:
64,192,121161,1,0,0:0:0:0:
448,192,121261,1,0,0:0:0:0:
192,192,121361,1,0,0:0:0:0:
320,192,121561,1,0,0:0:0:0:
448,192,121761,1,0,0:0:0:0:
64,192,121761,1,0,0:0:0:0:
192,192,122061,1,0,0:0:0:0:
320,192,122061,1,0,0:0:0:0:
64,192,122361,1,0,0:0:0:0:
448,192,122361,1,0,0:0:0:0:
192,192,122661,1,0,0:0:0:0:
320,192,122661,1,0,0:0:0:0:
448,192,122961,1,0,0:0:0:0:
64,192,122961,1,0,0:0:0:0:
192,192,123161,1,0,0:0:0:0:
320,192,123161,1,0,0:0:0:0:
64,192,123361,1,0,0:0:0:0:
448,192,123361,1,0,0:0:0:0:
