osu file format v14

[General]
AudioFilename: Ray of Illuminati.mp3
AudioLeadIn: 0
PreviewTime: -1
Countdown: 0
SampleSet: Soft
StackLeniency: 0.7
Mode: 3
LetterboxInBreaks: 0
SpecialStyle: 0
WidescreenStoryboard: 0

[Editor]
DistanceSpacing: 0.8
BeatDivisor: 4
GridSize: 8
TimelineZoom: 1.8

[Metadata]
Title:Ray of Illuminati
TitleUnicode:Ray of Illuminati
Artist:ESTi
ArtistUnicode:ESTi
Creator:Mashiro-Fang
Version:MX with bie
Source:
Tags:Marirose biemote
BeatmapID:820151
BeatmapSetID:374396

[Difficulty]
HPDrainRate:9
CircleSize:4
OverallDifficulty:8
ApproachRate:5
SliderMultiplier:1.4
SliderTickRate:1

[Events]
//Background and Video events
0,0,"mx.jpg",0,0
//Break Periods
//Storyboard Layer 0 (Background)
//Storyboard Layer 1 (Fail)
//Storyboard Layer 2 (Pass)
//Storyboard Layer 3 (Foreground)
//Storyboard Sound Samples

[TimingPoints]
161,400,4,2,0,0,1,0
62561,-200,4,2,0,5,0,0
62761,-50,4,2,0,5,0,0
62861,-200,4,2,0,5,0,0
63061,-50,4,2,0,5,0,0
63161,-200,4,2,0,5,0,0
63361,-50,4,2,0,5,0,0
63461,-200,4,2,0,5,0,0
63661,-50,4,2,0,5,0,0
63761,-100,4,2,0,5,0,0

[HitObjects]
192,192,161,5,0,0:0:0:0:
448,192,261,1,0,0:0:0:0:
64,192,361,1,0,0:0:0:0:
320,192,461,1,0,0:0:0:0:
448,192,561,1,0,0:0:0:0:
64,192,661,1,0,0:0:0:0:
192,192,761,1,0,0:0:0:0:
320,192,861,1,0,0:0:0:0:
192,192,961,1,0,0:0:0:0:
320,192,1061,1,0,0:0:0:0:
448,192,1161,1,0,0:0:0:0:
64,192,1261,1,0,0:0:0:0:
192,192,1361,1,0,0:0:0:0:
320,192,1461,1,0,0:0:0:0:
192,192,1561,1,0,0:0:0:0:
64,192,1661,1,0,0:0:0:0:
320,192,1761,1,0,0:0:0:0:
448,192,1861,1,0,0:0:0:0:
192,192,1961,1,0,0:0:0:0:
320,192,2061,1,0,0:0:0:0:
192,192,2161,1,0,0:0:0:0:
448,192,2261,1,0,0:0:0:0:
320,192,2361,1,0,0:0:0:0:
64,192,2461,1,0,0:0:0:0:
192,192,2561,1,0,0:0:0:0:
320,192,2661,1,0,0:0:0:0:
448,192,2761,1,0,0:0:0:0:
64,192,2861,1,0,0:0:0:0:
192,192,2961,1,0,0:0:0:0:
448,192,3061,1,0,0:0:0:0:
320,192,3161,1,0,0:0:0:0:
192,192,3261,1,0,0:0:0:0:
64,192,3361,1,0,0:0:0:0:
320,192,3461,1,0,0:0:0:0:
192,192,3561,1,0,0:0:0:0:
64,192,3661,1,0,0:0:0:0:
448,192,3761,1,0,0:0:0:0:
192,192,3861,1,0,0:0:0:0:
320,192,3961,1,0,0:0:0:0:
64,192,4061,1,0,0:0:0:0:
320,192,4161,1,0,0:0:0:0:
448,192,4261,1,0,0:0:0:0:
320,192,4361,1,0,0:0:0:0:
64,192,4461,1,0,0:0:0:0:
192,192,4561,1,0,0:0:0:0:
448,192,4661,1,0,0:0:0:0:
320,192,4761,1,0,0:0:0:0:
192,192,4861,1,0,0:0:0:0:
64,192,4961,1,0,0:0:0:0:
320,192,5061,1,0,0:0:0:0:
192,192,5161,1,0,0:0:0:0:
64,192,5261,1,0,0:0:0:0:
448,192,5361,1,0,0:0:0:0:
192,192,5461,1,0,0:0:0:0:
320,192,5561,1,0,0:0:0:0:
64,192,5661,1,0,0:0:0:0:
192,192,5761,1,0,0:0:0:0:
448,192,5861,1,0,0:0:0:0:
320,192,5961,1,0,0:0:0:0:
64,192,6061,1,0,0:0:0:0:
192,192,6161,1,0,0:0:0:0:
320,192,6261,1,0,0:0:0:0:
192,192,6361,1,0,0:0:0:0:
64,192,6461,1,0,0:0:0:0:
192,192,6561,1,0,0:0:0:0:
448,192,6561,128,0,7361:0:0:0:0:
64,192,6761,1,0,0:0:0:0:
320,192,6961,1,0,0:0:0:0:
192,192,7161,1,0,0:0:0:0:
64,192,7361,1,0,0:0:0:0:
320,192,7361,1,0,0:0:0:0:
192,192,7561,1,0,0:0:0:0:
320,192,7761,1,0,0:0:0:0:
448,192,7761,1,0,0:0:0:0:
192,192,7961,1,0,0:0:0:0:
64,192,8161,128,0,8961:0:0:0:0:
448,192,8161,1,0,0:0:0:0:
320,192,8361,1,0,0:0:0:0:
192,192,8561,1,0,0:0:0:0:
448,192,8761,1,0,0:0:0:0:
192,192,8961,1,0,0:0:0:0:
320,192,8961,1,0,0:0:0:0:
448,192,9161,1,0,0:0:0:0:
192,192,9561,1,0,0:0:0:0:
320,192,9761,128,0,10561:0:0:0:0:
64,192,9761,1,0,0:0:0:0:
192,192,9961,1,0,0:0:0:0:
64,192,10161,1,0,0:0:0:0:
64,192,10361,1,0,0:0:0:0:
192,192,10561,1,0,0:0:0:0:
448,192,10561,1,0,0:0:0:0:
64,192,10761,1,0,0:0:0:0:
320,192,11161,1,0,0:0:0:0:
448,192,11361,128,0,12161:0:0:0:0:
64,192,11361,1,0,0:0:0:0:
320,192,11561,1,0,0:0:0:0:
64,192,11761,128,0,12961:0:0:0:0:
192,192,11761,1,0,0:0:0:0:
320,192,11961,1,0,0:0:0:0:
192,192,12161,1,0,0:0:0:0:
448,192,12561,1,0,0:0:0:0:
192,192,12661,1,0,0:0:0:0:
448,192,12761,1,0,0:0:0:0:
192,192,12861,1,0,0:0:0:0:
320,192,12961,1,0,0:0:0:0:
448,192,12961,1,0,0:0:0:0:
192,192,13161,1,0,0:0:0:0:
320,192,13361,1,0,0:0:0:0:
448,192,13361,1,0,0:0:0:0:
192,192,13561,1,0,0:0:0:0:
64,192,13761,1,0,0:0:0:0:
192,192,13761,1,0,0:0:0:0:
448,192,13961,1,0,0:0:0:0:
320,192,13961,1,0,0:0:0:0:
64,192,14161,1,0,0:0:0:0:
320,192,14161,1,0,0:0:0:0:
192,192,14361,1,0,0:0:0:0:
448,192,14361,1,0,0:0:0:0:
320,192,14561,1,0,0:0:0:0:
192,192,14561,1,0,0:0:0:0:
64,192,14761,1,0,0:0:0:0:
320,192,14761,1,0,0:0:0:0:
192,192,14961,1,0,0:0:0:0:
448,192,14961,1,0,0:0:0:0:
64,192,15161,1,0,0:0:0:0:
320,192,15161,1,0,0:0:0:0:
192,192,15361,1,0,0:0:0:0:
320,192,15361,1,0,0:0:0:0:
192,192,15561,1,0,0:0:0:0:
64,192,15761,1,0,0:0:0:0:
320,192,15761,1,0,0:0:0:0:
192,192,15961,1,0,0:0:0:0:
448,192,15961,1,0,0:0:0:0:
64,192,16161,1,0,0:0:0:0:
320,192,16161,1,0,0:0:0:0:
64,192,16261,1,0,0:0:0:0:
192,192,16261,1,0,0:0:0:0:
192,192,16361,1,0,0:0:0:0:
448,192,16361,1,0,0:0:0:0:
320,192,16461,1,0,0:0:0:0:
448,192,16461,1,0,0:0:0:0:
64,192,16561,1,0,0:0:0:0:
320,192,16561,1,0,0:0:0:0:
64,192,16661,1,0,0:0:0:0:
448,192,16661,1,0,0:0:0:0:
192,192,16761,1,0,0:0:0:0:
448,192,16761,1,0,0:0:0:0:
192,192,16861,1,0,0:0:0:0:
320,192,16861,1,0,0:0:0:0:
320,192,16961,1,0,0:0:0:0:
64,192,16961,1,0,0:0:0:0:
64,192,17061,1,0,0:0:0:0:
448,192,17061,1,0,0:0:0:0:
192,192,17161,1,0,0:0:0:0:
448,192,17161,1,0,0:0:0:0:
320,192,17261,1,0,0:0:0:0:
192,192,17261,1,0,0:0:0:0:
64,192,17361,1,0,0:0:0:0:
448,192,17361,1,0,0:0:0:0:
448,192,17561,128,0,17961:0:0:0:0:
64,192,17761,1,0,0:0:0:0:
320,192,17761,1,0,0:0:0:0:
192,192,17961,128,0,18361:0:0:0:0:
320,192,18161,1,0,0:0:0:0:
448,192,18161,1,0,0:0:0:0:
64,192,18361,128,0,18561:0:0:0:0:
320,192,18561,128,0,18961:0:0:0:0:
192,192,18561,1,0,0:0:0:0:
448,192,18561,1,0,0:0:0:0:
448,192,18761,1,0,0:0:0:0:
64,192,18961,1,0,0:0:0:0:
192,192,18961,1,0,0:0:0:0:
192,192,19161,1,0,0:0:0:0:
448,192,19161,1,0,0:0:0:0:
64,192,19361,1,0,0:0:0:0:
192,192,19361,1,0,0:0:0:0:
320,192,19361,1,0,0:0:0:0:
448,192,19361,1,0,0:0:0:0:
320,192,19561,1,0,0:0:0:0:
448,192,19761,1,0,0:0:0:0:
192,192,19761,1,0,0:0:0:0:
192,192,19961,1,0,0:0:0:0:
64,192,20161,1,0,0:0:0:0:
320,192,20161,1,0,0:0:0:0:
64,192,20261,1,0,0:0:0:0:
192,192,20361,1,0,0:0:0:0:
448,192,20361,1,0,0:0:0:0:
320,192,20561,1,0,0:0:0:0:
192,192,20561,1,0,0:0:0:0:
192,192,20761,1,0,0:0:0:0:
448,192,20761,1,0,0:0:0:0:
192,192,20961,1,0,0:0:0:0:
320,192,20961,1,0,0:0:0:0:
64,192,21161,1,0,0:0:0:0:
320,192,21161,1,0,0:0:0:0:
192,192,21361,1,0,0:0:0:0:
448,192,21361,1,0,0:0:0:0:
64,192,21561,1,0,0:0:0:0:
320,192,21561,1,0,0:0:0:0:
192,192,21761,1,0,0:0:0:0:
320,192,21761,1,0,0:0:0:0:
192,192,21961,1,0,0:0:0:0:
64,192,22161,1,0,0:0:0:0:
320,192,22161,1,0,0:0:0:0:
192,192,22361,1,0,0:0:0:0:
448,192,22361,1,0,0:0:0:0:
64,192,22561,1,0,0:0:0:0:
192,192,22561,1,0,0:0:0:0:
192,192,22761,1,0,0:0:0:0:
320,192,22761,1,0,0:0:0:0:
320,192,22961,1,0,0:0:0:0:
64,192,22961,1,0,0:0:0:0:
192,192,23061,1,0,0:0:0:0:
448,192,23061,1,0,0:0:0:0:
64,192,23261,1,0,0:0:0:0:
448,192,23261,1,0,0:0:0:0:
192,192,23361,1,0,0:0:0:0:
320,192,23361,1,0,0:0:0:0:
192,192,23561,1,0,0:0:0:0:
448,192,23561,1,0,0:0:0:0:
64,192,23661,1,0,0:0:0:0:
320,192,23661,1,0,0:0:0:0:
192,192,23761,1,0,0:0:0:0:
448,192,23761,1,0,0:0:0:0:
64,192,23861,1,0,0:0:0:0:
320,192,23861,1,0,0:0:0:0:
448,192,24161,1,0,0:0:0:0:
64,192,24161,1,0,0:0:0:0:
320,192,24211,1,0,0:0:0:0:
192,192,24261,1,0,0:0:0:0:
64,192,24361,1,0,0:0:0:0:
192,192,24461,1,0,0:0:0:0:
448,192,24461,1,0,0:0:0:0:
320,192,24511,1,0,0:0:0:0:
448,192,24561,1,0,0:0:0:0:
192,192,24661,1,0,0:0:0:0:
64,192,24761,1,0,0:0:0:0:
320,192,24761,1,0,0:0:0:0:
448,192,24861,1,0,0:0:0:0:
64,192,24961,1,0,0:0:0:0:
192,192,24961,1,0,0:0:0:0:
448,192,25061,1,0,0:0:0:0:
320,192,25161,1,0,0:0:0:0:
192,192,25261,1,0,0:0:0:0:
320,192,25361,1,0,0:0:0:0:
448,192,25361,1,0,0:0:0:0:
192,192,25461,1,0,0:0:0:0:
64,192,25461,1,0,0:0:0:0:
320,192,25561,1,0,0:0:0:0:
448,192,25561,1,0,0:0:0:0:
192,192,25761,1,0,0:0:0:0:
448,192,25761,1,0,0:0:0:0:
320,192,25961,1,0,0:0:0:0:
192,192,25961,1,0,0:0:0:0:
64,192,26161,1,0,0:0:0:0:
448,192,26161,1,0,0:0:0:0:
64,192,26361,1,0,0:0:0:0:
320,192,26361,1,0,0:0:0:0:
192,192,26461,1,0,0:0:0:0:
320,192,26561,1,0,0:0:0:0:
448,192,26561,1,0,0:0:0:0:
64,192,26661,1,0,0:0:0:0:
192,192,26761,1,0,0:0:0:0:
448,192,26761,1,0,0:0:0:0:
64,192,26961,1,0,0:0:0:0:
320,192,26961,1,0,0:0:0:0:
320,192,27161,1,0,0:0:0:0:
448,192,27161,1,0,0:0:0:0:
64,192,27361,1,0,0:0:0:0:
320,192,27361,1,0,0:0:0:0:
192,192,27461,1,0,0:0:0:0:
64,192,27561,1,0,0:0:0:0:
448,192,27561,1,0,0:0:0:0:
192,192,27761,1,0,0:0:0:0:
320,192,27761,1,0,0:0:0:0:
64,192,27961,1,0,0:0:0:0:
320,192,27961,1,0,0:0:0:0:
192,192,28061,1,0,0:0:0:0:
320,192,28161,1,0,0:0:0:0:
448,192,28161,1,0,0:0:0:0:
192,192,28261,1,0,0:0:0:0:
64,192,28361,1,0,0:0:0:0:
448,192,28361,1,0,0:0:0:0:
64,192,28561,1,0,0:0:0:0:
192,192,28561,1,0,0:0:0:0:
192,192,28761,1,0,0:0:0:0:
448,192,28761,1,0,0:0:0:0:
64,192,28961,1,0,0:0:0:0:
320,192,28961,1,0,0:0:0:0:
192,192,29161,1,0,0:0:0:0:
320,192,29161,1,0,0:0:0:0:
192,192,29361,1,0,0:0:0:0:
448,192,29361,1,0,0:0:0:0:
64,192,29561,1,0,0:0:0:0:
320,192,29561,1,0,0:0:0:0:
192,192,29661,1,0,0:0:0:0:
320,192,29761,1,0,0:0:0:0:
448,192,29761,1,0,0:0:0:0:
64,192,29861,1,0,0:0:0:0:
192,192,29961,1,0,0:0:0:0:
320,192,29961,1,0,0:0:0:0:
192,192,30161,1,0,0:0:0:0:
448,192,30161,1,0,0:0:0:0:
320,192,30261,1,0,0:0:0:0:
64,192,30361,1,0,0:0:0:0:
448,192,30361,1,0,0:0:0:0:
192,192,30461,1,0,0:0:0:0:
320,192,30561,1,0,0:0:0:0:
448,192,30561,1,0,0:0:0:0:
192,192,30661,1,0,0:0:0:0:
64,192,30761,1,0,0:0:0:0:
320,192,30761,1,0,0:0:0:0:
192,192,30961,1,0,0:0:0:0:
448,192,30961,1,0,0:0:0:0:
320,192,31061,1,0,0:0:0:0:
192,192,31261,1,0,0:0:0:0:
64,192,31361,1,0,0:0:0:0:
320,192,31361,1,0,0:0:0:0:
192,192,31461,1,0,0:0:0:0:
320,192,31561,1,0,0:0:0:0:
448,192,31561,1,0,0:0:0:0:
64,192,31661,1,0,0:0:0:0:
192,192,31761,1,0,0:0:0:0:
320,192,31761,1,0,0:0:0:0:
64,192,31961,1,0,0:0:0:0:
448,192,31961,1,0,0:0:0:0:
448,192,32161,128,0,32961:0:0:0:0:
192,192,32161,1,0,0:0:0:0:
320,192,32161,1,0,0:0:0:0:
64,192,32261,1,0,0:0:0:0:
192,192,32361,1,0,0:0:0:0:
64,192,32561,1,0,0:0:0:0:
320,192,32561,1,0,0:0:0:0:
320,192,32761,1,0,0:0:0:0:
64,192,32861,1,0,0:0:0:0:
320,192,32961,128,0,33761:0:0:0:0:
192,192,32961,1,0,0:0:0:0:
64,192,33061,1,0,0:0:0:0:
192,192,33161,1,0,0:0:0:0:
64,192,33361,1,0,0:0:0:0:
448,192,33361,1,0,0:0:0:0:
192,192,33561,1,0,0:0:0:0:
64,192,33761,128,0,34561:0:0:0:0:
192,192,33761,1,0,0:0:0:0:
448,192,33861,1,0,0:0:0:0:
320,192,33961,1,0,0:0:0:0:
192,192,34161,1,0,0:0:0:0:
448,192,34161,1,0,0:0:0:0:
320,192,34261,1,0,0:0:0:0:
448,192,34361,1,0,0:0:0:0:
320,192,34461,1,0,0:0:0:0:
448,192,34561,128,0,35361:0:0:0:0:
192,192,34561,1,0,0:0:0:0:
320,192,34661,1,0,0:0:0:0:
192,192,34761,1,0,0:0:0:0:
64,192,34961,1,0,0:0:0:0:
320,192,34961,1,0,0:0:0:0:
192,192,35161,1,0,0:0:0:0:
320,192,35361,128,0,36961:0:0:0:0:
192,192,35361,1,0,0:0:0:0:
64,192,35461,1,0,0:0:0:0:
192,192,35561,1,0,0:0:0:0:
64,192,35761,1,0,0:0:0:0:
448,192,35761,1,0,0:0:0:0:
192,192,35961,1,0,0:0:0:0:
64,192,36061,1,0,0:0:0:0:
448,192,36161,1,0,0:0:0:0:
192,192,36261,1,0,0:0:0:0:
64,192,36361,1,0,0:0:0:0:
192,192,36561,1,0,0:0:0:0:
448,192,36561,1,0,0:0:0:0:
64,192,36761,1,0,0:0:0:0:
64,192,36961,1,0,0:0:0:0:
192,192,36961,1,0,0:0:0:0:
448,192,36961,1,0,0:0:0:0:
192,192,37161,1,0,0:0:0:0:
64,192,37361,1,0,0:0:0:0:
320,192,37361,1,0,0:0:0:0:
448,192,37361,1,0,0:0:0:0:
192,192,37561,1,0,0:0:0:0:
64,192,37761,1,0,0:0:0:0:
192,192,37761,1,0,0:0:0:0:
448,192,37761,1,0,0:0:0:0:
320,192,37961,1,0,0:0:0:0:
64,192,38161,1,0,0:0:0:0:
448,192,38161,1,0,0:0:0:0:
320,192,38161,1,0,0:0:0:0:
192,192,38361,1,0,0:0:0:0:
320,192,38361,1,0,0:0:0:0:
64,192,38561,1,0,0:0:0:0:
192,192,38561,1,0,0:0:0:0:
448,192,38561,1,0,0:0:0:0:
320,192,38761,1,0,0:0:0:0:
64,192,38961,1,0,0:0:0:0:
448,192,38961,1,0,0:0:0:0:
192,192,39061,1,0,0:0:0:0:
320,192,39261,1,0,0:0:0:0:
192,192,39361,1,0,0:0:0:0:
448,192,39361,1,0,0:0:0:0:
192,192,39561,1,0,0:0:0:0:
64,192,39661,1,0,0:0:0:0:
192,192,39761,1,0,0:0:0:0:
320,192,39761,1,0,0:0:0:0:
320,192,39961,1,0,0:0:0:0:
64,192,40161,1,0,0:0:0:0:
448,192,40161,1,0,0:0:0:0:
320,192,40261,1,0,0:0:0:0:
192,192,40361,1,0,0:0:0:0:
64,192,40461,1,0,0:0:0:0:
192,192,40561,1,0,0:0:0:0:
448,192,40561,1,0,0:0:0:0:
320,192,40661,1,0,0:0:0:0:
64,192,40761,1,0,0:0:0:0:
192,192,40861,1,0,0:0:0:0:
320,192,40961,1,0,0:0:0:0:
448,192,40961,1,0,0:0:0:0:
192,192,41061,1,0,0:0:0:0:
320,192,41161,1,0,0:0:0:0:
64,192,41261,1,0,0:0:0:0:
192,192,41361,1,0,0:0:0:0:
448,192,41361,1,0,0:0:0:0:
320,192,41461,1,0,0:0:0:0:
192,192,41561,1,0,0:0:0:0:
448,192,41661,1,0,0:0:0:0:
320,192,41761,1,0,0:0:0:0:
64,192,41761,1,0,0:0:0:0:
192,192,41961,1,0,0:0:0:0:
320,192,42161,1,0,0:0:0:0:
448,192,42161,1,0,0:0:0:0:
192,192,42261,1,0,0:0:0:0:
64,192,42461,1,0,0:0:0:0:
192,192,42561,1,0,0:0:0:0:
448,192,42561,1,0,0:0:0:0:
320,192,42761,1,0,0:0:0:0:
192,192,42861,1,0,0:0:0:0:
64,192,42961,1,0,0:0:0:0:
320,192,42961,1,0,0:0:0:0:
192,192,43161,1,0,0:0:0:0:
448,192,43361,1,0,0:0:0:0:
320,192,43361,1,0,0:0:0:0:
192,192,43461,1,0,0:0:0:0:
64,192,43561,1,0,0:0:0:0:
320,192,43661,1,0,0:0:0:0:
192,192,43761,1,0,0:0:0:0:
448,192,43761,1,0,0:0:0:0:
64,192,43861,1,0,0:0:0:0:
320,192,43961,1,0,0:0:0:0:
448,192,44061,1,0,0:0:0:0:
320,192,44161,1,0,0:0:0:0:
192,192,44161,1,0,0:0:0:0:
64,192,44261,1,0,0:0:0:0:
320,192,44361,1,0,0:0:0:0:
192,192,44461,1,0,0:0:0:0:
64,192,44561,1,0,0:0:0:0:
448,192,44561,1,0,0:0:0:0:
320,192,44661,1,0,0:0:0:0:
192,192,44761,1,0,0:0:0:0:
448,192,44761,1,0,0:0:0:0:
64,192,44861,1,0,0:0:0:0:
192,192,44961,1,0,0:0:0:0:
448,192,44961,1,0,0:0:0:0:
320,192,45161,1,0,0:0:0:0:
64,192,45361,1,0,0:0:0:0:
192,192,45361,1,0,0:0:0:0:
320,192,45461,1,0,0:0:0:0:
192,192,45661,1,0,0:0:0:0:
64,192,45761,1,0,0:0:0:0:
448,192,45761,1,0,0:0:0:0:
320,192,45961,1,0,0:0:0:0:
64,192,46061,1,0,0:0:0:0:
192,192,46161,1,0,0:0:0:0:
448,192,46161,1,0,0:0:0:0:
320,192,46361,1,0,0:0:0:0:
64,192,46561,1,0,0:0:0:0:
320,192,46561,1,0,0:0:0:0:
192,192,46661,1,0,0:0:0:0:
320,192,46761,1,0,0:0:0:0:
64,192,46861,1,0,0:0:0:0:
192,192,46961,1,0,0:0:0:0:
448,192,46961,1,0,0:0:0:0:
320,192,47061,1,0,0:0:0:0:
448,192,47161,1,0,0:0:0:0:
192,192,47261,1,0,0:0:0:0:
64,192,47361,1,0,0:0:0:0:
320,192,47361,1,0,0:0:0:0:
448,192,47461,1,0,0:0:0:0:
192,192,47561,1,0,0:0:0:0:
64,192,47661,1,0,0:0:0:0:
192,192,47761,1,0,0:0:0:0:
320,192,47761,1,0,0:0:0:0:
448,192,47861,1,0,0:0:0:0:
192,192,47961,1,0,0:0:0:0:
320,192,48061,1,0,0:0:0:0:
64,192,48161,1,0,0:0:0:0:
448,192,48161,1,0,0:0:0:0:
192,192,48361,1,0,0:0:0:0:
64,192,48561,1,0,0:0:0:0:
320,192,48561,1,0,0:0:0:0:
448,192,48661,1,0,0:0:0:0:
192,192,48861,1,0,0:0:0:0:
320,192,48961,1,0,0:0:0:0:
448,192,48961,1,0,0:0:0:0:
192,192,49161,1,0,0:0:0:0:
64,192,49261,1,0,0:0:0:0:
192,192,49361,1,0,0:0:0:0:
448,192,49361,1,0,0:0:0:0:
320,192,49561,1,0,0:0:0:0:
64,192,49761,128,0,49961:0:0:0:0:
192,192,49761,1,0,0:0:0:0:
448,192,49761,1,0,0:0:0:0:
320,192,49961,128,0,50161:0:0:0:0:
192,192,49961,1,0,0:0:0:0:
448,192,50161,128,0,50361:0:0:0:0:
192,192,50161,1,0,0:0:0:0:
64,192,50261,1,0,0:0:0:0:
192,192,50361,128,0,50561:0:0:0:0:
320,192,50461,1,0,0:0:0:0:
64,192,50561,128,0,50761:0:0:0:0:
448,192,50561,1,0,0:0:0:0:
192,192,50761,128,0,50961:0:0:0:0:
320,192,50761,1,0,0:0:0:0:
448,192,50861,1,0,0:0:0:0:
320,192,50961,128,0,51161:0:0:0:0:
64,192,50961,1,0,0:0:0:0:
448,192,51161,128,0,51361:0:0:0:0:
192,192,51161,1,0,0:0:0:0:
64,192,51361,128,0,54161:0:0:0:0:
192,192,51361,1,0,0:0:0:0:
320,192,51461,1,0,0:0:0:0:
448,192,51561,1,0,0:0:0:0:
192,192,51761,1,0,0:0:0:0:
320,192,51761,1,0,0:0:0:0:
448,192,51961,1,0,0:0:0:0:
320,192,52161,1,0,0:0:0:0:
448,192,52261,1,0,0:0:0:0:
192,192,52361,1,0,0:0:0:0:
320,192,52561,1,0,0:0:0:0:
448,192,52561,1,0,0:0:0:0:
192,192,52761,1,0,0:0:0:0:
448,192,52961,1,0,0:0:0:0:
192,192,53061,1,0,0:0:0:0:
320,192,53161,1,0,0:0:0:0:
192,192,53361,1,0,0:0:0:0:
448,192,53361,1,0,0:0:0:0:
320,192,53561,1,0,0:0:0:0:
192,192,53761,1,0,0:0:0:0:
448,192,53861,1,0,0:0:0:0:
320,192,53961,1,0,0:0:0:0:
448,192,54161,1,0,0:0:0:0:
192,192,54161,1,0,0:0:0:0:
320,192,54361,1,0,0:0:0:0:
64,192,54361,1,0,0:0:0:0:
448,192,54561,128,0,55761:0:0:0:0:
192,192,54561,1,0,0:0:0:0:
64,192,54661,1,0,0:0:0:0:
320,192,54761,1,0,0:0:0:0:
64,192,54961,1,0,0:0:0:0:
192,192,54961,1,0,0:0:0:0:
320,192,55161,1,0,0:0:0:0:
320,192,55361,1,0,0:0:0:0:
192,192,55461,1,0,0:0:0:0:
64,192,55561,1,0,0:0:0:0:
64,192,55761,1,0,0:0:0:0:
192,192,55761,1,0,0:0:0:0:
192,192,55961,1,0,0:0:0:0:
320,192,55961,1,0,0:0:0:0:
192,192,56161,128,0,57361:0:0:0:0:
448,192,56161,1,0,0:0:0:0:
320,192,56361,1,0,0:0:0:0:
64,192,56561,1,0,0:0:0:0:
448,192,56561,1,0,0:0:0:0:
320,192,56761,1,0,0:0:0:0:
448,192,56961,1,0,0:0:0:0:
320,192,57061,1,0,0:0:0:0:
64,192,57161,1,0,0:0:0:0:
448,192,57261,1,0,0:0:0:0:
320,192,57361,1,0,0:0:0:0:
64,192,57361,1,0,0:0:0:0:
448,192,57461,1,0,0:0:0:0:
64,192,57561,1,0,0:0:0:0:
320,192,57561,1,0,0:0:0:0:
192,192,57661,1,0,0:0:0:0:
320,192,57761,128,0,59361:0:0:0:0:
64,192,57761,1,0,0:0:0:0:
448,192,57961,1,0,0:0:0:0:
64,192,58161,1,0,0:0:0:0:
192,192,58261,1,0,0:0:0:0:
64,192,58461,1,0,0:0:0:0:
448,192,58561,1,0,0:0:0:0:
192,192,58761,1,0,0:0:0:0:
64,192,58861,1,0,0:0:0:0:
448,192,58961,1,0,0:0:0:0:
192,192,59161,1,0,0:0:0:0:
64,192,59361,1,0,0:0:0:0:
448,192,59361,1,0,0:0:0:0:
192,192,59461,1,0,0:0:0:0:
320,192,59561,1,0,0:0:0:0:
192,192,59761,1,0,0:0:0:0:
448,192,59761,1,0,0:0:0:0:
320,192,59961,1,0,0:0:0:0:
64,192,60161,1,0,0:0:0:0:
448,192,60161,1,0,0:0:0:0:
192,192,60261,1,0,0:0:0:0:
320,192,60261,1,0,0:0:0:0:
448,192,60361,1,0,0:0:0:0:
192,192,60561,1,0,0:0:0:0:
320,192,60561,1,0,0:0:0:0:
64,192,60761,128,0,60961:0:0:0:0:
192,192,60961,1,0,0:0:0:0:
448,192,60961,1,0,0:0:0:0:
320,192,61361,1,0,0:0:0:0:
64,192,61361,1,0,0:0:0:0:
192,192,61561,1,0,0:0:0:0:
320,192,61761,1,0,0:0:0:0:
448,192,61761,1,0,0:0:0:0:
64,192,62061,1,0,0:0:0:0:
320,192,62061,1,0,0:0:0:0:
64,192,62261,1,0,0:0:0:0:
448,192,62261,1,0,0:0:0:0:
192,192,62361,1,0,0:0:0:0:
320,192,62361,1,0,0:0:0:0:
64,192,62561,5,0,0:0:0:0:
192,192,62561,1,0,0:0:0:0:
448,192,62561,1,0,0:0:0:0:
192,192,62861,1,0,0:0:0:0:
320,192,62861,1,0,0:0:0:0:
448,192,62861,1,0,0:0:0:0:
64,192,63161,1,0,0:0:0:0:
320,192,63161,1,0,0:0:0:0:
448,192,63161,1,0,0:0:0:0:
64,192,63461,1,0,0:0:0:0:
192,192,63461,1,0,0:0:0:0:
320,192,63461,1,0,0:0:0:0:
192,192,63761,1,0,0:0:0:0:
64,192,63761,1,0,0:0:0:0:
448,192,63761,1,0,0:0:0:0:
64,192,63961,1,0,0:0:0:0:
320,192,63961,1,0,0:0:0:0:
448,192,63961,1,0,0:0:0:0:
448,192,64161,1,0,0:0:0:0:
320,192,64211,1,0,0:0:0:0:
192,192,64261,1,0,0:0:0:0:
64,192,64361,1,0,0:0:0:0:
192,192,64461,1,0,0:0:0:0:
448,192,64561,1,0,0:0:0:0:
320,192,64611,1,0,0:0:0:0:
192,192,64661,1,0,0:0:0:0:
64,192,64761,1,0,0:0:0:0:
192,192,64861,1,0,0:0:0:0:
320,192,64961,1,0,0:0:0:0:
448,192,65061,1,0,0:0:0:0:
192,192,65161,1,0,0:0:0:0:
64,192,65261,1,0,0:0:0:0:
448,192,65361,1,0,0:0:0:0:
320,192,65461,1,0,0:0:0:0:
192,192,65561,1,0,0:0:0:0:
64,192,65661,1,0,0:0:0:0:
320,192,65761,128,0,65961:0:0:0:0:
448,192,65761,128,0,65961:0:0:0:0:
192,192,66161,128,0,66361:0:0:0:0:
320,192,66161,128,0,66361:0:0:0:0:
64,192,66561,128,0,66661:0:0:0:0:
192,192,66561,128,0,66661:0:0:0:0:
64,192,66761,128,0,66961:0:0:0:0:
192,192,66761,128,0,66961:0:0:0:0:
192,192,67161,128,0,67361:0:0:0:0:
320,192,67161,128,0,67361:0:0:0:0:
192,192,67561,128,0,67761:0:0:0:0:
320,192,67561,128,0,67761:0:0:0:0:
64,192,67961,128,0,68561:0:0:0:0:
448,192,67961,128,0,68561:0:0:0:0:
320,192,68561,1,0,0:0:0:0:
192,192,68661,1,0,0:0:0:0:
64,192,68761,1,0,0:0:0:0:
192,192,68861,1,0,0:0:0:0:
320,192,68961,1,0,0:0:0:0:
192,192,69061,1,0,0:0:0:0:
320,192,69161,1,0,0:0:0:0:
448,192,69261,128,0,69561:0:0:0:0:
192,192,69561,1,0,0:0:0:0:
64,192,69661,1,0,0:0:0:0:
192,192,69761,1,0,0:0:0:0:
320,192,69861,128,0,70161:0:0:0:0:
192,192,70161,1,0,0:0:0:0:
64,192,70261,1,0,0:0:0:0:
320,192,70361,1,0,0:0:0:0:
448,192,70461,128,0,70761:0:0:0:0:
64,192,70561,1,0,0:0:0:0:
320,192,70761,1,0,0:0:0:0:
192,192,70861,1,0,0:0:0:0:
448,192,70961,1,0,0:0:0:0:
64,192,70961,1,0,0:0:0:0:
320,192,71061,1,0,0:0:0:0:
192,192,71161,1,0,0:0:0:0:
64,192,71261,1,0,0:0:0:0:
192,192,71361,1,0,0:0:0:0:
448,192,71361,1,0,0:0:0:0:
320,192,71461,1,0,0:0:0:0:
192,192,71561,1,0,0:0:0:0:
64,192,71661,1,0,0:0:0:0:
448,192,71761,1,0,0:0:0:0:
192,192,71761,1,0,0:0:0:0:
64,192,71861,1,0,0:0:0:0:
448,192,71961,1,0,0:0:0:0:
192,192,71961,1,0,0:0:0:0:
320,192,72061,1,0,0:0:0:0:
64,192,72161,128,0,72361:0:0:0:0:
448,192,72161,128,0,72361:0:0:0:0:
320,192,72561,128,0,72761:0:0:0:0:
448,192,72561,128,0,72761:0:0:0:0:
64,192,72561,1,0,0:0:0:0:
64,192,72961,128,0,73061:0:0:0:0:
192,192,72961,128,0,73061:0:0:0:0:
64,192,73161,128,0,73361:0:0:0:0:
192,192,73161,128,0,73361:0:0:0:0:
448,192,73361,1,0,0:0:0:0:
192,192,73561,128,0,73761:0:0:0:0:
320,192,73561,128,0,73761:0:0:0:0:
64,192,73861,1,0,0:0:0:0:
192,192,73961,1,0,0:0:0:0:
320,192,74061,1,0,0:0:0:0:
64,192,74161,1,0,0:0:0:0:
448,192,74161,1,0,0:0:0:0:
192,192,74261,1,0,0:0:0:0:
448,192,74361,128,0,74961:0:0:0:0:
64,192,74661,1,0,0:0:0:0:
64,192,74961,128,0,75361:0:0:0:0:
320,192,74961,1,0,0:0:0:0:
448,192,75161,128,0,75361:0:0:0:0:
192,192,75361,1,0,0:0:0:0:
448,192,75561,1,0,0:0:0:0:
64,192,75761,1,0,0:0:0:0:
320,192,75761,1,0,0:0:0:0:
192,192,75961,1,0,0:0:0:0:
448,192,76061,1,0,0:0:0:0:
64,192,76261,1,0,0:0:0:0:
320,192,76361,1,0,0:0:0:0:
192,192,76461,1,0,0:0:0:0:
64,192,76561,1,0,0:0:0:0:
448,192,76561,1,0,0:0:0:0:
320,192,76761,1,0,0:0:0:0:
448,192,76961,1,0,0:0:0:0:
320,192,77011,1,0,0:0:0:0:
192,192,77061,1,0,0:0:0:0:
64,192,77161,1,0,0:0:0:0:
448,192,77261,1,0,0:0:0:0:
64,192,77361,1,0,0:0:0:0:
192,192,77411,1,0,0:0:0:0:
320,192,77461,1,0,0:0:0:0:
448,192,77561,1,0,0:0:0:0:
64,192,77661,1,0,0:0:0:0:
448,192,77761,1,0,0:0:0:0:
320,192,77861,1,0,0:0:0:0:
192,192,77961,1,0,0:0:0:0:
64,192,78061,1,0,0:0:0:0:
448,192,78161,1,0,0:0:0:0:
320,192,78261,1,0,0:0:0:0:
192,192,78361,1,0,0:0:0:0:
64,192,78461,1,0,0:0:0:0:
448,192,78561,1,0,0:0:0:0:
192,192,78561,128,0,78961:0:0:0:0:
320,192,78961,128,0,79361:0:0:0:0:
64,192,78961,1,0,0:0:0:0:
448,192,79361,128,0,79761:0:0:0:0:
64,192,79461,1,0,0:0:0:0:
64,192,79761,128,0,80161:0:0:0:0:
320,192,79761,1,0,0:0:0:0:
448,192,80161,128,0,80461:0:0:0:0:
320,192,80461,128,0,80761:0:0:0:0:
64,192,80561,1,0,0:0:0:0:
192,192,80761,128,0,80961:0:0:0:0:
64,192,80961,128,0,81561:0:0:0:0:
320,192,81061,1,0,0:0:0:0:
448,192,81361,1,0,0:0:0:0:
192,192,81561,128,0,81761:0:0:0:0:
448,192,81761,128,0,82061:0:0:0:0:
320,192,82061,128,0,82361:0:0:0:0:
64,192,82161,1,0,0:0:0:0:
192,192,82361,128,0,82561:0:0:0:0:
64,192,82561,128,0,82961:0:0:0:0:
448,192,82961,128,0,83361:0:0:0:0:
320,192,82961,1,0,0:0:0:0:
64,192,83361,128,0,83961:0:0:0:0:
320,192,83761,1,0,0:0:0:0:
192,192,83961,1,0,0:0:0:0:
448,192,83961,1,0,0:0:0:0:
64,192,84061,1,0,0:0:0:0:
320,192,84061,1,0,0:0:0:0:
192,192,84161,1,0,0:0:0:0:
448,192,84161,128,0,84761:0:0:0:0:
64,192,84361,1,0,0:0:0:0:
64,192,84561,1,0,0:0:0:0:
320,192,84561,1,0,0:0:0:0:
320,192,84761,128,0,84961:0:0:0:0:
192,192,84761,1,0,0:0:0:0:
64,192,84961,128,0,85361:0:0:0:0:
448,192,84961,1,0,0:0:0:0:
320,192,85361,128,0,85761:0:0:0:0:
192,192,85361,1,0,0:0:0:0:
448,192,85761,128,0,86161:0:0:0:0:
192,192,86161,128,0,86561:0:0:0:0:
320,192,86161,1,0,0:0:0:0:
64,192,86561,128,0,86861:0:0:0:0:
192,192,86861,128,0,87161:0:0:0:0:
320,192,86961,1,0,0:0:0:0:
448,192,87161,128,0,87361:0:0:0:0:
320,192,87361,128,0,87961:0:0:0:0:
64,192,87461,1,0,0:0:0:0:
192,192,87761,1,0,0:0:0:0:
64,192,87961,1,0,0:0:0:0:
448,192,88161,128,0,88461:0:0:0:0:
320,192,88461,128,0,88761:0:0:0:0:
64,192,88561,1,0,0:0:0:0:
192,192,88761,128,0,88961:0:0:0:0:
64,192,88961,128,0,89361:0:0:0:0:
192,192,89361,1,0,0:0:0:0:
448,192,89361,128,0,89561:0:0:0:0:
64,192,89561,1,0,0:0:0:0:
320,192,89661,1,0,0:0:0:0:
192,192,89761,1,0,0:0:0:0:
448,192,89761,1,0,0:0:0:0:
64,192,89961,1,0,0:0:0:0:
320,192,89961,1,0,0:0:0:0:
192,192,90161,1,0,0:0:0:0:
448,192,90161,1,0,0:0:0:0:
64,192,90361,1,0,0:0:0:0:
320,192,90361,1,0,0:0:0:0:
192,192,90461,1,0,0:0:0:0:
64,192,90561,1,0,0:0:0:0:
448,192,90561,128,0,91361:0:0:0:0:
320,192,90861,1,0,0:0:0:0:
192,192,91161,1,0,0:0:0:0:
64,192,91361,1,0,0:0:0:0:
320,192,91561,1,0,0:0:0:0:
64,192,91761,1,0,0:0:0:0:
448,192,91761,1,0,0:0:0:0:
320,192,91961,1,0,0:0:0:0:
64,192,92161,1,0,0:0:0:0:
192,192,92261,1,0,0:0:0:0:
448,192,92361,1,0,0:0:0:0:
64,192,92561,1,0,0:0:0:0:
320,192,92561,1,0,0:0:0:0:
448,192,92761,1,0,0:0:0:0:
64,192,92961,1,0,0:0:0:0:
320,192,93161,1,0,0:0:0:0:
64,192,93361,1,0,0:0:0:0:
448,192,93361,1,0,0:0:0:0:
320,192,93561,1,0,0:0:0:0:
64,192,93761,1,0,0:0:0:0:
192,192,93861,1,0,0:0:0:0:
448,192,93961,1,0,0:0:0:0:
64,192,94161,1,0,0:0:0:0:
320,192,94161,1,0,0:0:0:0:
192,192,94361,1,0,0:0:0:0:
448,192,94561,1,0,0:0:0:0:
64,192,94761,1,0,0:0:0:0:
448,192,94961,1,0,0:0:0:0:
192,192,94961,1,0,0:0:0:0:
64,192,95161,1,0,0:0:0:0:
448,192,95361,1,0,0:0:0:0:
192,192,95561,1,0,0:0:0:0:
448,192,95761,1,0,0:0:0:0:
64,192,95761,1,0,0:0:0:0:
192,192,95961,1,0,0:0:0:0:
448,192,96161,1,0,0:0:0:0:
64,192,96361,1,0,0:0:0:0:
448,192,96561,1,0,0:0:0:0:
192,192,96561,1,0,0:0:0:0:
64,192,96761,1,0,0:0:0:0:
320,192,96761,1,0,0:0:0:0:
192,192,96861,1,0,0:0:0:0:
448,192,96961,1,0,0:0:0:0:
64,192,96961,1,0,0:0:0:0:
192,192,97161,1,0,0:0:0:0:
320,192,97161,1,0,0:0:0:0:
448,192,97361,1,0,0:0:0:0:
64,192,97361,1,0,0:0:0:0:
192,192,97361,1,0,0:0:0:0:
64,192,97561,1,0,0:0:0:0:
320,192,97561,1,0,0:0:0:0:
448,192,97761,1,0,0:0:0:0:
192,192,97761,1,0,0:0:0:0:
320,192,97961,1,0,0:0:0:0:
448,192,98161,1,0,0:0:0:0:
64,192,98161,1,0,0:0:0:0:
192,192,98161,1,0,0:0:0:0:
320,192,98261,1,0,0:0:0:0:
192,192,98461,1,0,0:0:0:0:
448,192,98561,1,0,0:0:0:0:
64,192,98661,1,0,0:0:0:0:
320,192,98761,1,0,0:0:0:0:
448,192,98961,1,0,0:0:0:0:
64,192,98961,1,0,0:0:0:0:
192,192,98961,1,0,0:0:0:0:
448,192,99161,1,0,0:0:0:0:
64,192,99361,1,0,0:0:0:0:
320,192,99361,1,0,0:0:0:0:
448,192,99561,1,0,0:0:0:0:
64,192,99761,1,0,0:0:0:0:
192,192,99761,1,0,0:0:0:0:
448,192,99761,1,0,0:0:0:0:
320,192,99861,1,0,0:0:0:0:
192,192,100061,1,0,0:0:0:0:
64,192,100161,1,0,0:0:0:0:
448,192,100261,1,0,0:0:0:0:
192,192,100261,1,0,0:0:0:0:
320,192,100361,1,0,0:0:0:0:
64,192,100561,1,0,0:0:0:0:
448,192,100561,1,0,0:0:0:0:
192,192,100561,1,0,0:0:0:0:
320,192,100761,1,0,0:0:0:0:
448,192,100961,1,0,0:0:0:0:
64,192,100961,1,0,0:0:0:0:
192,192,101161,1,0,0:0:0:0:
448,192,101361,1,0,0:0:0:0:
64,192,101361,1,0,0:0:0:0:
320,192,101361,1,0,0:0:0:0:
192,192,101461,1,0,0:0:0:0:
320,192,101661,1,0,0:0:0:0:
448,192,101761,1,0,0:0:0:0:
64,192,101761,1,0,0:0:0:0:
192,192,101861,1,0,0:0:0:0:
64,192,101961,1,0,0:0:0:0:
320,192,101961,1,0,0:0:0:0:
448,192,102161,1,0,0:0:0:0:
64,192,102161,1,0,0:0:0:0:
192,192,102161,1,0,0:0:0:0:
64,192,102361,1,0,0:0:0:0:
320,192,102361,1,0,0:0:0:0:
448,192,102561,1,0,0:0:0:0:
64,192,102561,1,0,0:0:0:0:
192,192,102561,1,0,0:0:0:0:
448,192,102761,1,0,0:0:0:0:
64,192,102961,1,0,0:0:0:0:
320,192,102961,1,0,0:0:0:0:
192,192,102961,1,0,0:0:0:0:
192,192,103161,1,0,0:0:0:0:
64,192,103361,1,0,0:0:0:0:
320,192,103361,1,0,0:0:0:0:
448,192,103361,1,0,0:0:0:0:
192,192,103461,1,0,0:0:0:0:
320,192,103561,1,0,0:0:0:0:
448,192,103661,1,0,0:0:0:0:
64,192,103761,1,0,0:0:0:0:
192,192,103761,1,0,0:0:0:0:
320,192,103761,1,0,0:0:0:0:
448,192,103861,1,0,0:0:0:0:
320,192,103961,1,0,0:0:0:0:
192,192,104061,1,0,0:0:0:0:
64,192,104161,1,0,0:0:0:0:
448,192,104361,1,0,0:0:0:0:
448,192,104761,1,0,0:0:0:0:
448,192,105161,1,0,0:0:0:0:
448,192,105561,1,0,0:0:0:0:
320,192,105961,1,0,0:0:0:0:
320,192,106361,1,0,0:0:0:0:
320,192,106761,1,0,0:0:0:0:
320,192,107161,1,0,0:0:0:0:
192,192,107561,1,0,0:0:0:0:
192,192,107961,1,0,0:0:0:0:
192,192,108361,1,0,0:0:0:0:
192,192,108761,1,0,0:0:0:0:
64,192,108961,128,0,110461:0:0:0:0:
448,192,109361,128,0,110461:0:0:0:0:
64,192,110561,1,0,0:0:0:0:
448,192,110561,1,0,0:0:0:0:
64,192,110961,1,0,0:0:0:0:
448,192,110961,1,0,0:0:0:0:
192,192,111361,1,0,0:0:0:0:
320,192,111361,1,0,0:0:0:0:
64,192,111561,1,0,0:0:0:0:
448,192,111561,1,0,0:0:0:0:
192,192,111961,1,0,0:0:0:0:
448,192,111961,1,0,0:0:0:0:
64,192,112361,1,0,0:0:0:0:
320,192,112361,1,0,0:0:0:0:
64,192,112761,1,0,0:0:0:0:
320,192,112761,1,0,0:0:0:0:
64,192,113161,1,0,0:0:0:0:
192,192,113161,1,0,0:0:0:0:
192,192,113361,1,0,0:0:0:0:
320,192,113361,1,0,0:0:0:0:
320,192,113561,1,0,0:0:0:0:
448,192,113561,1,0,0:0:0:0:
64,192,113761,1,0,0:0:0:0:
320,192,113861,1,0,0:0:0:0:
192,192,113961,1,0,0:0:0:0:
448,192,114061,1,0,0:0:0:0:
64,192,114161,1,0,0:0:0:0:
448,192,114361,1,0,0:0:0:0:
192,192,114461,1,0,0:0:0:0:
320,192,114561,1,0,0:0:0:0:
64,192,114661,1,0,0:0:0:0:
448,192,114761,1,0,0:0:0:0:
192,192,114861,1,0,0:0:0:0:
64,192,114961,1,0,0:0:0:0:
192,192,115161,1,0,0:0:0:0:
320,192,115161,1,0,0:0:0:0:
64,192,115261,1,0,0:0:0:0:
448,192,115261,1,0,0:0:0:0:
192,192,115561,1,0,0:0:0:0:
320,192,115561,1,0,0:0:0:0:
64,192,115961,1,0,0:0:0:0:
320,192,115961,1,0,0:0:0:0:
192,192,116161,1,0,0:0:0:0:
448,192,116161,1,0,0:0:0:0:
64,192,116361,1,0,0:0:0:0:
448,192,116361,1,0,0:0:0:0:
320,192,116361,1,0,0:0:0:0:
320,192,116761,1,0,0:0:0:0:
64,192,116961,1,0,0:0:0:0:
448,192,116961,1,0,0:0:0:0:
192,192,116961,1,0,0:0:0:0:
448,192,117361,1,0,0:0:0:0:
320,192,117361,1,0,0:0:0:0:
192,192,117761,1,0,0:0:0:0:
448,192,117761,1,0,0:0:0:0:
64,192,117861,1,0,0:0:0:0:
320,192,117861,1,0,0:0:0:0:
192,192,117961,1,0,0:0:0:0:
448,192,117961,1,0,0:0:0:0:
64,192,118361,1,0,0:0:0:0:
448,192,118361,1,0,0:0:0:0:
320,192,118761,1,0,0:0:0:0:
64,192,118761,1,0,0:0:0:0:
64,192,119161,1,0,0:0:0:0:
192,192,119161,1,0,0:0:0:0:
192,192,119561,1,0,0:0:0:0:
320,192,119561,1,0,0:0:0:0:
192,192,119761,1,0,0:0:0:0:
448,192,119761,1,0,0:0:0:0:
64,192,119961,1,0,0:0:0:0:
448,192,119961,1,0,0:0:0:0:
192,192,120161,1,0,0:0:0:0:
320,192,120161,1,0,0:0:0:0:
64,192,120361,1,0,0:0:0:0:
448,192,120361,1,0,0:0:0:0:
192,192,120561,1,0,0:0:0:0:
448,192,120561,1,0,0:0:0:0:
64,192,120661,1,0,0:0:0:0:
320,192,120661,1,0,0:0:0:0:
192,192,120861,1,0,0:0:0:0:
448,192,120861,1,0,0:0:0:0:
64,192,121161,1,0,0:0:0:0:
320,192,121161,1,0,0:0:0:0:
192,192,121261,1,0,0:0:0:0:
448,192,121261,1,0,0:0:0:0:
64,192,121361,1,0,0:0:0:0:
320,192,121361,1,0,0:0:0:0:
448,192,121561,1,0,0:0:0:0:
64,192,121561,1,0,0:0:0:0:
320,192,121761,1,0,0:0:0:0:
448,192,121761,1,0,0:0:0:0:
192,192,121761,1,0,0:0:0:0:
64,192,122061,1,0,0:0:0:0:
320,192,122061,1,0,0:0:0:0:
448,192,122061,1,0,0:0:0:0:
64,192,122361,1,0,0:0:0:0:
192,192,122361,1,0,0:0:0:0:
448,192,122361,1,0,0:0:0:0:
64,192,122661,1,0,0:0:0:0:
192,192,122661,1,0,0:0:0:0:
320,192,122661,1,0,0:0:0:0:
192,192,122961,1,0,0:0:0:0:
320,192,122961,1,0,0:0:0:0:
448,192,122961,1,0,0:0:0:0:
64,192,123161,1,0,0:0:0:0:
192,192,123161,1,0,0:0:0:0:
320,192,123161,1,0,0:0:0:0:
64,192,123361,1,0,0:0:0:0:
448,192,123361,1,0,0:0:0:0:
