osu file format v9

[General]
AudioFilename: 02 Ray of Illuminati (DJMAX).mp3
AudioLeadIn: 0
PreviewTime: 13060
Countdown: 0
SampleSet: Soft
StackLeniency: 0.4
Mode: 0
LetterboxInBreaks: 1

[Editor]
DistanceSpacing: 1.5
BeatDivisor: 4
GridSize: 8

[Metadata]
Title:Ray of Illuminati
Artist:ESTi
Creator:LaunchedthousandShip
Version:MX
Source:DJMAX
Tags:

[Difficulty]
HPDrainRate:8
CircleSize:4
OverallDifficulty:7
ApproachRate:9
SliderMultiplier:2
SliderTickRate:0.5

[Events]
//Background and Video events
0,0,"800px-Ray_of_Illuminati_Technika2Eyecatch.jpg"
//Break Periods
//Storyboard Layer 0 (Background)
//Storyboard Layer 1 (Fail)
//Storyboard Layer 2 (Pass)
//Storyboard Layer 3 (Foreground)
//Storyboard Sound Samples
//Background Colour Transformations
3,100,163,162,255

[TimingPoints]
364,400,4,1,1,70,1,0
6760,-100,4,1,1,70,0,0
11364,-100,4,2,1,70,0,0
12564,-100,4,1,1,70,0,1
25960,-100,4,1,1,70,0,0
35364,1600,4,1,1,70,1,0
37164,400,4,1,1,70,1,0
64364,-66.6666666666667,4,2,1,70,0,0
65964,-100,4,1,1,70,0,0
68164,-200,4,1,1,70,0,0
71364,-100,4,1,1,70,0,0
74564,-200,4,1,1,70,0,0
75364,-100,4,1,1,70,0,0
104360,-100,4,1,1,5,0,0
110760,-100,4,1,1,70,0,1
123560,-100,4,2,0,5,0,0

[Colours]
Combo1 : 224,181,31
Combo2 : 32,162,223
Combo3 : 200,200,17
Combo4 : 0,0,196

[HitObjects]
456,248,6764,1,0
456,248,7164,1,0
376,304,7364,1,0
280,336,7564,2,0,B|200:360|128:328,1,150
120,320,7964,1,0
56,128,8364,5,0
56,128,8764,1,0
136,72,8964,1,0
232,40,9164,2,0,B|272:16|336:32,1,100
304,104,9464,2,0,B|344:128|408:112,1,100
400,192,9764,2,0,B|355:179|297:211,1,100
128,304,10364,5,0
224,336,10564,1,0
320,352,10764,2,0,B|376:368|424:352,1,100
432,348,11064,1,0
472,104,11564,5,0
472,104,11964,2,0,B|384:56|272:80,1,200
80,120,12764,5,0
80,144,12864,1,0
80,168,12964,1,0
80,192,13064,1,0
80,216,13164,1,4
80,216,13564,1,12
248,320,13964,1,0
248,320,14064,1,0
248,320,14164,1,0
328,264,14364,1,8
424,248,14564,6,0,B|496:320,1,100
480,120,14964,2,0,B|384:72,1,100,0|8
192,104,15364,2,0,B|120:176,2,100
384,168,15964,6,0,B|400:272,1,100,8|0
312,312,16364,1,0
288,312,16464,1,0
264,312,16564,1,0
240,312,16664,1,0
216,312,16764,1,8
136,256,16964,5,0
144,232,17064,1,0
152,208,17164,1,0
176,208,17264,1,0
200,208,17364,1,0
224,208,17464,1,0
248,208,17564,1,8
344,232,17764,2,0,B|392:144|344:40,2,200
288,312,18764,1,0
216,240,18964,5,0
192,240,19064,1,0
168,240,19164,1,8
144,240,19264,1,0
120,240,19364,1,0
24,280,19564,1,4
24,280,19964,1,12
216,344,20364,5,0
240,344,20464,1,0
264,344,20564,1,0
304,248,20764,1,8
392,200,20964,2,0,B|496:200,1,100
312,120,21364,2,0,B|208:120,1,100,0|8
56,248,21764,2,0,B|160:248,2,100
240,336,22364,6,0,B|344:336,1,100,8|0
488,336,22764,1,0
464,184,22964,1,0
400,48,23164,1,8
400,48,23264,1,0
200,24,23464,2,0,B|96:24,1,100
80,40,23764,1,0
56,48,23864,1,0
32,48,23964,2,0,B|32:152,1,100,8|0
128,320,24364,5,4
400,192,24664,1,4
152,24,24964,1,4
232,208,25164,1,8
240,216,25564,1,0
240,216,25664,1,0
240,216,25764,1,0
256,64,25964,6,0,B|360:64,1,100
456,64,26364,1,8
488,160,26564,1,0
488,184,26664,1,0
416,256,26864,1,0
416,232,26964,1,0
328,280,27164,5,8
304,296,27264,1,0
280,312,27364,1,0
256,296,27464,1,0
232,280,27564,2,0,B|128:280,1,100
32,280,27964,1,8
80,192,28164,1,0
104,192,28264,1,0
168,112,28464,1,0
192,112,28564,1,0
256,32,28764,5,8
280,32,28864,1,0
304,32,28964,1,0
328,32,29064,1,0
352,32,29164,1,0
448,32,29364,1,0
448,32,29564,1,8
464,128,29764,2,0,B|432:168,1,50
432,264,30064,2,0,B|384:280,1,50
320,352,30364,6,0,B|272:328,1,50,8|0
224,272,30564,2,0,B|272:256,1,50
312,192,30764,1,0
336,192,30864,1,0
360,192,30964,1,0
296,112,31164,1,8
272,112,31264,1,0
184,168,31464,5,0
160,168,31564,1,0
136,168,31664,1,0
112,168,31764,1,0
88,168,31864,1,0
112,240,31964,2,0,B|152:280,1,50,8|0
160,352,32164,2,0,B|208:336,1,50
256,280,32364,6,0,B|456:280,1,200,0|8
256,104,33164,6,0,B|56:104,1,200,0|8
344,32,33964,6,0,B|144:32,1,200,0|8
168,352,34764,6,0,B|368:352,1,200,0|8
256,192,35564,6,0,B|256:240,3,50,0|8|0|8
256,320,37164,5,4
256,320,37564,5,4
256,320,37964,5,4
256,320,38364,5,4
416,200,38764,5,0
360,120,38964,1,0
264,152,39164,1,8
240,136,39264,1,0
168,208,39464,1,0
144,224,39564,1,0
56,272,39764,1,0
40,256,39864,1,0
32,232,39964,1,8
32,208,40064,1,0
40,184,40164,1,0
88,96,40364,5,0
88,96,40564,1,0
176,144,40764,1,8
200,128,40864,1,0
272,56,41064,1,0
296,72,41164,1,0
320,80,41264,1,0
344,80,41364,1,0
368,72,41464,1,0
392,56,41564,1,8
416,48,41664,1,0
440,40,41764,1,0
464,40,41864,1,0
488,48,41964,1,0
488,144,42164,5,0
488,240,42364,1,8
464,240,42464,1,0
488,336,42664,1,0
464,336,42764,1,0
376,288,42964,1,0
352,288,43064,1,0
328,288,43164,1,8
304,288,43264,1,0
280,288,43364,1,0
128,288,43564,6,0,B|80:280,1,50
56,232,43764,2,0,B|104:224,1,50
112,176,43964,2,0,B|160:168,1,50,8|0
200,200,44164,2,0,B|248:192,1,50
272,152,44364,1,0
296,152,44464,1,0
320,152,44564,1,0
344,152,44664,1,0
368,152,44764,1,8
392,152,44864,1,0
416,152,44964,1,0
440,152,45064,1,0
464,152,45164,1,0
416,64,45364,5,0
320,64,45564,1,8
328,40,45664,1,0
232,64,45864,1,0
240,40,45964,1,0
144,72,46164,1,0
136,96,46264,1,0
128,120,46364,1,8
120,144,46464,1,0
112,168,46564,1,0
80,264,46764,5,0
80,264,46964,1,0
176,248,47164,1,8
200,264,47264,1,0
272,336,47464,1,0
296,320,47564,1,0
320,312,47664,1,0
344,312,47764,1,0
368,320,47864,1,0
392,336,47964,1,8
416,344,48064,1,0
440,352,48164,1,0
464,352,48264,1,0
488,344,48364,1,0
448,248,48564,5,0
360,200,48764,1,8
360,176,48864,1,0
280,240,49064,1,0
280,216,49164,1,0
184,208,49364,1,0
184,184,49464,1,0
184,160,49564,1,8
184,136,49664,1,0
184,112,49764,1,0
104,48,49964,5,0
104,144,50164,1,0
40,280,50364,1,8
40,184,50564,1,0
184,232,50764,5,0
336,232,50964,1,0
408,96,51164,1,8
256,96,51364,1,0
104,96,51564,1,0
408,96,51964,5,8
456,240,52164,1,0
456,240,52264,1,0
312,288,52464,1,0
312,288,52564,1,0
256,152,52764,1,8
256,152,53164,5,0
104,96,53564,5,8
56,240,53764,1,0
56,240,53864,1,0
200,288,54064,1,0
200,288,54164,1,0
256,152,54364,1,8
408,96,54764,5,0
408,96,54964,1,0
456,240,55164,1,8
456,240,55364,1,0
312,288,55564,1,0
312,288,55764,1,0
256,152,55964,1,8
256,152,56164,1,0
112,200,56364,1,0
112,200,56564,1,0
160,344,56764,1,8
160,344,56964,1,0
32,264,57164,5,0
56,264,57264,1,0
80,264,57364,1,0
80,112,57564,1,8
104,120,57664,1,0
128,128,57764,1,0
152,120,57864,1,0
176,112,57964,1,0
272,80,58164,5,0
368,112,58364,1,8
392,120,58464,1,0
440,208,58664,1,0
464,216,58764,1,0
488,312,58964,1,0
464,304,59064,1,0
440,296,59164,1,8
416,288,59264,1,0
392,280,59364,1,0
296,296,59564,5,0
272,304,59664,1,0
248,312,59764,1,0
152,280,59964,1,8
128,272,60064,1,0
40,232,60264,1,0
88,144,60464,1,0
112,136,60564,1,0
200,184,60764,5,8
224,176,60864,1,0
248,168,60964,1,0
272,176,61064,1,0
296,184,61164,2,0,B|400:184,1,100
496,184,61564,1,8
312,264,61964,5,0
288,280,62064,2,0,B|184:280,1,100,0|8
88,280,62464,1,8
80,128,62764,5,4
320,16,63064,1,4
432,256,63364,1,4
192,368,63664,1,4
256,192,63964,1,4
256,192,64164,1,4
144,96,64364,6,0,B|56:304,1,224.999993294478
128,320,64764,2,0,B|215:112,1,224.999993294478
288,128,65164,2,0,B|200:336,1,224.999993294478
272,352,65564,2,0,B|359:144,1,224.999993294478
392,72,65964,5,4
392,72,66364,1,0
192,72,66764,1,0
192,72,66964,1,0
72,232,67364,1,0
72,232,67764,1,0
248,328,68164,2,0,B|400:328,1,150,0|8
488,208,69164,5,0
472,176,69264,1,0
456,144,69364,1,0
424,168,69464,2,0,B|344:168,1,75,8|0
336,200,69864,5,0
320,232,69964,1,0
304,264,70064,2,0,B|224:264,1,75,8|0
216,232,70464,5,0
200,200,70564,1,0
168,216,70664,2,0,B|88:216,1,75,8|0
64,240,71064,1,0
32,216,71164,1,8
104,88,71564,5,0
128,80,71664,1,0
152,80,71764,1,0
176,88,71864,1,0
200,96,71964,1,0
224,104,72064,1,0
248,104,72164,1,0
272,96,72264,1,0
296,88,72364,1,4
296,88,72764,1,0
416,248,73164,5,0
416,248,73364,1,0
320,248,73564,1,8
320,248,73764,1,0
192,320,74064,1,0
192,320,74164,1,0
192,320,74264,1,0
120,248,74464,1,0
120,248,74564,2,0,B|120:96,1,150,0|8
320,120,75364,6,0,B|320:224,1,100
320,320,75764,1,0
320,320,75964,1,8
224,304,76164,1,0
200,320,76264,1,0
104,280,76464,1,0
96,256,76564,1,0
88,232,76664,1,0
80,208,76764,1,8
136,128,76964,1,0
216,72,77164,6,0,B|264:56,3,50
312,72,77564,2,0,B|360:88,3,50
408,144,77964,2,0,B|456:120,1,50
480,192,78164,2,0,B|496:240,1,50
440,296,78364,2,0,B|392:320,1,50
360,248,78564,2,0,B|344:200,1,50
280,160,78764,6,0,B|184:120|80:160,1,200
200,328,79564,2,0,B|296:368|400:328,1,200
416,128,80364,2,0,B|336:200|368:312,1,200
456,264,80964,1,0
504,176,81164,2,0,B|432:248|320:232,1,200
176,88,81964,6,0,B|224:176|184:288,1,200
128,200,82564,1,0
48,136,82764,2,0,B|32:240|112:328,1,200
272,208,83564,2,0,B|368:184|464:264,1,200
368,304,84164,1,0
368,304,84264,1,0
368,304,84364,1,0
280,360,84564,1,0
192,304,84764,1,0
112,360,84964,1,0
24,304,85164,5,0
24,304,85564,1,0
136,144,85964,1,0
136,144,86364,1,0
320,64,86764,2,0,B|416:96|440:216,1,200
392,296,87364,1,0
296,264,87564,2,0,B|184:264|112:336,1,200
104,232,88164,6,0,B|112:184|88:136,1,100
272,64,88764,1,0
272,64,88964,1,0
272,64,89164,2,0,B|328:152|440:160,1,200
392,248,89764,1,0
392,248,89864,1,0
392,248,89964,1,0
304,208,90164,1,0
240,280,90364,1,0
144,280,90564,5,0
144,256,90664,1,0
144,232,90764,1,0
144,208,90864,1,0
144,184,90964,1,0
144,160,91064,1,0
144,136,91164,1,0
144,112,91264,1,0
144,88,91364,1,0
144,64,91464,1,0
144,40,91564,2,0,B|240:16|344:40,1,200
408,112,92164,5,0
432,216,92364,1,0
408,216,92464,1,0
384,216,92564,1,0
312,280,92764,1,0
280,280,92864,1,0
256,280,92964,1,0
184,208,93164,5,0
160,208,93264,1,0
136,208,93364,1,0
112,208,93464,1,0
88,208,93564,1,8
32,120,93764,1,0
112,56,93964,1,0
136,56,94064,1,0
160,56,94164,1,0
256,56,94364,1,8
328,120,94564,5,0
272,200,94764,1,0
248,192,94864,1,0
232,176,94964,1,0
224,152,95064,1,0
232,128,95164,1,8
328,120,95364,1,0
368,32,95564,5,0
392,40,95664,1,0
416,48,95764,1,0
488,120,95964,1,8
464,216,96164,1,0
392,152,96364,1,0
368,160,96464,1,0
344,168,96564,1,0
296,256,96764,6,0,B|216:320,1,100,8|0
40,224,97164,2,0,B|80:128,1,100
264,48,97564,2,0,B|224:144,1,100,8|0
376,272,97964,2,0,B|472:232,1,100
432,144,98364,5,8
336,144,98564,1,0
256,200,98764,1,0
240,184,98864,1,0
224,168,98964,1,0
128,168,99164,1,8
48,224,99364,1,0
104,304,99564,5,0
184,248,99764,1,0
256,320,99964,1,8
280,320,100064,1,0
304,320,100164,1,0
328,320,100264,1,0
352,320,100364,1,0
448,320,100564,1,0
488,224,100764,1,8
488,224,100964,1,0
432,136,101164,6,0,B|328:136,1,100
296,40,101564,2,0,B|192:40,1,100,8|0
128,112,101964,1,0
104,112,102064,1,0
80,112,102164,1,0
56,112,102264,1,0
32,112,102364,1,8
64,208,102564,1,0
160,184,102764,5,0
184,184,102864,1,0
208,184,102964,1,0
232,184,103064,1,0
256,184,103164,1,8
328,256,103364,1,0
384,336,103564,1,8
408,328,103664,1,8
432,312,103764,1,8
448,288,103864,1,8
456,264,103964,1,8
456,240,104064,1,8
448,216,104164,1,8
432,192,104264,1,8
416,176,104364,1,8
256,192,104464,12,0,109164
200,96,110764,5,4
384,168,111164,1,8
224,288,111564,1,0
208,264,111664,1,0
192,240,111764,1,0
152,152,111964,2,0,B|48:152,1,100,8|0
40,128,112264,1,0
32,104,112364,1,0
120,72,112564,1,0
216,48,112764,5,8
232,64,112864,1,0
248,80,112964,2,0,B|352:80,1,100
408,160,113364,1,0
360,248,113564,2,0,B|256:248,1,100,8|0
200,168,113964,5,0
176,160,114064,1,0
152,152,114164,1,0
128,152,114264,1,0
104,152,114364,1,8
72,248,114564,1,0
88,272,114664,1,0
104,296,114764,1,0
120,320,114864,1,0
136,304,114964,1,0
152,288,115064,1,0
168,272,115164,1,8
248,208,115364,6,0,B|336:160|448:208,1,200
441,205,116164,1,0
441,205,116364,1,0
488,112,116564,5,0
464,104,116664,1,0
440,96,116764,1,0
416,88,116864,1,0
392,80,116964,1,0
368,72,117064,1,0
344,64,117164,1,4
160,144,117564,1,8
280,304,117964,5,0
304,304,118064,1,0
328,304,118164,1,0
360,208,118364,2,0,B|256:208,1,100,8|0
240,224,118664,1,0
216,208,118764,1,0
120,208,118964,1,0
168,120,119164,1,8
184,104,119264,1,0
208,120,119364,2,0,B|312:120,1,100
408,144,119764,5,0
448,48,119964,2,0,B|344:48,1,100,8|0
200,88,120364,5,0
56,56,120564,1,0
32,208,120764,1,8
32,208,120864,1,0
176,240,121064,1,0
288,344,121264,2,0,B|392:344,1,100
408,328,121564,1,8
424,312,121664,1,8
440,296,121764,1,8
424,144,121964,5,4
208,24,122264,1,4
88,240,122564,1,4
304,360,122864,1,4
256,192,123164,5,8
256,192,123364,1,8
256,192,123564,1,0
