osu file format v5

[General]
AudioFilename: oblivion.mp3
AudioLeadIn: 0
PreviewTime: -1
Countdown: 1
SampleSet: Soft
StackLeniency: 0.7
Mode: 0
LetterboxInBreaks: 1

[Metadata]
Title:OblivioN
Artist:ESTi
Creator:darrihuka
Version:Relaxing
Source:DJMax
Tags:

[Difficulty]
HPDrainRate:4
CircleSize:4
OverallDifficulty:7
SliderMultiplier:1.1
SliderTickRate:4

[Events]
//Background and Video events
0,0,"oblivion.jpg"
//Break Periods
2,41044,41157
//Storyboard Layer 0 (Background)
//Storyboard Layer 1 (Failing)
//Storyboard Layer 2 (Passing)
//Storyboard Layer 3 (Foreground)
//Storyboard Sound Samples
//Background Colour Transformations
3,100,163,162,255

[TimingPoints]
13613,425.531914893617,4,2,0,100,1
20422,851.063829787234,4,2,0,100,1
20847,425.531914893617,4,2,0,100,1
22123,851.063829787234,4,2,0,100,1
22548,425.531914893617,4,2,0,100,1
23824,851.063829787234,4,2,0,100,1
24249,425.531914893617,4,2,0,100,1
24674,851.063829787234,4,2,0,100,1
25099,425.531914893617,4,2,0,100,1
34034,425.531914893617,4,2,0,100,1
37438,319.148936170213,4,2,0,100,1
39991,425.531914893617,4,2,0,100,1
68076,851.063829787234,4,2,0,100,1
69778,425.531914893617,4,2,0,100,1
99990,851.063829787234,4,2,0,100,1
100415,425.531914893617,4,2,0,100,1
103393,851.063829787234,4,2,0,100,1
103818,425.531914893617,4,2,0,100,1
106796,851.063829787234,4,2,0,100,1
107221,425.531914893617,4,2,0,100,1

[Colours]
Combo1 : 145,23,255
Combo2 : 244,0,6
Combo3 : 255,255,255
Combo4 : 88,88,88

[HitObjects]
256,192,13612,2,0,L|256:80,1,110,4|2
64,80,15315,6,0,L|174:80,1,110,4|0
268,144,16166,2,2,L|158:144,1,110,2|2
64,208,17017,2,0,L|174:208,1,110,4|2
448,336,18719,6,0,L|338:336,1,110,4|0
244,272,19570,2,2,L|354:272,1,110,2|2
448,208,20422,6,0,L|384:208,1,55,4|2
320,208,21272,2,0,L|352:160,3,55
368,144,22123,6,0,L|432:144,1,55,4|2
496,144,22973,2,0,L|464:96,3,55
448,80,23824,6,0,L|384:80,1,55,4|2
393,80,24461,1,0
384,144,24674,6,0,L|320:144,1,55,4|2
329,144,25311,1,0
320,208,25524,6,4,L|192:208,3,110,6|6|6|2
208,288,27226,6,0,L|94:288,1,110,4|0
62,224,28077,2,0,L|62:192,4,27.5
142,224,28928,6,0,L|256:224,1,110,0|0
288,160,29779,2,0,L|288:128,4,27.5
248,160,30418,1,0
208,160,30630,6,0,L|94:160,1,110,0|0
62,96,31481,2,0,L|32:96,4,27.5
144,96,32333,6,0,L|256:96,1,110
288,96,32971,1,0
320,96,33184,2,0,L|352:96,4,27.5
288,96,33822,1,0
256,96,34034,6,2,L|144:96,1,110
112,96,34672,2,2,L|50:152|112:208,1,165
192,208,35736,6,2,L|304:208,1,110
336,208,36374,2,2,L|398:264|336:320,1,165
296,320,37225,1,2
256,320,37438,6,0,L|144:320,2,110
288,272,38289,2,0,L|400:272,2,110,0|0|0
256,224,39140,2,2,L|144:224,2,110
256,224,39991,6,2,L|320:224|352:160|264:160,1,220,2|6
96,64,41905,5,0
48,96,42118,1,2
96,128,42331,1,2
144,96,42544,2,0,L|256:96,1,110,6|2
344,96,43395,2,0,L|376:96,3,27.5
371,96,43820,2,2,L|440:96,1,55
472,96,44246,6,2,L|368:96,1,82.5
320,96,44884,1,0
320,96,45097,2,2,L|216:96,1,82.5
168,96,45735,1,2
120,96,45948,6,2,L|56:160,2,82.5,2|2|2
120,160,46799,6,2,L|184:224,2,82.5,2|2|2
120,224,47650,6,2,L|56:288,2,82.5,2|2|2
120,280,48501,6,2,L|176:280,3,55
216,280,49352,6,0,L|328:280,1,110,4|2
416,280,50203,2,0,L|456:280,3,27.5
444,280,50629,2,2,L|460:256|444:232,1,55,2|2
424,200,51054,6,2,L|368:112,1,82.5
344,72,51693,1,2
344,72,51905,6,2,L|288:160,1,82.5
264,200,52544,1,2
224,200,52756,6,0,L|136:200,2,82.5,2|2|2
264,152,53607,6,0,L|360:152,2,82.5,2|2|2
224,104,54459,6,0,L|136:104,2,82.5,2|2|2
264,56,55310,6,2,L|296:56,4,27.5
216,56,55948,1,2
168,56,56161,6,0,L|128:56|80:128,1,110,4|0
40,200,57012,2,0,L|8:200,4,27.5
88,200,57650,1,0
136,200,57863,2,0,L|184:128,2,82.5
184,200,58714,2,0,L|232:272,2,82.5
232,200,59565,6,2,L|409:200|440:152,1,220
456,120,60629,5,0
480,80,60842,1,2
432,80,61054,1,0
384,80,61267,2,2,L|264:80,2,110
432,80,62331,5,0
408,120,62544,1,0
384,80,62756,1,0
360,120,62969,2,2,L|288:120,4,55,0|2|2|2|2
336,160,64033,5,0
360,200,64246,1,0
384,160,64458,1,0
408,200,64671,2,2,L|480:200,3,55,0|2|2|2
463,200,65522,6,2,L|440:256|384:256,1,110
288,256,66373,2,0,L|160:256,1,110,0|2
128,256,67012,1,0
80,256,67224,2,0,L|40:256,4,27.5,0|0|0|0|2
128,256,67863,1,0
176,256,68076,6,0,L|224:256,2,41.25,4|0|0
152,208,68927,2,0,L|104:208,2,41.25,0|0|0
176,160,69778,6,0,L|288:160,1,110,0|4
368,112,70629,6,0,L|396:160|368:208,1,110,0|4
320,280,71480,6,0,L|208:280,1,110,0|4
120,280,72331,6,0,L|72:280,4,27.5,0|0|0|0|4
208,280,73182,2,0,L|320:280,1,110,0|4
376,216,74033,2,0,L|264:216,1,110,0|4
208,152,74884,2,0,L|296:152,2,82.5,0|2|0
160,152,75735,6,0,L|120:152,4,27.5,0|0|0|0|4
224,208,76586,6,0,L|224:96,1,110,0|4
288,40,77437,2,0,L|288:152,1,110,0|4
352,208,78288,2,0,L|352:96,1,110,0|4
352,56,78926,1,0
352,56,79139,6,0,L|380:104|352:152,1,110,0|4
264,152,79990,6,0,L|152:152,2,110,0|4|0
320,152,81054,1,0
288,200,81267,1,4
256,248,81480,1,0
312,248,81692,2,0,L|424:248,1,110,0|6
480,248,82331,1,0
448,200,82543,6,2,L|448:168,3,27.5
480,152,82969,6,2,L|480:120,3,27.5,4|0|0|0
448,104,83395,6,0,L|336:104,1,110,2|4
248,104,84246,2,0,L|216:104,4,27.5,0|0|0|0|4
336,104,85097,6,0,L|308:152|336:200,1,110,0|4
248,200,85948,2,0,L|276:248|248:296,1,110,0|4
288,296,86586,1,0
328,296,86799,6,0,L|416:296,2,82.5
288,296,87650,2,0,L|248:296,4,27.5,0|0|0|0|4
200,296,88501,6,0,L|172:248|200:200,1,110,0|4
152,200,89139,1,0
104,200,89352,2,0,L|132:152|104:104,1,110,0|4
144,104,89990,1,0
184,104,90203,6,0,L|272:104,2,82.5
152,152,91054,2,0,L|64:152,2,82.5,0|0|0
184,200,91905,2,0,L|216:200,4,27.5,0|0|0|0|2
152,248,92543,1,0
120,296,92756,2,0,L|88:296,4,27.5,0|0|0|0|2
152,344,93394,1,0
184,296,93607,6,2,L|403:296|464:184,1,330,2|6
488,152,95097,2,0,L|448:152,2,27.5,0|0|2
416,104,95629,1,2
344,152,95948,1,2
288,152,96160,5,2
216,200,96480,1,2
144,152,96799,1,2
88,152,97012,6,0,L|152:56|224:56,1,165,4|0
256,56,97863,1,2
312,56,98075,1,0
368,56,98288,1,0
424,56,98501,1,2
480,56,98714,6,0,L|512:56,3,27.5,6|0|0|0
448,96,99139,6,0,L|416:96,3,27.5,0|0|0|0
480,136,99565,6,0,L|512:136,3,27.5,0|0|0|0
448,176,99990,6,2,L|384:176,1,55,2|6
264,176,101053,5,0
224,136,101266,1,2
184,176,101478,1,2
144,216,101691,1,0
184,256,101904,1,2
224,216,102117,6,0,L|256:216,3,27.5,4|0|0|0
192,176,102542,6,0,L|160:176,3,27.5,0|0|0|0
224,136,102968,6,0,L|256:136,3,27.5,0|0|0|0
192,96,103393,6,2,L|160:96,2,27.5,2|2|2
352,96,104456,5,0
384,144,104669,1,2
352,192,104881,1,2
320,240,105094,1,0
352,280,105307,1,2
384,240,105520,6,0,L|344:240,3,27.5,4|0|0|0
336,256,105945,6,0,L|308:256,3,27.5,0|0|0|0
288,240,106371,6,0,L|240:240,3,27.5
248,256,106796,6,2,L|180:256,1,55
104,256,107647,1,0
176,200,108073,1,2
104,144,108498,1,2
176,88,108924,2,2,L|240:88|272:128,1,110
288,160,109562,1,0
240,160,109775,2,2,L|176:160|144:200,1,110
120,232,110413,1,0
184,232,110625,5,6
256,192,110731,12,6,115731
256,192,116157,5,2
256,192,116263,1,2
256,192,116369,1,2
256,192,116476,1,2
256,192,116582,1,2
