osu file format v13

[General]
AudioFilename: May be happy.mp3
AudioLeadIn: 0
PreviewTime: 32035
Countdown: 0
SampleSet: Soft
StackLeniency: 0.5
Mode: 0
LetterboxInBreaks: 0
WidescreenStoryboard: 0

[Editor]
DistanceSpacing: 1.4
BeatDivisor: 4
GridSize: 8
TimelineZoom: 2.1

[Metadata]
Title:May be happy
TitleUnicode:May be happy
Artist:ESTi
ArtistUnicode:ESTi
Creator:Artavia
Version:Insane
Source:Latale
Tags:forever game ost korea season 1 main theme
BeatmapID:590321
BeatmapSetID:151048

[Difficulty]
HPDrainRate:6
CircleSize:4.2
OverallDifficulty:7.8
ApproachRate:9
SliderMultiplier:1.96
SliderTickRate:1

[Events]
//Background and Video events
0,0,"BG.jpg",0,0
//Break Periods
//Storyboard Layer 0 (Background)
//Storyboard Layer 1 (Fail)
//Storyboard Layer 2 (Pass)
//Storyboard Layer 3 (Foreground)
//Storyboard Sound Samples

[TimingPoints]
629,468.75,4,2,0,40,1,0
629,-166.666666666667,4,2,0,40,0,0
10004,-100,4,2,0,30,0,0
13754,-100,4,2,0,30,0,0
16334,-100,4,2,0,30,0,0
17504,-100,4,2,0,60,0,1
23131,-100,4,2,0,60,0,1
23834,-100,4,2,0,60,0,1
31566,-100,4,2,0,60,0,1
32504,-100,4,2,0,40,0,0
32738,-133.333333333333,4,2,0,40,0,0
35318,-100,4,2,0,40,0,0
40004,-111.111111111111,4,2,0,40,0,0
62504,-100,4,2,0,40,0,1
76800,-100,4,2,0,20,0,0

[Colours]
Combo1 : 162,162,255
Combo2 : 238,238,238
Combo3 : 248,253,181
Combo4 : 172,255,172
Combo5 : 91,202,255

[HitObjects]
128,200,629,6,0,P|120:240|120:280,2,58.7999982055665,2|0|2,0:0|0:0|0:0,0:0:0:0:
167,93,1332,1,0,0:0:0:0:
329,288,1800,1,2,0:0:0:0:
329,288,1918,1,0,0:0:0:0:
329,288,2035,1,0,0:0:0:0:
380,188,2269,1,2,0:0:0:0:
465,142,2504,6,0,P|343:98|282:183,1,235.199992822266,2|2,0:0|0:0,0:0:0:0:
210,82,3910,1,0,0:0:0:0:
372,188,4144,1,2,0:0:0:0:
372,188,4262,1,0,0:0:0:0:
372,188,4379,6,0,P|262:221|201:136,1,235.199992822266,2|2,0:0|0:0,0:0:0:0:
320,39,5785,1,0,0:0:0:0:
327,269,6019,1,2,0:0:0:0:
327,269,6137,1,0,0:0:0:0:
327,269,6254,6,0,P|436:232|437:128,1,235.199992822266,2|2,0:0|0:0,0:0:0:0:
472,332,7660,1,2,0:0:0:0:
472,332,7894,1,0,0:0:0:0:
472,332,8129,6,0,B|490:290|461:226|461:226|390:240|365:168,1,235.199992822266,2|2,0:0|0:0,0:0:0:0:
465,62,9300,1,0,0:0:0:0:
465,62,9418,1,0,0:0:0:0:
465,62,9535,1,2,0:0:0:0:
143,210,9769,1,2,0:0:0:0:
260,36,10004,6,0,P|255:108|349:177,1,196,0|2,0:0|0:0,0:0:0:0:
248,320,10707,1,0,0:0:0:0:
248,320,10941,2,0,P|205:210|132:217,1,196,2|0,0:0|0:0,0:0:0:0:
87,90,11644,1,2,0:0:0:0:
87,90,11761,1,0,0:0:0:0:
87,90,11879,6,0,L|288:70,1,196,0|2,0:0|0:0,0:0:0:0:
325,252,12582,1,0,0:0:0:0:
325,252,12816,2,0,P|383:230|430:234,1,98,2|0,0:0|0:0,0:0:0:0:
187,132,13285,2,0,L|84:147|84:147,1,98,0|2,0:0|0:0,0:0:0:0:
441,55,13754,6,0,B|388:72|388:72|349:53|316:32|288:64|288:64|257:111|257:111|212:82|212:82|151:109|101:74,1,392,2|2,0:0|0:0,0:0:0:0:
113,309,14925,1,0,0:0:0:0:
113,309,15043,1,0,0:0:0:0:
113,309,15160,2,0,P|106:251|115:203,1,98,2|2,0:0|0:0,0:0:0:0:
254,106,15629,5,2,0:0:0:0:
273,107,15746,1,0,0:0:0:0:
291,100,15863,1,2,0:0:0:0:
307,90,15980,1,0,0:0:0:0:
321,76,16097,1,0,0:0:0:0:
337,64,16214,1,2,0:0:0:0:
354,55,16332,1,0,0:0:0:0:
394,186,16566,6,0,P|397:210|411:230,1,49,8|2,0:0|0:0,0:0:0:0:
325,125,16918,6,0,P|374:92|426:101,1,98,8|8,0:0|0:0,0:0:0:0:
474,149,17269,1,8,0:0:0:0:
354,279,17504,6,0,B|300:284|264:241|264:241|244:293|170:305,1,196,6|8,0:0|0:0,0:0:0:0:
84,161,18207,1,0,0:0:0:0:
84,161,18441,2,0,P|73:103|85:59,1,98,2|0,0:0|0:0,0:0:0:0:
49,239,18910,2,0,P|112:240|147:215,1,98,8|0,0:0|0:0,0:0:0:0:
303,155,19379,6,0,L|416:143,1,98,2|0,0:0|0:0,0:0:0:0:
234,202,19847,2,0,L|126:218,1,98,8|0,0:0|0:0,0:0:0:0:
316,71,20316,1,2,0:0:0:0:
192,276,20550,1,0,0:0:0:0:
192,276,20668,1,0,0:0:0:0:
192,276,20785,2,0,B|149:262|149:262|123:267|123:267|89:259,1,98,8|0,0:0|0:0,0:0:0:0:
74,85,21254,6,0,P|62:133|67:188,1,98,6|0,0:0|0:0,0:0:0:0:
183,50,21722,2,0,P|226:63|284:50,1,98,8|0,0:0|0:0,0:0:0:0:
435,131,22191,2,0,P|375:130|331:161,1,98,2|0,0:0|0:0,0:0:0:0:
227,281,22660,1,8,0:0:0:0:
435,131,22894,5,0,0:0:0:0:
435,131,23011,1,0,0:0:0:0:
435,131,23129,1,2,0:0:0:0:
435,131,23246,1,0,0:0:0:0:
435,131,23363,2,0,B|450:147|450:147|270:117,1,196
107,72,24066,1,2,0:0:0:0:
107,72,24300,2,0,L|45:82,2,49,0|0|8,0:0|0:0|0:0,0:0:0:0:
280,40,24769,1,2,0:0:0:0:
452,79,25004,6,0,P|394:78|352:106,1,98,6|0,0:0|0:0,0:0:0:0:
188,58,25472,2,0,P|246:59|288:31,1,98,8|0,0:0|0:0,0:0:0:0:
138,146,25941,2,0,P|129:194|148:247,1,98,2|0,0:0|0:0,0:0:0:0:
311,293,26410,2,0,L|423:284,1,98,8|0,0:0|0:0,0:0:0:0:
235,248,26879,6,0,P|217:298|250:354,1,98,2|0,0:0|0:0,0:0:0:0:
308,179,27347,2,0,L|420:170,1,98,8|0,0:0|0:0,0:0:0:0:
280,46,27816,1,2,0:0:0:0:
280,46,28050,2,0,L|262:0,2,49,0|0|8,0:0|0:0|0:0,0:0:0:0:
404,171,28519,1,0,0:0:0:0:
404,171,28754,6,0,P|355:160|303:180,1,98,2|0,0:0|0:0,0:0:0:0:
164,273,29222,2,0,P|213:284|265:264,1,98,8|0,0:0|0:0,0:0:0:0:
348,117,29691,2,0,L|445:127,1,98,2|0,0:0|0:0,0:0:0:0:
276,178,30160,1,8,0:0:0:0:
276,178,30394,1,0,0:0:0:0:
122,96,30629,5,2,0:0:0:0:
386,237,30863,1,0,0:0:0:0:
167,342,31097,1,8,0:0:0:0:
446,49,31332,1,0,0:0:0:0:
256,192,31566,12,2,32504,0:0:0:0:
152,85,32738,6,0,L|97:90,1,36.7500014019013,2|0,0:0|0:0,0:0:0:0:
242,53,33089,1,2,0:0:0:0:
242,53,33324,1,2,0:0:0:0:
365,100,33675,1,2,0:0:0:0:
365,100,33793,1,0,0:0:0:0:
365,100,33910,2,0,P|413:107|452:97,1,73.5000028038026,0|2,0:0|0:0,0:0:0:0:
417,233,34379,5,0,0:0:0:0:
417,233,34613,2,0,L|365:244,1,36.7500014019013,2|0,0:0|0:0,0:0:0:0:
266,305,34964,1,2,0:0:0:0:
259,313,35199,1,2,0:0:0:0:
253,320,35550,2,0,P|195:333|150:325,1,98,2|0,0:0|0:0,0:0:0:0:
78,165,36019,2,0,L|70:227,1,49,2|0,0:0|0:0,0:0:0:0:
137,108,36254,6,0,B|186:98|186:98|242:110,1,98
405,74,36722,1,0,0:0:0:0:
405,74,36839,1,2,0:0:0:0:
264,224,37074,2,0,L|256:323,1,98,2|0,0:0|0:0,0:0:0:0:
255,343,37425,1,2,0:0:0:0:
390,368,37660,2,0,P|445:365|483:339,1,98,0|2,0:0|0:0,0:0:0:0:
484,204,38129,6,0,L|505:103,1,98,2|0,0:0|0:0,0:0:0:0:
439,271,38597,2,0,L|460:372,1,98,2|0,0:0|0:0,0:0:0:0:
313,266,39066,1,2,0:0:0:0:
304,248,39183,1,0,0:0:0:0:
295,230,39300,1,2,0:0:0:0:
287,211,39418,1,0,0:0:0:0:
279,192,39535,1,0,0:0:0:0:
402,66,39769,1,2,0:0:0:0:
278,165,40004,6,0,L|250:260,1,88.1999973083497,4|0,0:0|0:0,0:0:0:0:
275,325,40355,2,0,P|347:329|373:311,2,88.1999973083497,0|2|0,0:0|0:0|0:0,0:0:0:0:
77,191,41175,1,2,0:0:0:0:
77,191,41293,1,0,0:0:0:0:
77,191,41410,1,0,0:0:0:0:
147,292,41644,1,2,0:0:0:0:
266,325,41879,6,0,P|307:318|355:336,1,88.1999973083497,2|0,0:0|0:0,0:0:0:0:
405,277,42230,2,0,P|402:325|435:361,2,88.1999973083497,0|2|0,0:0|0:0|0:0,0:0:0:0:
478,50,43050,1,2,0:0:0:0:
478,50,43168,1,0,0:0:0:0:
478,50,43285,1,0,0:0:0:0:
489,172,43519,2,0,L|496:227,1,44.0999986541748,2|0,0:0|0:0,0:0:0:0:
488,172,43754,6,0,B|448:190|448:190|390:188,1,88.1999973083497
383,188,44105,1,0,0:0:0:0:
383,188,44339,1,0,0:0:0:0:
45,85,44574,2,0,B|85:67|85:67|143:69,1,88.1999973083497,2|0,0:0|0:0,0:0:0:0:
150,69,44925,1,2,0:0:0:0:
285,153,45160,2,0,L|197:166,1,88.1999973083497,0|2,0:0|0:0,0:0:0:0:
87,281,45629,6,0,L|142:291,1,44.0999986541748,6|0,0:0|0:0,0:0:0:0:
397,237,45863,2,0,L|342:247,1,44.0999986541748,2|0,0:0|0:0,0:0:0:0:
221,192,46097,2,0,L|207:136,1,44.0999986541748,2|0,0:0|0:0,0:0:0:0:
260,342,46332,2,0,L|274:398,1,44.0999986541748,2|0,0:0|0:0,0:0:0:0:
367,371,46566,2,0,L|424:363,1,44.0999986541748,8|0,0:0|0:0,0:0:0:0:
471,257,46918,2,0,P|493:214|493:161,1,88.1999973083497,8|8,0:0|0:0,0:0:0:0:
480,97,47269,1,2,0:0:0:0:
336,32,47504,6,0,P|296:64|248:64,1,88.1999973083497,4|0,0:0|0:0,0:0:0:0:
390,157,47972,1,0,0:0:0:0:
447,8,48207,1,0,0:0:0:0:
447,8,48324,1,0,0:0:0:0:
447,8,48441,1,2,0:0:0:0:
308,84,48675,1,0,0:0:0:0:
480,97,48910,2,0,P|483:160|476:199,1,88.1999973083497
370,301,49379,6,0,P|309:293|278:314,1,88.1999973083497,2|0,0:0|0:0,0:0:0:0:
235,335,49730,2,0,L|335:363,2,88.1999973083497,0|2|0,0:0|0:0|0:0,0:0:0:0:
177,278,50316,1,2,0:0:0:0:
177,278,50550,2,0,L|166:185,1,88.1999973083497
74,60,51019,1,0,0:0:0:0:
167,190,51254,6,0,P|120:172|69:207,1,88.1999973083497,2|0,0:0|0:0,0:0:0:0:
58,28,51722,1,0,0:0:0:0:
62,35,51957,1,0,0:0:0:0:
64,43,52191,2,0,B|117:52|117:52|164:45,1,88.1999973083497,2|0,0:0|0:0,0:0:0:0:
302,97,52660,2,0,P|336:119|365:173,1,88.1999973083497
225,76,53129,5,2,0:0:0:0:
225,76,53363,2,0,L|165:83,1,44.0999986541748,0|0,0:0|0:0,0:0:0:0:
335,44,53714,1,2,0:0:0:0:
335,44,53832,2,0,P|383:68|435:64,2,88.1999973083497,0|2|0,0:0|0:0|0:0,0:0:0:0:
178,16,54535,2,0,L|86:23,1,88.1999973083497
56,222,55004,5,4,0:0:0:0:
56,222,55238,2,0,L|53:268,2,44.0999986541748,0|0|8,0:0|0:0|0:0,0:0:0:0:
136,84,55707,1,0,0:0:0:0:
136,84,55941,2,0,P|193:93|234:85,1,88.1999973083497,2|0,0:0|0:0,0:0:0:0:
353,179,56410,2,0,L|384:270,1,88.1999973083497,8|0,0:0|0:0,0:0:0:0:
442,115,56879,6,0,P|460:60|453:21,1,88.1999973083497,2|0,0:0|0:0,0:0:0:0:
297,34,57347,1,8,0:0:0:0:
354,180,57582,1,0,0:0:0:0:
201,224,57816,1,2,0:0:0:0:
297,34,58050,1,0,0:0:0:0:
435,112,58285,1,8,0:0:0:0:
166,96,58519,1,0,0:0:0:0:
361,235,58754,6,0,P|371:280|349:331,1,88.1999973083497,2|0,0:0|0:0,0:0:0:0:
409,379,59105,2,0,P|346:374|315:388,1,88.1999973083497
221,260,59574,2,0,P|181:285|92:279,1,132.299995962525,2|0,0:0|0:0,0:0:0:0:
45,131,60160,1,8,0:0:0:0:
45,131,60394,1,0,0:0:0:0:
45,131,60629,6,0,B|77:110|77:110|82:126|82:126|87:110|87:110|91:126|91:126|96:110|96:110|99:126|99:126|105:110|105:110|108:126|108:126|165:112|201:153|201:153|240:115|290:139,1,352.799989233399,6|2,0:0|0:0,0:0:0:0:
421,51,61800,1,0,0:0:0:0:
421,51,62035,1,8,0:0:0:0:
288,138,62269,1,2,0:0:0:0:
288,138,62386,1,0,0:0:0:0:
288,138,62504,6,0,P|300:195|274:243,1,98,4|0,0:0|0:0,0:0:0:0:
205,269,62855,2,0,L|110:290,1,98,2|0,0:0|0:0,0:0:0:0:
32,244,63207,1,0,0:0:0:0:
90,77,63441,1,2,0:0:0:0:
379,60,63675,1,0,0:0:0:0:
149,204,63910,1,8,0:0:0:0:
382,71,64144,1,0,0:0:0:0:
448,234,64379,6,0,P|462:288|444:332,1,98,0|0,0:0|0:0,0:0:0:0:
360,333,64730,2,0,B|308:324|308:324|252:344,1,98,2|0,0:0|0:0,0:0:0:0:
195,284,65082,1,0,0:0:0:0:
382,71,65316,1,2,0:0:0:0:
132,133,65550,1,0,0:0:0:0:
376,59,65785,1,8,0:0:0:0:
106,235,66019,1,0,0:0:0:0:
106,235,66136,1,0,0:0:0:0:
106,235,66254,6,0,L|98:293,2,49,2|0|0,0:0|0:0|0:0,0:0:0:0:
230,178,66722,2,0,L|296:169,1,49,8|0,0:0|0:0,0:0:0:0:
389,90,67074,2,0,P|431:54|439:128,1,147,2|0,0:0|0:0,0:0:0:0:
318,140,67660,2,0,L|262:151,2,49,8|0|2,0:0|0:0|0:0,0:0:0:0:
433,214,68129,6,0,L|419:323,1,98,4|0,0:0|0:0,0:0:0:0:
286,337,68597,2,0,L|177:343,1,98,8|0,0:0|0:0,0:0:0:0:
90,245,69066,1,2,0:0:0:0:
295,179,69300,1,0,0:0:0:0:
295,179,69418,1,0,0:0:0:0:
295,179,69535,1,8,0:0:0:0:
90,245,69769,1,0,0:0:0:0:
90,245,70004,6,0,P|136:224|190:232,1,98,6|0,0:0|0:0,0:0:0:0:
220,149,70355,2,0,B|247:115|247:115|271:122|296:90,1,98,0|0,0:0|0:0,0:0:0:0:
293,93,70707,1,0,0:0:0:0:
465,57,70941,2,0,P|472:111|465:156,1,98,2|0,0:0|0:0,0:0:0:0:
361,10,71410,1,8,0:0:0:0:
348,182,71644,1,0,0:0:0:0:
348,182,71879,6,0,P|305:209|247:208,1,98,2|0,0:0|0:0,0:0:0:0:
222,291,72230,2,0,B|211:271|211:271|188:286|188:286|180:261|180:261|150:263,1,98
100,195,72582,2,0,L|93:96,1,98,0|2,0:0|0:0,0:0:0:0:
257,33,73050,1,0,0:0:0:0:
68,142,73285,1,8,0:0:0:0:
282,24,73519,1,0,0:0:0:0:
282,24,73636,1,0,0:0:0:0:
282,24,73754,6,0,L|395:16,1,98,2|0,0:0|0:0,0:0:0:0:
465,154,74222,2,0,L|460:221,1,49,8|0,0:0|0:0,0:0:0:0:
495,284,74574,2,0,P|451:257|365:290,1,147,2|0,0:0|0:0,0:0:0:0:
193,322,75160,2,0,L|130:317,2,49,8|0|0,0:0|0:0|0:0,0:0:0:0:
328,208,75629,6,0,P|387:210|425:185,1,98,6|0,0:0|0:0,0:0:0:0:
250,141,76097,2,0,P|191:139|153:164,1,98,8|0,0:0|0:0,0:0:0:0:
421,66,76566,1,2,0:0:0:0:
288,27,76800,1,0,0:0:0:0:
422,67,77035,1,8,0:0:0:0:
288,27,77269,1,0,0:0:0:0:
161,80,77504,6,0,L|125:116,2,49,2|0|0,0:0|0:0|0:0,0:0:0:0:
288,27,77972,1,2,0:0:0:0:
409,91,78207,1,0,0:0:0:0:
359,218,78441,1,2,0:0:0:0:
