osu file format v9

[General]
AudioFilename: ESTi - Long Vacation.mp3
AudioLeadIn: 0
PreviewTime: 23929
Countdown: 0
SampleSet: Soft
StackLeniency: 0.7
Mode: 0
LetterboxInBreaks: 0

[Editor]
Bookmarks: 10668,24799,52625,80451,94364,108277,122190
DistanceSpacing: 1
BeatDivisor: 4
GridSize: 8

[Metadata]
Title:Long Vacation
Artist:ESTi
Creator:0OoMickeyoO0
Version:Normal
Source:DJMAX
Tags:Trilogy TARi

[Difficulty]
HPDrainRate:3
CircleSize:3
OverallDifficulty:3
ApproachRate:4
SliderMultiplier:0.96
SliderTickRate:1

[Events]
//Background and Video events
0,0,"BG-N.jpg"
Video,-1000,"ESTi - Long Vacation MV.avi"
//Break Periods
//Storyboard Layer 0 (Background)
//Storyboard Layer 1 (Fail)
//Storyboard Layer 2 (Pass)
//Storyboard Layer 3 (Foreground)
//Storyboard Sound Samples
//Background Colour Transformations
3,100,163,162,255

[TimingPoints]
10668,434.782608695652,4,2,2,60,1,0
23820,-100,4,1,0,20,0,0
24798,434.782608695652,4,2,1,70,1,0
59471,-100,4,2,0,60,0,0
62297,-100,4,2,0,50,0,0
62950,-100,4,2,0,70,0,0
65558,-100,4,2,1,70,0,0
66971,-100,4,2,1,80,0,1
78711,-100,4,2,1,80,0,0
80884,-100,4,2,1,80,0,1
94363,-100,4,2,1,70,0,0
94471,-100,4,2,2,60,0,0
106537,-100,4,2,1,70,0,0
108276,-100,4,2,1,80,0,1
122189,-100,4,2,1,80,0,0

[Colours]
Combo1 : 255,255,128
Combo2 : 128,255,255
Combo3 : 128,255,0
Combo4 : 255,128,128

[HitObjects]
92,40,10667,6,0,B|172:100,1,96,6|10
168,192,11537,1,2
256,240,11972,1,8
344,192,12407,5,2
324,100,12841,2,0,B|256:56|188:100,2,144,10|2|2
344,192,14581,5,10
408,264,15015,1,0
504,288,15450,1,10
472,200,15885,2,0,B|408:128|408:128|408:16,1,192,2|0
312,56,17189,5,8
216,32,17624,2,0,B|216:128|216:128|180:168,1,144,2|10
120,88,18711,2,0,B|84:128|84:128|84:232,2,144,2|2|10
176,168,20450,6,0,B|176:232|176:232|192:272|192:312,1,144,2|2
336,336,21754,2,0,B|440:336,2,96,10|2|8
336,240,23059,2,0,B|456:240|456:240|504:256|520:296,2,192,0|0|4
336,336,25232,5,8
336,144,26102,1,8
240,128,26537,2,0,B|192:152|176:208,1,96,0|8
216,288,27406,2,0,B|264:264|280:208,2,96,0|8|0
128,256,28711,5,8
312,312,29580,1,8
400,272,30015,2,0,B|424:232|424:232|432:176,1,96,0|8
376,104,30884,2,0,B|352:144|352:144|344:200,2,96,0|8|4
472,104,32189,5,8
280,104,33058,1,8
280,200,33493,2,0,B|216:280,1,96,0|8
136,232,34363,2,0,B|200:152,1,96,0|8
280,104,35232,5,0
192,56,35667,1,8
104,104,36102,1,0
192,152,36537,1,8
168,248,36971,2,0,B|208:288|256:264|256:264|304:288|344:248,1,192,0|8
320,152,38276,5,8
320,152,38711,2,0,B|296:96|328:40,1,96,4|8
400,104,39580,1,0
400,200,40015,2,4,B|384:248,1,48,8|2
312,312,40667,2,0,B|296:360,2,48,2|8|2
168,312,41754,1,8
240,248,42189,6,0,B|240:144,1,96,0|8
288,64,43058,1,0
336,152,43493,2,0,B|336:248,2,96,8|0|8
288,64,44797,2,0,B|232:40|176:72,2,96,0|8|0
368,120,46102,5,8
368,312,46971,1,8
304,240,47406,1,0
208,240,47841,1,8
144,312,48276,2,0,B|88:336|32:304,1,96,0|8
96,224,49145,5,0
40,144,49580,2,0,B|80:96|48:56|48:56|88:88|136:48,1,192,8|8
136,144,50884,1,0
216,88,51319,1,8
224,184,51754,2,0,B|248:232|304:232,2,96,0|8|4
136,144,53058,6,0,B|112:208|160:256|160:256|136:328,1,192,8|8
224,368,54363,1,0
304,320,54797,1,8
384,272,55232,2,0,B|480:272,2,96,0|8|0
304,320,56537,6,0,B|280:264|312:208,1,96,8|0
232,160,57406,2,0,B|256:104|224:48,1,96,8|0
144,112,58276,2,0,B|40:112,2,96,8|0|8
144,112,59580,6,0,B|176:152|232:160|232:160|280:160,1,144,4|4
276,256,60667,2,0,B|236:256|236:256|196:256|164:280,2,96,2|4|0
368,248,61971,1,0
368,248,62189,2,0,B|424:224|432:160,1,96
336,160,63058,6,0,B|288:128|272:72,1,96,4|8
184,64,63928,2,0,B|152:112|96:128,1,96,0|8
88,216,64797,2,0,B|136:248|152:304,1,96,0|8
240,320,65667,2,0,B|296:240|424:240,1,192,0|0
448,144,66971,6,0,B|400:144|344:120,1,96,12|0
256,120,67841,1,8
304,40,68276,2,0,B|352:24|400:40,2,96,0|8|0
256,120,69580,1,8
344,160,70015,6,0,B|344:252|344:252|368:304|336:352,1,192
256,296,71319,1,8
172,348,71754,2,0,B|148:300|168:252|168:252|168:160,1,192
256,112,73058,2,0,B|264:144|264:144|248:172|248:172|256:200,1,96,8|0
256,296,73928,5,8
256,296,74363,1,0
344,256,74798,2,0,B|400:280|456:248,1,96,8|0
392,168,75667,2,0,B|336:144|280:176,2,96,8|0|8
476,120,76971,6,0,B|440:80|392:76,1,96,0|8
296,76,77841,2,0,B|248:80|212:120,1,96,0|8
296,176,78711,1,0
392,184,79145,1,8
432,272,79580,1,0
336,264,80015,2,0,B|256:284|216:224|216:224|152:224,1,192,8|12
160,128,81319,6,0,B|256:128,1,96,0|8
336,72,82189,1,0
416,128,82624,2,0,B|512:128,2,96,8|0|8
336,184,83928,6,0,B|300:244|212:244|176:184,1,192,0|0
256,128,85232,1,8
256,128,85667,2,0,B|256:32,2,96,0|8|0
304,208,86971,1,8
208,208,87406,1,0
164,292,87841,6,0,B|168:356|224:380,1,96,8|0
304,372,88711,2,0,B|345:347|349:291,1,96,8|0
304,208,89580,1,8
208,208,90015,1,0
136,144,90450,1,8
224,112,90884,6,0,B|264:80|272:32,2,96,0|8|0
208,208,92189,1,8
296,176,92624,2,0,B|336:200,1,48,0|2
360,296,93276,2,0,B|401:320,2,48,2|0|2
264,312,94145,2,0,B|224:288,1,48,2|4
136,336,94798,5,2
136,240,95232,2,0,B|96:176|136:104,2,144,10|2|2
204,172,96971,2,0,B|244:236|204:308,2,144,10|2|2
136,240,98711,6,0,B|68:216|68:216|0:240,2,144,10|2|2
68,308,100450,2,0,B|136:336|136:336|204:308,1,144,10|2
344,272,101754,6,0,B|440:256,1,96,10|2
440,160,102624,2,0,B|392:152,1,48,8|2
296,136,103276,1,2
296,136,103493,2,0,B|200:120,1,96,10|2
192,216,104363,6,0,B|184:280,1,48,8|2
208,352,105015,1,2
208,352,105232,2,0,B|256:364|256:364|312:352,1,96,10|2
328,264,106102,2,0,B|322:216,1,48,8|2
256,192,106537,12,4,108276
408,72,109145,6,0,B|408:176,1,96,2|8
360,256,110015,2,0,B|416:280|472:248,2,96,0|8|2
312,168,111319,1,8
256,88,111754,6,0,B|200:64|144:96,1,96,0|8
88,144,112624,1,2
88,240,113058,1,8
168,296,113493,2,0,B|208:320,1,48,0|2
296,280,114145,2,0,B|337:304,2,48,2|0|2
288,184,115015,2,0,B|246:159,1,48,2|4
160,128,115667,6,0,B|152:96|152:96|136:72|136:72|128:36,2,96,8|2|8
120,216,116971,1,0
152,304,117406,1,8
240,344,117841,2,0,B|288:368|344:352,2,96,2|8|0
296,264,119145,6,0,B|304:168,1,96,8|2
312,72,120015,1,8
224,104,120450,2,0,B|168:112,2,48,0|2|8
200,200,121319,2,0,B|144:208,2,48,8|8|8
176,296,122189,1,4
