osu file format v12

[General]
AudioFilename: ESTi - HELIX.mp3
AudioLeadIn: 0
PreviewTime: 27930
Countdown: 0
SampleSet: Soft
StackLeniency: 0.5
Mode: 0
LetterboxInBreaks: 1

[Editor]
Bookmarks: 35473,82444,101301
DistanceSpacing: 1
BeatDivisor: 4
GridSize: 4

[Metadata]
Title:HELIX
TitleUnicode:HELIX
Artist:ESTi
ArtistUnicode:ESTi
Creator:TaMul
Version:Insane
Source:O2jam U
Tags:Sin
BeatmapID:249676
BeatmapSetID:83918

[Difficulty]
HPDrainRate:7
CircleSize:4
OverallDifficulty:8
ApproachRate:9
SliderMultiplier:1.9
SliderTickRate:2

[Events]
//Background and Video events
0,0,"bg.png",0,0
//Break Periods
//Storyboard Layer 0 (Background)
//Storyboard Layer 1 (Fail)
//Storyboard Layer 2 (Pass)
//Storyboard Layer 3 (Foreground)
//Storyboard Sound Samples
//Background Colour Transformations
3,100,163,162,255

[TimingPoints]
3245,685.714285714286,4,2,0,30,1,0
8730,-100,4,1,1,40,0,0
9073,-100,4,2,0,40,0,0
10102,-100,4,2,0,45,0,0
14216,342.857142857143,4,2,1,55,1,0
32730,-166.666666666667,4,2,1,55,0,0
33330,-100,4,2,1,55,0,0
33416,-100,4,2,1,55,0,1
37701,-100,4,1,1,55,0,1
37873,-100,4,2,1,55,0,1
38558,-100,4,3,0,55,0,1
38901,-100,4,2,1,55,0,1
43701,-100,4,3,0,55,0,1
44216,-100,4,2,1,55,0,0
44387,-100,4,2,1,55,0,1
48844,-100,4,2,2,55,0,1
49016,-100,4,2,1,55,0,1
53987,-100,4,3,0,55,0,1
55016,-100,4,2,1,55,0,1
55358,-100,4,2,1,55,0,0
68044,-100,4,2,2,55,0,0
68216,-100,4,2,1,55,0,0
73530,-100,4,2,2,55,0,0
73701,-100,4,2,1,55,0,0
79016,-100,4,2,2,55,0,0
79187,-100,4,2,1,55,0,0
81758,-100,4,2,2,55,0,0
81930,-100,4,2,1,55,0,0
84501,-100,4,2,2,55,0,0
84673,-100,4,2,1,55,0,0
97873,-100,4,2,0,55,0,0
97958,-100,4,2,1,55,0,0
99244,-100,4,2,1,55,0,1
99330,-100,4,2,1,55,0,0
99587,-200,4,2,0,55,0,0
119816,-100,4,2,1,55,0,0
121187,-100,4,2,1,55,0,1
130444,-100,4,2,2,55,0,1
130616,-100,4,2,1,55,0,1
132158,-100,4,2,1,55,0,0
134901,-100,4,2,0,55,0,0
135930,-100,4,2,0,35,0,0
137644,-100,4,2,0,20,0,0
139016,-100,4,2,0,10,0,0

[Colours]
Combo1 : 192,192,192
Combo2 : 0,255,0
Combo3 : 0,255,128
Combo4 : 255,255,0
Combo5 : 255,128,128

[HitObjects]
36,136,3245,1,0,0:0:0:0:
124,104,3587,1,0,0:0:0:0:
208,144,3930,1,2,0:0:0:0:
244,232,4273,1,0,0:0:0:0:
196,316,4616,2,0,P|136:320|106:337,1,95
292,316,5302,2,0,P|336:336|392:336,1,95,2|0,0:0|0:0,0:0:0:0:
460,280,5987,5,0,0:0:0:0:
436,188,6330,1,0,0:0:0:0:
360,132,6673,1,2,0:0:0:0:
264,132,7016,1,0,0:0:0:0:
192,192,7359,2,0,P|140:208|100:203,2,95,0|0|2,0:0|0:0|0:0,0:0:0:0:
256,260,8387,5,0,0:0:0:0:
304,264,8559,1,0,0:0:0:0:
344,292,8730,2,0,P|400:328|440:332,1,95,4|0,0:0|0:0,0:0:0:0:
488,260,9416,2,0,P|432:224|392:220,1,95,2|0,0:0|0:0,0:0:0:0:
332,160,10102,1,0,0:0:0:0:
256,104,10445,2,0,P|208:104|160:84,2,95,0|2|0,0:0|0:0|0:0,0:0:0:0:
256,192,11473,12,0,13530,0:0:0:0:
256,304,14216,5,2,0:0:0:0:
164,324,14387,1,0,0:0:0:0:
84,272,14558,1,8,0:0:0:0:
92,176,14730,1,2,0:0:0:0:
172,124,14901,2,0,P|232:108|260:80,1,95,0|2,0:0|0:0,0:0:0:0:
92,176,15244,2,0,P|80:108|100:72,1,95,8|2,0:0|0:0,0:0:0:0:
168,32,15587,21,2,0:0:0:0:
256,172,15758,1,0,0:0:0:0:
92,176,15930,1,8,0:0:0:0:
168,32,16101,1,2,0:0:0:0:
256,172,16273,2,0,P|312:184|356:168,1,95,0|2,0:0|0:0,0:0:0:0:
392,88,16616,2,0,P|448:76|492:88,1,95,8|0,0:0|0:0,0:0:0:0:
332,13,16958,6,0,P|296:92|347:173,1,190,2|8,0:0|0:0,0:0:0:0:
424,228,17473,5,2,0:0:0:0:
384,316,17644,1,0,0:0:0:0:
384,316,17816,1,2,0:0:0:0:
292,292,17987,1,8,0:0:0:0:
272,200,18158,1,0,0:0:0:0:
240,204,18244,1,0,0:0:0:0:
208,200,18330,6,0,P|152:180|104:184,1,95,2|0,0:0|0:0,0:0:0:0:
52,252,18673,2,0,P|108:272|156:268,1,95,8|2,0:0|0:0,0:0:0:0:
184,100,19016,2,0,P|128:80|93:81,1,95,0|2,0:0|0:0,0:0:0:0:
256,40,19358,1,8,0:0:0:0:
344,76,19530,1,0,0:0:0:0:
376,72,19616,1,0,0:0:0:0:
404,52,19701,22,0,P|448:28|512:32,1,95,2|0,0:0|0:0,0:0:0:0:
404,192,20044,2,0,P|360:216|315:217,1,95,8|2,0:0|0:0,0:0:0:0:
476,128,20387,1,0,0:0:0:0:
264,132,20558,1,2,0:0:0:0:
404,192,20730,1,8,0:0:0:0:
344,76,20901,1,0,0:0:0:0:
176,96,21073,6,0,P|116:96|80:120,1,95,2|0,0:0|0:0,0:0:0:0:
88,208,21416,1,8,0:0:0:0:
24,280,21587,1,2,0:0:0:0:
24,280,21758,1,0,0:0:0:0:
172,340,21930,1,2,0:0:0:0:
88,208,22101,1,8,0:0:0:0:
72,364,22273,1,2,0:0:0:0:
176,244,22444,6,0,P|200:200|256:176,1,95,2|0,0:0|0:0,0:0:0:0:
272,268,22787,2,0,P|324:256|376:276,1,95,8|2,0:0|0:0,0:0:0:0:
412,352,23130,2,0,P|360:364|308:344,1,95,0|2,0:0|0:0,0:0:0:0:
362,267,23473,1,8,0:0:0:0:
316,184,23644,1,0,0:0:0:0:
220,188,23816,5,2,0:0:0:0:
164,264,23987,1,0,0:0:0:0:
132,256,24073,1,0,0:0:0:0:
100,256,24158,2,0,P|48:272|16:316,1,95,8|2,0:0|0:0,0:0:0:0:
120,164,24501,2,0,P|60:140|16:148,1,95,0|2,0:0|0:0,0:0:0:0:
192,92,24844,2,0,P|160:40|120:24,1,95,8|2,0:0|0:0,0:0:0:0:
296,108,25187,21,2,0:0:0:0:
332,196,25358,1,0,0:0:0:0:
424,220,25530,2,0,P|480:212|516:176,1,95,8|2,0:0|0:0,0:0:0:0:
440,120,25873,2,0,P|448:64|476:24,1,95,0|2,0:0|0:0,0:0:0:0:
424,220,26216,2,0,P|416:280|392:316,1,95,8|2,0:0|0:0,0:0:0:0:
304,324,26558,5,2,0:0:0:0:
136,292,26730,1,0,0:0:0:0:
228,268,26901,1,8,0:0:0:0:
60,232,27073,1,2,0:0:0:0:
72,140,27244,2,0,P|104:92|104:48,1,95,0|2,0:0|0:0,0:0:0:0:
196,32,27587,1,8,0:0:0:0:
288,60,27758,5,0,0:0:0:0:
320,56,27844,1,0,0:0:0:0:
352,68,27930,1,2,0:0:0:0:
388,156,28101,1,2,0:0:0:0:
448,84,28273,1,0,0:0:0:0:
288,144,28444,1,2,0:0:0:0:
424,248,28616,1,0,0:0:0:0:
424,248,28787,6,0,L|272:368,1,190,2|2,0:0|0:0,0:0:0:0:
88,136,29301,2,0,L|240:16,1,190,2|0,0:0|0:0,0:0:0:0:
320,68,29816,1,2,0:0:0:0:
412,44,29987,1,0,0:0:0:0:
384,136,30158,1,2,0:0:0:0:
504,24,30330,1,2,0:0:0:0:
456,200,30501,1,0,0:0:0:0:
364,228,30673,21,0,0:0:0:0:
276,192,30844,2,0,P|264:248|288:292,2,95,2|0|2,0:0|0:0|0:0,0:0:0:0:
232,108,31358,1,2,0:0:0:0:
204,92,31444,1,0,0:0:0:0:
172,92,31530,1,0,0:0:0:0:
144,108,31616,1,0,0:0:0:0:
132,140,31701,1,0,0:0:0:0:
140,172,31787,1,0,0:0:0:0:
164,192,31873,1,0,0:0:0:0:
184,216,31958,1,0,0:0:0:0:
188,248,32044,1,2,0:0:0:0:
168,292,32216,5,2,0:0:0:0:
124,312,32558,5,2,0:0:0:0:
124,312,32730,22,0,P|156:344|288:344,1,170.999994781494,0|0,0:0|0:0,0:0:0:0:
304,336,33330,53,0,0:0:0:0:
320,308,33416,2,0,P|340:244|448:200,1,190,6|8,0:0|0:0,0:0:0:0:
192,76,33930,2,0,P|172:140|64:184,1,190,2|2,0:0|0:0,0:0:0:0:
68,88,34444,2,0,P|132:72|260:104,1,190,8|2,0:0|0:0,0:0:0:0:
340,68,34958,21,0,0:0:0:0:
340,68,35130,1,8,0:0:0:0:
400,140,35301,1,2,0:0:0:0:
400,140,35473,2,0,P|392:192|416:240,1,95,0|2,0:0|0:0,0:0:0:0:
112,244,35816,2,0,P|120:192|104:153,1,95,8|0,0:0|0:0,0:0:0:0:
64,320,36158,6,0,P|112:336|200:232,1,190,4|8,0:0|0:0,0:0:0:0:
448,320,36673,2,0,P|400:336|312:232,1,190,2|2,0:0|0:0,0:0:0:0:
256,32,37187,2,0,B|256:112|256:112|248:120|248:120|264:120|264:120|256:128|256:128|256:224,1,190,8|2,0:0|0:0,0:0:0:0:
404,240,37701,6,0,P|396:168|472:76,1,190,4|0,0:0|0:0,0:0:0:0:
380,124,38216,2,0,P|320:88|276:88,1,95,0|0,0:0|0:0,0:0:0:0:
208,116,38558,2,0,P|184:113|124:77,1,95,2|0,0:0|0:0,0:0:0:0:
108,48,38816,1,0,0:0:0:0:
80,32,38901,6,0,P|76:104|24:216,1,190,6|8,0:0|0:0,0:0:0:0:
432,352,39416,2,0,P|436:280|488:168,1,190,2|2,0:0|0:0,0:0:0:0:
256,352,39930,2,0,L|256:152,1,190,8|2,0:0|0:0,0:0:0:0:
164,192,40444,21,0,0:0:0:0:
104,120,40616,1,8,0:0:0:0:
152,40,40787,1,2,0:0:0:0:
244,64,40958,1,0,0:0:0:0:
164,192,41130,1,2,0:0:0:0:
152,40,41301,1,8,0:0:0:0:
256,162,41473,1,0,0:0:0:0:
104,120,41644,6,0,P|72:176|128:284,1,190,6|8,0:0|0:0,0:0:0:0:
184,352,42158,2,0,P|228:304|352:312,1,190,2|2,0:0|0:0,0:0:0:0:
404,232,42673,2,0,P|452:224|488:192,1,95,8|0,0:0|0:0,0:0:0:0:
464,104,43016,5,0,0:0:0:0:
380,60,43187,1,0,0:0:0:0:
348,68,43273,1,0,0:0:0:0:
316,64,43358,1,2,0:0:0:0:
228,104,43530,1,0,0:0:0:0:
176,24,43701,1,2,0:0:0:0:
168,176,43873,1,4,0:0:0:0:
68,96,44044,1,8,0:0:0:0:
168,272,44216,1,2,0:0:0:0:
84,228,44387,6,0,P|160:268|272:260,1,190,6|8,0:0|0:0,0:0:0:0:
446,303,44901,2,0,P|384:208|316:184,1,190,2|2,0:0|0:0,0:0:0:0:
331,26,45416,2,0,P|244:108|220:172,1,190,8|2,0:0|0:0,0:0:0:0:
136,216,45930,1,0,0:0:0:0:
48,180,46101,1,8,0:0:0:0:
60,84,46273,1,2,0:0:0:0:
219,172,46444,1,0,0:0:0:0:
144,32,46616,1,2,0:0:0:0:
136,216,46787,2,0,P|136:128|232:80,1,190,8|6,0:0|0:0,0:0:0:0:
300,36,47301,22,0,P|340:68|384:72,1,95,0|8,0:0|0:0,0:0:0:0:
452,140,47644,1,2,0:0:0:0:
388,212,47816,2,0,P|384:264|400:308,1,95,0|2,0:0|0:0,0:0:0:0:
452,140,48158,2,0,P|384:112|300:184,1,190,8|2,0:0|0:0,0:0:0:0:
304,276,48673,6,0,P|308:196|224:136,1,190,0|2,0:0|0:0,0:0:0:0:
136,156,49187,1,0,0:0:0:0:
60,100,49358,1,2,0:0:0:0:
116,248,49530,1,8,0:0:0:0:
225,136,49701,1,0,0:0:0:0:
60,100,49873,6,0,P|144:80|229:142,1,190,6|8,0:0|0:0,0:0:0:0:
452,284,50387,2,0,P|368:304|296:236,1,190,2|2,0:0|0:0,0:0:0:0:
60,284,50901,2,0,P|144:304|216:236,1,190,8|2,0:0|0:0,0:0:0:0:
156,164,51416,1,0,0:0:0:0:
188,76,51587,1,8,0:0:0:0:
256,144,51758,1,2,0:0:0:0:
324,76,51930,1,0,0:0:0:0:
356,164,52101,2,0,P|416:172|456:152,2,95,2|8|0,0:0|0:0|0:0,0:0:0:0:
324,76,52616,6,0,P|264:124|284:232,1,190,6|8,0:0|0:0,0:0:0:0:
368,264,53130,1,2,0:0:0:0:
462,276,53301,2,0,P|456:312|412:348,1,95,0|2,0:0|0:0,0:0:0:0:
320,352,53644,2,0,P|244:328|228:332,1,95,8|0,0:0|0:0,0:0:0:0:
188,248,53987,1,8,0:0:0:0:
96,276,54158,1,4,0:0:0:0:
24,212,54330,1,4,0:0:0:0:
48,120,54501,1,0,0:0:0:0:
140,100,54673,21,2,0:0:0:0:
172,112,54758,1,0,0:0:0:0:
204,108,54844,1,0,0:0:0:0:
284,60,55016,1,0,0:0:0:0:
300,88,55101,1,0,0:0:0:0:
300,120,55187,1,0,0:0:0:0:
288,152,55273,1,0,0:0:0:0:
268,176,55358,6,0,P|248:224|260:272,1,95,6|0,0:0|0:0,0:0:0:0:
328,328,55701,2,0,P|348:276|336:224,1,95,8|2,0:0|0:0,0:0:0:0:
169,238,56044,2,0,P|164:276|184:328,1,95,0|2,0:0|0:0,0:0:0:0:
92,344,56387,1,8,0:0:0:0:
92,344,56558,2,0,P|48:280|72:176,1,190
36,88,57073,1,8,0:0:0:0:
120,40,57244,2,0,P|144:88|268:100,1,190,2|2,0:0|0:0,0:0:0:0:
360,116,57758,2,0,P|348:48|312:24,1,95,8|2,0:0|0:0,0:0:0:0:
296,192,58101,1,6,0:0:0:0:
340,276,58273,1,0,0:0:0:0:
436,284,58444,1,8,0:0:0:0:
296,192,58616,6,0,P|252:232|280:356,1,190,2|2,0:0|0:0,0:0:0:0:
176,348,59130,1,8,0:0:0:0:
340,276,59301,1,2,0:0:0:0:
176,348,59473,2,0,P|124:328|72:336,1,95,0|0,0:0|0:0,0:0:0:0:
32,252,59816,1,8,0:0:0:0:
28,48,59987,2,0,P|108:128|112:200,1,190,2|2,0:0|0:0,0:0:0:0:
32,252,60501,2,0,P|16:196|32:152,1,95,8|2,0:0|0:0,0:0:0:0:
92,96,60844,5,0,0:0:0:0:
188,112,61016,1,0,0:0:0:0:
268,60,61187,1,8,0:0:0:0:
360,76,61358,2,0,P|372:164|456:212,1,190,2|2,0:0|0:0,0:0:0:0:
268,60,61873,2,0,P|284:140|384:172,1,190,8|0,0:0|0:0,0:0:0:0:
452,116,62387,21,0,0:0:0:0:
453,211,62558,1,8,0:0:0:0:
380,268,62730,1,2,0:0:0:0:
288,240,62901,2,0,P|224:248|192:276,1,95,0|2,0:0|0:0,0:0:0:0:
29,318,63244,2,0,P|56:328|120:316,1,95,8|2,0:0|0:0,0:0:0:0:
29,318,63587,6,0,P|52:256|168:236,1,190,4|8,0:0|0:0,0:0:0:0:
482,65,64101,2,0,P|460:128|344:148,1,190,2|2,0:0|0:0,0:0:0:0:
256,120,64616,2,0,P|280:76|336:56,1,95,8|0,0:0|0:0,0:0:0:0:
348,150,64958,2,0,P|296:216|200:204,1,190,2|0,0:0|0:0,0:0:0:0:
108,228,65473,2,0,P|108:172|152:124,2,95,2|0|2,0:0|0:0|0:0,0:0:0:0:
164,304,65987,2,0,P|108:320|73:312,1,95,8|2,0:0|0:0,0:0:0:0:
256,324,66330,6,0,P|320:292|432:324,1,190,6|8,0:0|0:0,0:0:0:0:
256,60,66844,2,0,P|192:92|80:60,1,190,2|2,0:0|0:0,0:0:0:0:
36,144,67358,1,8,0:0:0:0:
82,62,67701,1,0,0:0:0:0:
24,240,67873,2,0,P|80:236|168:344,1,190,0|2,0:0|0:0,0:0:0:0:
256,296,68387,2,0,L|308:376,1,95,0|2,0:0|0:0,0:0:0:0:
348,296,68730,2,0,L|400:376,1,95,8|2,0:0|0:0,0:0:0:0:
380,216,69073,6,0,P|376:136|468:64,1,190,6|8,0:0|0:0,0:0:0:0:
256,224,69587,2,0,L|256:28,1,190,2|2,0:0|0:0,0:0:0:0:
132,216,70101,2,0,P|136:136|44:64,1,190,8|0,0:0|0:0,0:0:0:0:
52,164,70616,2,0,P|32:216|40:252,2,95,0|8|2,0:0|0:0|0:0,0:0:0:0:
116,308,71130,2,0,P|72:344|35:345,1,95,0|2,0:0|0:0,0:0:0:0:
212,320,71473,2,0,P|272:312|296:290,1,95,8|0,0:0|0:0,0:0:0:0:
324,268,71730,1,0,0:0:0:0:
356,256,71816,22,0,P|368:208|496:168,1,190,4|8,0:0|0:0,0:0:0:0:
448,80,72330,1,2,0:0:0:0:
360,44,72501,1,0,0:0:0:0:
272,84,72673,1,2,0:0:0:0:
188,40,72844,2,0,P|156:88|28:96,1,190,8|0,0:0|0:0,0:0:0:0:
272,84,73358,2,0,P|192:144|112:100,1,190,2|0,0:0|0:0,0:0:0:0:
88,20,73873,5,0,0:0:0:0:
32,340,74216,1,8,0:0:0:0:
116,292,74387,5,0,0:0:0:0:
148,296,74473,1,0,0:0:0:0:
180,300,74558,2,0,L|368:328,1,190,4|8,0:0|0:0,0:0:0:0:
332,84,75073,2,0,L|144:56,1,190,2|2,0:0|0:0,0:0:0:0:
152,152,75587,2,0,L|256:168,1,95,8|0,0:0|0:0,0:0:0:0:
340,180,75930,1,2,0:0:0:0:
432,200,76101,5,0,0:0:0:0:
424,232,76187,1,0,0:0:0:0:
404,260,76273,1,8,0:0:0:0:
376,276,76358,1,0,0:0:0:0:
344,280,76444,1,2,0:0:0:0:
268,224,76616,2,0,P|244:272|188:296,1,95,0|2,0:0|0:0,0:0:0:0:
120,268,76958,1,8,0:0:0:0:
36,312,77130,1,0,0:0:0:0:
36,312,77216,1,0,0:0:0:0:
36,312,77301,22,0,P|8:256|32:216,1,95,4|0,0:0|0:0,0:0:0:0:
28,136,77644,1,8,0:0:0:0:
124,136,77816,1,2,0:0:0:0:
180,60,77987,2,0,P|228:28|280:32,1,95,0|2,0:0|0:0,0:0:0:0:
340,84,78330,2,0,P|372:124|424:132,1,95,8|0,0:0|0:0,0:0:0:0:
420,40,78673,1,2,0:0:0:0:
420,40,78844,2,0,P|416:120|464:216,1,190,0|2,0:0|0:0,0:0:0:0:
372,244,79358,2,0,L|400:336,1,95,0|2,0:0|0:0,0:0:0:0:
288,244,79701,2,0,L|316:336,1,95,8|0,0:0|0:0,0:0:0:0:
220,320,80044,6,0,P|176:276|40:296,1,190,6|8,0:0|0:0,0:0:0:0:
36,188,80558,2,0,P|88:184|152:296,1,190,2|2,0:0|0:0,0:0:0:0:
160,192,81073,2,0,P|208:176|240:144,1,95,8|0,0:0|0:0,0:0:0:0:
256,52,81416,1,2,0:0:0:0:
168,92,81587,2,0,P|244:148|336:104,1,190,0|2,0:0|0:0,0:0:0:0:
420,124,82101,2,0,P|408:64|417:32,1,95,0|2,0:0|0:0,0:0:0:0:
404,220,82444,2,0,P|416:280|404:316,1,95,8|2,0:0|0:0,0:0:0:0:
384,336,82701,1,0,0:0:0:0:
352,340,82787,5,4,0:0:0:0:
256,352,82958,1,0,0:0:0:0:
184,292,83130,2,0,P|120:284|72:304,1,95,8|2,0:0|0:0,0:0:0:0:
136,168,83473,2,0,P|76:184|50:203,1,95,0|2,0:0|0:0,0:0:0:0:
204,104,83816,2,0,P|260:112|312:96,1,95,8|2,0:0|0:0,0:0:0:0:
136,168,84158,1,0,0:0:0:0:
136,168,84330,2,0,P|104:116|180:12,1,190,0|2,0:0|0:0,0:0:0:0:
204,104,84844,2,0,P|232:152|224:192,1,95,0|2,0:0|0:0,0:0:0:0:
72,232,85187,2,0,P|44:184|50:147,1,95,8|2,0:0|0:0,0:0:0:0:
8,304,85530,6,0,P|72:228|180:276,1,190,6|8,0:0|0:0,0:0:0:0:
212,316,86044,1,2,0:0:0:0:
304,312,86216,1,0,0:0:0:0:
348,228,86387,1,2,0:0:0:0:
312,140,86558,1,8,0:0:0:0:
304,312,86730,1,2,0:0:0:0:
312,140,86901,22,0,L|388:56,1,95
212,140,87244,1,8,0:0:0:0:
212,140,87416,2,0,L|288:56,2,95,2|0|2,0:0|0:0|0:0,0:0:0:0:
124,100,87930,1,0,0:0:0:0:
128,132,88016,1,0,0:0:0:0:
120,164,88101,1,0,0:0:0:0:
96,188,88187,1,0,0:0:0:0:
64,196,88273,5,6,0:0:0:0:
32,284,88444,1,0,0:0:0:0:
128,268,88616,1,8,0:0:0:0:
64,196,88787,1,2,0:0:0:0:
92,360,88958,2,0,P|152:368|188:340,1,95,0|2,0:0|0:0,0:0:0:0:
256,292,89301,2,0,P|304:268|352:272,1,95,0|2,0:0|0:0,0:0:0:0:
348,364,89644,2,0,P|344:264|412:200,1,190,2|8,0:0|0:0,0:0:0:0:
384,112,90158,2,0,P|448:112|494:214,1,190,2|2,0:0|0:0,0:0:0:0:
312,48,90673,2,0,P|252:88|224:84,1,95,8|0,0:0|0:0,0:0:0:0:
152,36,91016,5,2,0:0:0:0:
64,68,91187,1,0,0:0:0:0:
44,160,91358,1,8,0:0:0:0:
108,232,91530,1,2,0:0:0:0:
204,228,91701,2,0,P|264:244|296:280,1,95,0|2,0:0|0:0,0:0:0:0:
108,232,92044,2,0,P|64:256|21:250,1,95,8|2,0:0|0:0,0:0:0:0:
148,144,92387,6,0,P|204:228|191:311,1,190,2|8,0:0|0:0,0:0:0:0:
192,60,92901,2,0,P|236:140|204:228,1,190,2|2,0:0|0:0,0:0:0:0:
148,144,93416,2,0,P|108:104|104:52,1,95,8|2,0:0|0:0,0:0:0:0:
192,60,93758,21,4,0:0:0:0:
284,36,93930,1,0,0:0:0:0:
364,88,94101,1,8,0:0:0:0:
192,60,94273,1,2,0:0:0:0:
364,88,94444,2,0,P|396:128|444:140,1,95,0|2,0:0|0:0,0:0:0:0:
480,224,94787,1,8,0:0:0:0:
416,292,94958,1,2,0:0:0:0:
328,256,95130,6,0,P|268:240|168:332,1,190,2|8,0:0|0:0,0:0:0:0:
84,344,95644,1,2,0:0:0:0:
20,272,95816,1,0,0:0:0:0:
60,188,95987,2,0,P|76:144|64:80,2,95,2|8|0,0:0|0:0|0:0,0:0:0:0:
256,192,96501,12,0,97873,0:0:0:0:
256,192,98558,12,4,99244,0:0:0:0:
84,124,99587,5,0,0:0:0:0:
44,212,99930,2,0,L|88:316,1,95,2|0,0:0|0:0,0:0:0:0:
168,336,100616,5,0,0:0:0:0:
256,304,100958,1,0,0:0:0:0:
344,336,101301,2,0,B|388:316|388:316|448:312,1,95,2|0,0:0|0:0,0:0:0:0:
420,220,101987,21,0,0:0:0:0:
464,136,102330,1,0,0:0:0:0:
368,140,102673,2,0,P|316:140|276:116,1,95,2|0,0:0|0:0,0:0:0:0:
260,28,103358,2,0,P|280:120|244:160,1,142.5
212,176,104044,1,2,0:0:0:0:
128,136,104387,5,0,0:0:0:0:
104,176,104558,1,0,0:0:0:0:
68,208,104730,2,0,P|40:248|40:312,1,95,0|0,0:0|0:0,0:0:0:0:
92,368,105416,2,0,P|120:328|120:264,1,95,2|0,0:0|0:0,0:0:0:0:
212,244,106101,1,0,0:0:0:0:
296,284,106444,1,0,0:0:0:0:
380,236,106787,1,2,0:0:0:0:
468,276,107130,1,0,0:0:0:0:
460,180,107473,6,0,P|468:120|372:44,1,190,0|2,0:0|0:0,0:0:0:0:
312,116,108501,1,0,0:0:0:0:
232,64,108844,2,0,P|208:92|144:104,1,95
120,100,109358,1,0,0:0:0:0:
88,88,109530,2,0,P|32:88|-8:120,1,95,2|0,0:0|0:0,0:0:0:0:
68,176,110216,5,4,0:0:0:0:
24,260,110558,1,0,0:0:0:0:
68,344,110901,2,0,P|120:328|176:348,1,95,2|0,0:0|0:0,0:0:0:0:
252,320,111587,2,0,P|300:340|348:336,1,95
404,264,112273,1,2,0:0:0:0:
444,352,112616,1,0,0:0:0:0:
342,337,112958,22,0,P|308:292|312:240,1,95
352,172,113644,2,0,P|392:124|396:80,2,95,2|0|0,0:0|0:0|0:0,0:0:0:0:
256,160,114673,1,0,0:0:0:0:
256,160,114844,2,0,P|240:136|212:116,1,47.5
176,44,115358,1,0,0:0:0:0:
136,68,115530,1,0,0:0:0:0:
108,108,115701,6,0,P|56:128|8:116,1,95
20,216,116387,2,0,P|12:268|36:320,1,95,2|0,0:0|0:0,0:0:0:0:
120,328,117073,1,0,0:0:0:0:
196,268,117416,1,0,0:0:0:0:
288,292,117758,2,0,P|336:292|388:324,1,95,2|0,0:0|0:0,0:0:0:0:
464,272,118444,5,0,0:0:0:0:
460,176,118787,1,0,0:0:0:0:
388,116,119130,1,2,0:0:0:0:
292,116,119473,1,0,0:0:0:0:
224,180,119816,1,2,0:0:0:0:
224,180,119987,2,0,P|176:216|120:208,2,95,2|0|0,0:0|0:0|0:0,0:0:0:0:
292,116,120501,1,2,0:0:0:0:
316,208,120673,1,0,0:0:0:0:
316,208,120758,1,0,0:0:0:0:
316,208,120844,2,0,P|384:228|420:216,1,95,0|0,0:0|0:0,0:0:0:0:
460,144,121187,6,0,P|404:224|448:304,1,190,2|8,0:0|0:0,0:0:0:0:
504,228,121701,1,2,0:0:0:0:
356,340,121873,1,0,0:0:0:0:
288,272,122044,1,2,0:0:0:0:
192,272,122216,1,8,0:0:0:0:
128,344,122387,1,2,0:0:0:0:
128,344,122558,22,0,P|56:316|36:204,1,190,2|8,0:0|0:0,0:0:0:0:
198,113,123073,2,0,P|72:148|32:120,1,190,2|2,0:0|0:0,0:0:0:0:
188,20,123587,2,0,P|152:28|112:68,1,95,8|2,0:0|0:0,0:0:0:0:
198,113,123930,5,2,0:0:0:0:
288,80,124101,1,0,0:0:0:0:
372,124,124273,1,8,0:0:0:0:
396,216,124444,1,2,0:0:0:0:
336,290,124616,2,0,P|388:314|424:308,1,95,0|2,0:0|0:0,0:0:0:0:
264,228,124958,2,0,P|240:276|244:315,1,95,8|2,0:0|0:0,0:0:0:0:
336,164,125301,2,0,P|296:128|180:184,1,190,2|8,0:0|0:0,0:0:0:0:
92,196,125816,2,0,P|132:240|136:280,2,95,2|0|2,0:0|0:0|0:0,0:0:0:0:
40,116,126330,2,0,P|64:68|104:44,1,95,8|0,0:0|0:0,0:0:0:0:
184,84,126673,5,6,0:0:0:0:
268,40,126844,1,0,0:0:0:0:
268,136,127016,1,8,0:0:0:0:
220,52,127187,1,2,0:0:0:0:
348,88,127358,1,0,0:0:0:0:
252,180,127530,1,2,0:0:0:0:
288,32,127701,1,8,0:0:0:0:
396,144,127873,1,2,0:0:0:0:
252,180,128044,6,0,P|184:168|101:245,1,190,2|8,0:0|0:0,0:0:0:0:
340,216,128558,2,0,P|304:260|248:272,2,95,2|0|2,0:0|0:0|0:0,0:0:0:0:
396,144,129073,2,0,P|404:84|432:52,1,95,8|0,0:0|0:0,0:0:0:0:
428,228,129416,21,0,0:0:0:0:
368,304,129587,1,0,0:0:0:0:
276,288,129758,2,0,P|208:264|104:320,1,190,8|0,0:0|0:0,0:0:0:0:
320,204,130273,2,0,P|300:120|376:44,1,190,2|2,0:0|0:0,0:0:0:0:
192,204,130787,2,0,P|212:120|136:44,1,190,0|8,0:0|0:0,0:0:0:0:
92,128,131301,1,2,0:0:0:0:
52,40,131473,1,0,0:0:0:0:
148,47,131644,1,2,0:0:0:0:
92,128,131816,2,0,P|68:172|72:228,1,95,8|2,0:0|0:0,0:0:0:0:
28,304,132158,5,2,0:0:0:0:
124,300,132330,1,0,0:0:0:0:
164,216,132501,1,8,0:0:0:0:
260,220,132673,1,2,0:0:0:0:
304,304,132844,2,0,P|356:312|416:276,1,95,0|0,0:0|0:0,0:0:0:0:
424,280,133101,1,2,0:0:0:0:
456,280,133187,1,8,0:0:0:0:
488,192,133358,1,0,0:0:0:0:
436,112,133530,6,0,P|384:144|272:96,1,190,2|8,0:0|0:0,0:0:0:0:
196,44,134044,1,2,0:0:0:0:
196,44,134216,1,0,0:0:0:0:
116,92,134387,1,2,0:0:0:0:
136,184,134558,1,8,0:0:0:0:
152,212,134644,1,0,0:0:0:0:
156,244,134730,1,0,0:0:0:0:
140,272,134816,1,0,0:0:0:0:
112,292,134901,1,4,0:0:0:0:
256,192,134987,12,0,139016,0:0:0:0:
