osu file format v14

[General]
AudioFilename: HELIX.mp3
AudioLeadIn: 0
PreviewTime: 13717
Countdown: 0
SampleSet: None
StackLeniency: 0.7
Mode: 0
LetterboxInBreaks: 0
WidescreenStoryboard: 1

[Editor]
DistanceSpacing: 0.8
BeatDivisor: 3
GridSize: 4
TimelineZoom: 2.999999

[Metadata]
Title:HELIX
TitleUnicode:HELIX
Artist:ESTi
ArtistUnicode:ESTi
Creator:Oracle
Version:Flower
Source:O2JAM U
Tags:螺旋 384059043 Minakami Yuki mtbbsben fanzhen0019 macuilxochitl spectator Flower LKs
BeatmapID:636737
BeatmapSetID:279405

[Difficulty]
HPDrainRate:6
CircleSize:4.1
OverallDifficulty:7
ApproachRate:9.2
SliderMultiplier:2.77
SliderTickRate:1

[Events]
//Background and Video events
0,0,"HELIX.jpg",0,0
//Break Periods
//Storyboard Layer 0 (Background)
//Storyboard Layer 1 (Fail)
//Storyboard Layer 2 (Pass)
//Storyboard Layer 3 (Foreground)
//Storyboard Sound Samples

[TimingPoints]
2746,342.857142857143,4,1,9,70,1,0
2746,-133.333333333333,4,1,9,70,0,0
10974,-133.333333333333,4,1,9,80,0,0
12346,-133.333333333333,4,1,9,90,0,0
13717,-100,4,1,10,100,0,0
31717,-50,4,1,10,100,0,0
32231,-133.333333333333,4,1,10,100,0,0
32917,-83.3333333333333,4,1,10,100,0,0
45260,-71.4285714285714,4,1,10,100,0,0
46631,-83.3333333333333,4,1,10,100,0,0
48003,-66.6666666666667,4,1,10,100,0,0
49374,-83.3333333333333,4,1,10,100,0,0
50746,-62.5,4,1,10,100,0,0
52117,-83.3333333333333,4,1,10,100,0,0
53488,-58.8235294117647,4,1,10,100,0,0
54860,-100,4,1,10,100,0,0
65488,-71.4285714285714,4,1,10,100,0,0
65831,-133.333333333333,4,1,10,70,0,0
76803,-100,4,1,10,100,0,0
87774,-83.3333333333333,4,1,10,100,0,0
96003,-66.6666666666667,4,1,10,100,0,0
98746,-133.333333333333,4,1,10,70,0,0
120688,-71.4285714285714,4,1,10,100,0,1
122060,-58.8235294117647,4,1,10,100,0,1
123431,-66.6666666666667,4,1,10,100,0,1
124803,-55.5555555555556,4,1,10,100,0,1
126174,-62.5,4,1,10,100,0,1
127546,-52.6315789473684,4,1,10,100,0,1
128917,-58.8235294117647,4,1,10,100,0,1
130288,-50,4,1,10,100,0,1
134403,-100,4,1,10,100,0,0
134488,-100,4,2,0,70,0,0
135774,-100,4,2,0,50,0,0
137146,-100,4,2,0,30,0,0
138517,-100,4,2,0,5,0,0

[Colours]
Combo1 : 255,255,128
Combo2 : 255,0,0
Combo3 : 0,255,255

[HitObjects]
52,308,2746,6,0,B|128:296|128:296|260:340,1,207.75,2|0,0:0|0:0,0:0:0:0:
332,316,3260,1,0,0:0:0:0:
272,256,3431,2,0,B|128:208|128:208|188:180,1,207.750007925034,2|0,0:0|0:0,0:0:0:0:
252,148,3946,1,0,0:0:0:0:
184,100,4117,2,0,B|56:56|56:56|0:108,1,207.750007925034,2|0,0:0|0:0,0:0:0:0:
328,284,4803,2,0,B|456:328|456:328|512:276,1,207.750007925034,2|0,0:0|0:0,0:0:0:0:
480,96,5488,6,0,B|424:64|424:64|456:216,1,207.750007925034,2|0,0:0|0:0,0:0:0:0:
416,280,6003,1,0,0:0:0:0:
368,212,6174,2,0,B|344:96|344:96|252:68,1,207.750007925034,2|0,0:0|0:0,0:0:0:0:
176,52,6688,1,0,0:0:0:0:
100,84,6860,2,0,P|88:128|104:188,1,103.875003962517,2|0,0:0|0:0,0:0:0:0:
168,232,7203,2,0,P|180:188|164:128,1,103.875003962517
84,120,7546,2,0,P|72:164|88:224,1,103.875003962517,2|0,0:0|0:0,0:0:0:0:
152,268,7888,2,0,P|164:224|148:164,1,103.875003962517
240,304,8231,6,0,B|316:316|316:316|256:196,1,207.750007925034,2|0,0:0|0:0,0:0:0:0:
220,124,8746,1,0,0:0:0:0:
240,304,8917,2,0,B|296:240|296:240|424:264,1,207.750007925034,2|0,0:0|0:0,0:0:0:0:
500,280,9431,1,0,0:0:0:0:
240,304,9603,2,0,L|24:332,1,207.750007925034,2|0,0:0|0:0,0:0:0:0:
272,80,10288,2,0,L|488:52,1,207.750007925034,2|0,0:0|0:0,0:0:0:0:
188,88,10974,5,2,0:0:0:0:
272,80,11146,1,0,0:0:0:0:
104,96,11317,1,2,0:0:0:0:
8,28,11488,1,0,0:0:0:0:
80,176,11660,5,2,0:0:0:0:
136,228,11774,5,0,0:0:0:0:
108,300,11888,5,0,0:0:0:0:
32,312,12003,5,2,0:0:0:0:
196,176,12174,1,0,0:0:0:0:
456,344,12346,5,2,0:0:0:0:
400,332,12431,1,0,0:0:0:0:
368,284,12517,1,2,0:0:0:0:
360,228,12603,1,0,0:0:0:0:
380,176,12688,1,2,0:0:0:0:
428,144,12774,1,0,0:0:0:0:
484,148,12860,1,2,0:0:0:0:
432,172,12946,1,0,0:0:0:0:
380,152,13031,1,2,0:0:0:0:
340,112,13117,1,2,0:0:0:0:
300,72,13203,1,2,0:0:0:0:
244,60,13288,1,2,0:0:0:0:
188,76,13374,1,2,0:0:0:0:
132,80,13460,1,2,0:0:0:0:
84,48,13546,1,2,0:0:0:0:
96,104,13631,1,2,0:0:0:0:
92,160,13717,6,0,B|60:344|60:344|128:276,1,277,2|8,0:3|0:0,0:0:0:0:
456,80,14231,2,0,L|176:112,1,277
300,184,14746,2,0,B|320:160|320:160|292:52,1,138.5,8|0,0:0|0:0,0:0:0:0:
40,272,15088,5,0,0:0:0:0:
144,308,15260,1,0,0:0:0:0:
248,344,15431,1,8,0:0:0:0:
200,128,15603,1,0,0:0:0:0:
116,200,15774,1,0,0:0:0:0:
224,232,15946,1,0,0:0:0:0:
180,32,16117,1,8,0:0:0:0:
248,344,16288,1,0,0:0:0:0:
452,124,16460,6,0,B|308:104|308:104|352:148,1,207.75
416,208,16803,2,0,L|396:352,1,138.5,8|0,0:0|0:0,0:0:0:0:
404,352,17317,1,0,0:0:0:0:
64,228,17488,2,0,L|48:84,1,138.5,8|0,0:0|0:0,0:0:0:0:
156,68,17831,5,0,0:0:0:0:
48,90,18003,1,0,0:0:0:0:
264,44,18174,1,8,0:0:0:0:
476,132,18346,1,0,0:0:0:0:
276,348,18517,1,0,0:0:0:0:
232,124,18688,1,8,0:0:0:0:
344,200,18860,1,0,0:0:0:0:
48,90,19031,1,8,0:0:0:0:
264,44,19203,6,0,B|460:24|460:24|392:88,1,277,0|8,0:0|0:0,0:0:0:0:
276,348,19717,2,0,L|0:304,1,277
264,44,20231,2,0,L|252:184,1,138.5,8|0,0:0|0:0,0:0:0:0:
276,348,20574,5,0,0:0:0:0:
384,320,20746,1,0,0:0:0:0:
492,292,20917,1,8,0:0:0:0:
276,348,21088,1,0,0:0:0:0:
336,104,21260,1,0,0:0:0:0:
120,160,21431,1,0,0:0:0:0:
492,292,21603,1,8,0:0:0:0:
120,160,21774,1,0,0:0:0:0:
336,104,21946,6,0,B|472:56|472:56|436:112,1,207.75
340,188,22288,2,0,L|192:172,1,138.5,8|0,0:0|0:0,0:0:0:0:
200,180,22803,1,0,0:0:0:0:
492,292,22974,2,0,L|352:312,1,138.5,8|0,0:0|0:0,0:0:0:0:
80,344,23317,5,0,0:0:0:0:
354,311,23488,1,0,0:0:0:0:
216,328,23660,1,8,0:0:0:0:
492,292,23831,1,0,0:0:0:0:
292,196,24003,1,8,0:0:0:0:
392,240,24174,1,0,0:0:0:0:
192,152,24346,1,8,0:0:0:0:
492,292,24517,1,0,0:0:0:0:
96,108,24688,6,0,B|64:40|64:40|136:60,1,138.5
176,292,25031,2,0,B|133:353|133:353|114:281,1,138.5,8|0,0:0|0:0,0:0:0:0:
336,92,25374,2,0,B|410:98|410:98|357:150,1,138.5
60,216,25717,2,0,L|276:200,1,207.75,8|0,0:0|0:0,0:0:0:0:
267,200,26060,5,0,0:0:0:0:
60,216,26231,1,0,0:0:0:0:
296,320,26403,1,8,0:0:0:0:
236,76,26574,1,0,0:0:0:0:
267,200,26746,1,0,0:0:0:0:
60,120,26917,1,0,0:0:0:0:
476,276,27088,1,8,0:0:0:0:
60,120,27260,1,0,0:0:0:0:
400,40,27431,6,0,B|460:28|460:28|424:112,1,138.5
296,320,27774,2,0,L|80:308,1,207.75,8|0,0:0|0:0,0:0:0:0:
60,120,28117,2,0,B|104:148|104:148|76:232,1,138.5
340,248,28460,2,0,L|476:276,1,138.5,8|0,0:0|0:0,0:0:0:0:
236,48,28803,6,0,B|152:80|152:80|172:16,1,138.5
440,180,29146,2,0,L|304:152,1,138.5,8|0,0:0|0:0,0:0:0:0:
228,144,29403,1,0,0:0:0:0:
228,144,29488,1,0,0:0:0:0:
340,248,29660,1,8,0:0:0:0:
120,44,29831,1,8,0:0:0:0:
340,248,30003,1,8,0:0:0:0:
120,44,30174,5,10,0:0:0:0:
120,44,30346,1,0,0:0:0:0:
256,352,30517,1,10,0:0:0:0:
256,352,30688,1,0,0:0:0:0:
480,132,30860,1,8,0:0:0:0:
480,132,30946,1,8,0:0:0:0:
480,132,31031,1,8,0:0:0:0:
480,132,31117,1,8,0:0:0:0:
480,132,31203,1,8,0:0:0:0:
480,132,31288,1,8,0:0:0:0:
480,132,31374,1,8,0:0:0:0:
480,132,31460,1,0,0:0:0:0:
480,132,31717,6,0,L|336:132,1,138.5,4|0,0:2|0:0,0:0:0:0:
504,228,32060,6,0,L|360:228,1,138.5,4|0,0:2|0:0,0:0:0:0:
256,119,32231,6,0,B|264:184|272:248|200:216|184:264|220:348|292:336|312:292|320:248|260:240,1,311.625011887551
256,119,32917,6,0,B|0:92|0:92|72:148,1,332.399989855957,4|8,0:0|0:0,0:0:0:0:
424,360,33431,2,0,B|452:120|452:120|380:48,1,332.399989855957
112,212,33946,2,0,L|288:200,1,166.199994927979,8|0,0:0|0:0,0:0:0:0:
444,188,34288,5,0,0:0:0:0:
112,212,34460,1,8,0:2:0:0:
277,200,34631,1,8,0:0:0:0:
444,188,34803,1,0,0:0:0:0:
244,272,34974,1,0,0:2:0:0:
44,352,35146,1,0,0:0:0:0:
128,32,35317,2,0,L|160:280,1,249.299992391968,8|0,0:2|0:0,0:0:0:0:
168,360,35660,5,0,0:0:0:0:
504,280,36003,1,8,0:0:0:0:
168,360,36174,1,0,0:0:0:0:
504,280,36517,1,0,0:0:0:0:
340,248,36688,1,8,0:0:0:0:
176,216,36860,1,0,0:0:0:0:
388,58,37031,5,0,0:0:0:0:
123,58,37203,2,0,L|176:216,1,166.199994927979,8|0,0:2|0:0,0:0:0:0:
364,152,37546,1,8,0:0:0:0:
340,248,37717,1,8,0:2:0:0:
388,58,37888,1,0,0:0:0:0:
124,326,38060,1,8,0:2:0:0:
388,58,38231,1,0,0:2:0:0:
480,349,38403,6,0,B|252:280|252:280|340:248,1,332.399989855957,0|8,0:0|0:0,0:0:0:0:
28,68,38917,2,0,P|164:176|308:128,1,332.399989855957
120,164,39431,2,0,L|140:336,1,166.199994927979,8|0,0:0|0:0,0:0:0:0:
388,58,39774,5,0,0:0:0:0:
120,164,39946,1,8,0:2:0:0:
288,180,40117,1,8,0:0:0:0:
88,200,40288,1,0,0:0:0:0:
320,144,40460,1,0,0:0:0:0:
28,68,40631,1,0,0:0:0:0:
320,144,40803,2,0,L|64:176,1,249.299992391968,8|0,0:2|0:0,0:0:0:0:
0,184,41146,5,0,0:0:0:0:
0,184,41488,1,8,0:0:0:0:
116,208,41660,1,2,0:2:0:0:
228,232,41831,1,0,0:0:0:0:
340,256,42003,1,0,0:0:0:0:
261,48,42174,2,0,L|316:292,1,249.299992391968,8|0,0:0|0:0,0:0:0:0:
400,352,42517,6,0,B|440:316|440:316|452:188,1,166.199994927979,8|0,0:0|0:0,0:0:0:0:
400,140,42774,2,0,L|408:48,1,83.0999974639893,0|8,0:0|0:2,0:0:0:0:
180,132,43031,2,0,L|200:220,1,83.0999974639893,8|8,0:0|0:0,0:0:0:0:
340,228,43203,2,0,L|320:140,1,83.0999974639893,0|0,0:0|0:0,0:0:0:0:
152,120,43374,2,0,L|172:208,1,83.0999974639893,0|0,0:0|0:0,0:0:0:0:
28,356,43546,2,0,B|-12:272|-12:272|148:296,1,249.299992391968,12|0,0:2|0:0,0:0:0:0:
256,308,43888,5,0,0:0:0:0:
256,308,44231,1,8,0:0:0:0:
464,280,44403,2,0,L|376:292,1,83.0999974639893,2|0,0:2|0:0,0:0:0:0:
256,308,44574,2,0,L|168:320,1,83.0999974639893,0|0,0:2|0:0,0:0:0:0:
0,248,44746,2,0,L|88:236,1,83.0999974639893,2|0,0:2|0:0,0:0:0:0:
208,220,44917,2,0,L|296:208,1,83.0999974639893,10|0,0:2|0:0,0:0:0:0:
416,188,45088,2,0,L|504:176,1,83.0999974639893,2|0,0:2|0:0,0:0:0:0:
240,132,45260,6,0,P|216:92|220:40,1,96.9499970413209,8|0,0:0|0:0,0:0:0:0:
412,12,45431,2,0,P|436:52|432:104,1,96.9499970413209,10|0,0:2|0:0,0:0:0:0:
148,144,45603,2,0,P|124:104|128:52,1,96.9499970413209,8|0,0:0|0:0,0:0:0:0:
320,24,45774,2,0,P|344:64|340:116,1,96.9499970413209,0|0,0:0|0:0,0:0:0:0:
256,312,45946,2,2,B|64:288|64:288|160:256,1,290.849991123963,10|0,0:0|0:0,0:0:0:0:
416,188,46288,2,0,L|220:176,1,193.899994082642,8|2,0:0|0:0,0:0:0:0:
192,160,46631,6,0,B|224:368|224:368|256:240,1,332.399989855957,0|8,0:0|0:0,0:0:0:0:
320,24,47146,2,0,L|228:32,1,83.0999974639893,2|0,0:2|0:0,0:0:0:0:
120,44,47317,2,0,L|28:52,1,83.0999974639893
192,160,47488,2,0,L|274:167,1,83.0999974639893,2|0,0:2|0:0,0:0:0:0:
392,180,47660,2,0,L|474:187,1,83.0999974639893,10|0,0:2|0:0,0:0:0:0:
340,312,47831,2,0,L|248:320,1,83.0999974639893,2|0,0:2|0:0,0:0:0:0:
64,336,48003,6,0,B|84:300|84:300|64:232,1,103.875003962517
192,160,48174,2,0,B|172:196|172:196|192:264,1,103.875003962517,10|0,0:2|0:0,0:0:0:0:
148,360,48346,2,0,B|168:324|168:324|148:256,1,103.875003962517,8|0,0:0|0:0,0:0:0:0:
276,184,48517,2,0,B|256:220|256:220|276:288,1,103.875003962517,8|0,0:0|0:0,0:0:0:0:
88,120,48688,2,2,B|280:160|280:160|392:128,1,311.625011887551,10|0,0:0|0:0,0:0:0:0:
256,72,49031,2,0,L|40:24,1,207.750007925034,8|2,0:0|0:0,0:0:0:0:
33,40,49374,6,0,B|60:244|60:244|88:120,1,332.399989855957,0|8,0:0|0:0,0:0:0:0:
276,184,49888,2,0,L|180:176,1,83.0999974639893,2|0,0:2|0:0,0:0:0:0:
452,200,50060,2,0,L|356:192,1,83.0999974639893,0|0,0:0|0:0,0:0:0:0:
216,304,50231,2,0,L|120:312,1,83.0999974639893,2|0,0:2|0:0,0:0:0:0:
392,288,50403,2,0,L|296:296,1,83.0999974639893,10|0,0:2|0:0,0:0:0:0:
352,96,50574,2,0,L|448:88,1,83.0999974639893,2|0,0:2|0:0,0:0:0:0:
84,136,50746,6,0,P|65:84|78:31,1,110.8,8|0,0:0|0:0,0:0:0:0:
270,79,50917,2,0,P|288:130|276:184,1,110.8,10|0,0:2|0:0,0:0:0:0:
64,180,51088,2,0,P|45:128|58:75,1,110.8,8|0,0:0|0:0,0:0:0:0:
250,123,51260,2,0,P|268:174|256:228,1,110.8,8|0,0:0|0:0,0:0:0:0:
36,268,51431,2,2,B|272:240|272:240|188:288,1,332.4,10|0,0:0|0:0,0:0:0:0:
36,268,51774,2,0,L|0:40,1,221.6,8|2,0:0|0:0,0:0:0:0:
16,32,52117,6,0,B|228:68|228:68|348:28,1,332.399989855957,0|8,0:0|0:0,0:0:0:0:
492,180,52631,2,0,L|312:156,1,166.199994927979,2|0,0:2|0:0,0:0:0:0:
260,208,52888,2,0,L|170:196,1,83.0999974639893
8,360,53146,2,0,L|98:348,1,83.0999974639893,10|0,0:2|0:0,0:0:0:0:
216,328,53317,2,0,L|306:316,1,83.0999974639893,2|0,0:2|0:0,0:0:0:0:
492,180,53488,6,0,B|504:132|504:132|476:68,1,117.725002245426
348,252,53660,2,0,B|335:299|335:299|364:364,1,117.725002245426,10|0,0:2|0:0,0:0:0:0:
456,56,53831,2,0,P|400:40|340:64,1,117.725002245426,8|0,0:0|0:0,0:0:0:0:
328,256,54003,2,0,P|384:272|444:248,1,117.725002245426,8|0,0:0|0:0,0:0:0:0:
324,72,54174,2,2,L|88:44,1,235.450004490852,14|0,0:0|0:0,0:0:0:0:
24,324,54517,2,0,L|260:352,1,235.450004490852,14|0,0:0|0:0,0:0:0:0:
276,368,54860,6,0,B|236:284|236:284|304:108,1,277,6|8,0:3|0:0,0:0:0:0:
404,64,55374,1,0,0:0:0:0:
404,176,55546,2,0,L|428:320,1,138.5
108,208,55888,2,0,L|84:64,1,138.5,8|0,0:0|0:0,0:0:0:0:
208,216,56231,6,0,B|176:32|176:32|232:112,1,277,0|8,0:0|0:0,0:0:0:0:
208,216,56746,2,0,L|52:208,1,138.5
344,224,57088,1,0,0:0:0:0:
482,231,57260,2,0,L|344:224,1,138.5,8|0,0:0|0:0,0:0:0:0:
128,348,57603,6,0,B|88:144|88:144|132:80,1,277,0|8,0:0|0:0,0:0:0:0:
24,48,58117,1,0,0:0:0:0:
132,60,58288,2,0,L|276:72,1,138.5
482,231,58631,2,0,P|421:254|340:232,1,138.5,8|0,0:0|0:0,0:0:0:0:
132,60,58974,5,0,0:0:0:0:
184,276,59146,1,0,0:0:0:0:
160,168,59317,1,8,0:0:0:0:
212,384,59488,1,0,0:0:0:0:
248,220,59660,1,0,0:0:0:0:
284,60,59831,2,0,L|224:124,1,69.25,8|0,0:0|0:0,0:0:0:0:
92,244,60003,1,8,0:0:0:0:
344,320,60174,1,0,0:0:0:0:
92,244,60346,6,0,B|280:284|280:284|192:308,1,277,0|8,0:0|0:0,0:0:0:0:
352,228,60860,2,0,L|487:258,1,138.5,0|0,0:0|0:0,0:0:0:0:
420,28,61203,1,0,0:0:0:0:
148,90,61374,2,0,L|284:60,1,138.5,8|0,0:0|0:0,0:0:0:0:
420,28,61717,5,0,0:0:0:0:
148,90,61888,1,0,0:0:0:0:
283,60,62060,1,8,0:0:0:0:
352,228,62231,2,0,L|268:216,1,69.25
164,204,62403,1,0,0:0:0:0:
40,340,62574,2,0,L|120:332,1,69.25
327,349,62746,2,0,B|364:316|364:316|352:228,1,138.5,8|0,0:0|0:0,0:0:0:0:
107,153,63088,6,0,B|0:180|0:180|164:204,1,277,0|8,0:0|0:0,0:0:0:0:
352,228,63603,1,0,0:0:0:0:
164,204,63774,1,0,0:0:0:0:
328,92,63946,1,0,0:0:0:0:
352,228,64117,1,8,0:0:0:0:
376,364,64288,1,0,0:0:0:0:
328,92,64460,5,0,0:0:0:0:
164,204,64631,2,0,L|244:192,1,69.25,8|0,0:0|0:0,0:0:0:0:
465,107,64803,2,0,L|328:92,1,138.5,8|0,0:0|0:0,0:0:0:0:
192,56,65060,2,0,L|272:44,1,69.25
168,88,65231,1,0,0:0:0:0:
132,84,65317,1,0,0:0:0:0:
96,80,65403,1,0,0:0:0:0:
64,76,65488,2,0,B|96:148|96:148|68:272,1,193.899994082642,8|0,0:0|0:0,0:0:0:0:
56,284,65831,6,0,L|160:276,1,103.875003962517
244,268,66174,1,8,0:0:0:0:
296,332,66346,1,0,0:0:0:0:
380,340,66517,1,0,0:0:0:0:
420,328,66603,1,0,0:0:0:0:
460,316,66688,1,0,0:0:0:0:
440,236,66860,1,8,0:0:0:0:
420,156,67031,1,0,0:0:0:0:
420,156,67117,1,0,0:0:0:0:
420,156,67203,5,0,0:0:0:0:
476,96,67374,1,0,0:0:0:0:
440,236,67546,1,8,0:0:0:0:
312,172,67717,1,0,0:0:0:0:
276,152,67803,1,0,0:0:0:0:
240,132,67888,1,0,0:2:0:0:
260,96,67974,1,0,0:0:0:0:
280,60,68060,1,0,0:0:0:0:
360,80,68231,1,8,0:0:0:0:
200,40,68403,1,0,0:0:0:0:
128,84,68574,6,0,L|24:96,1,103.875003962517
64,172,68917,1,8,0:0:0:0:
24,244,69088,1,0,0:0:0:0:
92,292,69260,2,0,L|200:280,1,103.875003962517
264,328,69603,1,8,0:0:0:0:
204,200,69774,1,0,0:0:0:0:
256,136,69946,5,4,0:2:0:0:
296,132,70031,1,0,0:0:0:0:
336,128,70117,1,0,0:0:0:0:
408,172,70288,1,8,0:0:0:0:
276,240,70460,1,4,0:2:0:0:
240,220,70546,1,0,0:0:0:0:
204,200,70631,1,0,0:0:0:0:
212,160,70717,1,0,0:0:0:0:
220,120,70803,1,0,0:0:0:0:
196,128,70888,1,0,0:0:0:0:
172,136,70974,1,12,0:2:0:0:
148,144,71060,1,0,0:0:0:0:
124,152,71146,1,0,0:0:0:0:
100,160,71231,1,0,0:0:0:0:
76,168,71317,5,0,0:2:0:0:
56,248,71488,1,0,0:0:0:0:
36,328,71660,1,8,0:0:0:0:
116,308,71831,1,0,0:2:0:0:
156,296,71917,1,0,0:0:0:0:
196,284,72003,1,0,0:0:0:0:
188,304,72088,1,0,0:0:0:0:
180,324,72174,1,0,0:0:0:0:
256,356,72346,1,8,0:0:0:0:
236,208,72517,1,0,0:0:0:0:
216,60,72688,5,0,0:0:0:0:
296,88,72860,1,0,0:0:0:0:
336,104,72946,1,0,0:0:0:0:
376,120,73031,1,8,0:0:0:0:
452,84,73203,1,0,0:0:0:0:
468,104,73288,1,0,0:0:0:0:
484,124,73374,1,0,0:0:0:0:
480,84,73460,1,0,0:0:0:0:
476,44,73546,1,0,0:0:0:0:
356,204,73717,1,8,0:0:0:0:
216,60,73888,1,0,0:0:0:0:
488,356,74060,5,0,0:0:0:0:
136,324,74403,1,8,0:0:0:0:
488,356,74574,1,0,0:0:0:0:
412,324,74746,1,0,0:0:0:0:
336,292,74917,1,0,0:0:0:0:
440,168,75088,1,8,0:0:0:0:
460,144,75174,1,0,0:0:0:0:
480,120,75260,1,0,0:0:0:0:
472,92,75346,1,0,0:0:0:0:
460,64,75431,5,4,0:2:0:0:
336,120,75603,1,0,0:0:0:0:
356,96,75688,1,0,0:0:0:0:
376,72,75774,1,8,0:0:0:0:
260,84,75946,1,4,0:2:0:0:
184,48,76117,1,0,0:0:0:0:
160,52,76203,1,0,0:0:0:0:
136,56,76288,1,0,0:0:0:0:
112,60,76374,1,0,0:0:0:0:
88,64,76460,1,12,0:2:0:0:
176,252,76631,1,0,0:0:0:0:
128,160,76803,6,0,B|52:144|52:144|112:336,1,277,4|8,0:0|0:0,0:0:0:0:
314,263,77317,2,0,L|176:252,1,138.5
314,263,77660,1,0,0:0:0:0:
36,244,77831,1,8,0:0:0:0:
314,263,78174,5,0,0:0:0:0:
36,244,78346,1,8,0:0:0:0:
240,216,78517,2,0,L|392:196,1,138.5,8|0,0:0|0:0,0:0:0:0:
344,188,78774,1,0,0:0:0:0:
312,180,78860,1,0,0:0:0:0:
260,352,79031,1,0,0:0:0:0:
356,4,79203,1,8,0:0:0:0:
260,352,79374,1,0,0:0:0:0:
32,152,79546,6,0,B|256:132|256:132|196:116,1,277,0|8,0:0|0:0,0:0:0:0:
392,120,80060,1,0,0:0:0:0:
32,152,80403,1,0,0:0:0:0:
392,120,80574,1,8,0:0:0:0:
252,184,80746,1,0,0:0:0:0:
392,120,80917,5,0,0:0:0:0:
112,244,81088,1,0,0:0:0:0:
160,32,81260,1,8,0:0:0:0:
284,104,81431,2,0,L|292:176,1,69.25
304,276,81603,2,0,L|312:348,1,69.25,8|0,0:0|0:0,0:0:0:0:
112,244,81774,1,0,0:0:0:0:
160,184,81860,1,0,0:0:0:0:
184,256,81946,2,0,L|40:244,1,138.5,8|0,0:0|0:0,0:0:0:0:
304,276,82288,6,0,B|500:252|500:252|416:224,1,277,0|8,0:0|0:0,0:0:0:0:
368,12,82803,2,0,L|356:152,1,138.5
344,288,83146,1,0,0:0:0:0:
368,12,83317,1,8,0:0:0:0:
344,288,83660,5,0,0:0:0:0:
368,12,83831,1,0,0:0:0:0:
224,88,84003,2,0,L|80:68,1,138.5,8|0,0:0|0:0,0:0:0:0:
100,96,84260,1,0,0:0:0:0:
112,120,84346,1,0,0:0:0:0:
224,88,84517,1,8,0:0:0:0:
4,160,84688,1,8,0:0:0:0:
276,368,84860,1,0,0:0:0:0:
4,160,85031,6,0,B|216:216|216:216|280:200,1,277,0|8,0:0|0:0,0:0:0:0:
408,168,85546,1,0,0:0:0:0:
4,160,85888,1,0,0:0:0:0:
408,168,86060,1,8,0:0:0:0:
232,120,86231,1,0,0:0:0:0:
264,108,86317,1,0,0:0:0:0:
296,96,86403,5,0,0:0:0:0:
360,292,86574,1,0,0:0:0:0:
408,168,86746,1,8,0:0:0:0:
212,348,86917,2,0,L|200:280,1,69.25
184,184,87088,2,0,L|172:116,1,69.25,8|0,0:0|0:0,0:0:0:0:
340,28,87260,1,0,0:0:0:0:
376,104,87346,1,0,0:0:0:0:
296,96,87431,2,0,L|436:80,1,138.5,8|0,0:0|0:0,0:0:0:0:
184,184,87774,6,0,B|8:164|8:164|72:208,1,249.299992391968
148,264,88117,1,8,0:0:0:0:
220,104,88288,1,0,0:0:0:0:
192,336,88460,1,0,0:0:0:0:
176,32,88631,1,0,0:0:0:0:
268,180,88803,1,8,0:0:0:0:
176,32,88974,1,0,0:0:0:0:
308,256,89146,6,0,L|384:224,1,83.0999974639893
373,305,89317,2,0,L|384:224,1,83.0999974639893
449,273,89488,2,0,L|384:224,1,83.0999974639893,8|0,0:0|0:0,0:0:0:0:
460,192,89660,2,0,L|384:224,1,83.0999974639893
394,142,89831,2,0,L|384:224,1,83.0999974639893
318,174,90003,2,0,L|384:224,1,83.0999974639893
472,108,90174,1,8,0:0:0:0:
160,232,90346,1,0,0:0:0:0:
472,108,90517,6,0,B|292:148|292:148|228:124,1,249.299992391968
136,92,90860,1,8,0:0:0:0:
212,312,91031,1,0,0:0:0:0:
172,200,91203,1,0,0:0:0:0:
41,93,91374,2,0,B|16:60|16:60|136:92,1,166.199994927979,0|8,0:0|0:0,0:0:0:0:
324,64,91717,1,0,0:0:0:0:
172,200,91888,6,0,L|253:208,1,83.0999974639893
205,274,92060,2,0,L|253:208,1,83.0999974639893
287,283,92231,2,0,L|253:208,1,83.0999974639893,8|0,0:0|0:0,0:0:0:0:
335,217,92403,2,0,L|253:208,1,83.0999974639893
302,141,92574,2,0,L|253:208,1,83.0999974639893
220,133,92746,2,0,L|253:208,1,83.0999974639893
320,360,92917,1,8,0:0:0:0:
184,56,93088,1,0,0:0:0:0:
492,64,93260,6,0,B|508:236|508:236|460:172,1,249.299992391968
400,96,93603,1,8,0:0:0:0:
56,208,93774,1,0,0:0:0:0:
228,152,93946,1,0,0:0:0:0:
56,208,94117,1,0,0:0:0:0:
400,96,94288,1,8,0:0:0:0:
184,56,94460,1,0,0:0:0:0:
368,175,94631,6,0,L|292:204,1,83.0999974639893
356,255,94803,2,0,L|292:204,1,83.0999974639893
279,285,94974,2,0,L|292:204,1,83.0999974639893,8|0,0:0|0:0,0:0:0:0:
215,233,95146,2,0,L|292:204,1,83.0999974639893
228,152,95317,2,0,L|292:204,1,83.0999974639893
305,123,95488,2,0,L|292:204,1,83.0999974639893
340,336,95660,1,8,0:0:0:0:
240,68,95831,1,0,0:0:0:0:
0,172,96003,6,0,L|102:156,1,103.875003962517,8|0,0:0|0:0,0:0:0:0:
202,138,96174,2,0,L|305:123,1,103.875003962517,8|0,0:0|0:0,0:0:0:0:
472,180,96346,2,0,L|370:196,1,103.875003962517,8|0,0:0|0:0,0:0:0:0:
270,214,96517,2,0,L|167:229,1,103.875003962517,8|0,0:0|0:0,0:0:0:0:
256,192,96688,12,0,98060,0:0:0:0:
112,324,98746,6,0,B|264:352|264:352|224:304,1,207.750007925034,4|0,0:0|0:0,0:0:0:0:
176,248,99260,1,0,0:0:0:0:
112,192,99431,2,0,B|96:136|96:136|160:164|200:108|200:108|240:136,1,207.750007925034,8|0,0:0|0:0,0:0:0:0:
276,148,99888,1,0,0:0:0:0:
332,148,100003,1,0,0:0:0:0:
380,124,100117,6,0,B|432:68|432:68|408:204,1,207.750007925034
440,276,100631,1,0,0:0:0:0:
420,312,100717,1,0,0:0:0:0:
400,348,100803,2,0,B|436:344|436:344|464:360|464:360|504:352,1,103.875003962517,8|0,0:0|0:0,0:0:0:0:
312,364,101146,2,0,B|276:368|276:368|248:352|248:352|208:360,1,103.875003962517,8|0,0:0|0:0,0:0:0:0:
132,360,101488,6,0,B|64:372|64:372|156:268,1,207.750007925034
212,204,102003,1,0,0:0:0:0:
212,204,102088,1,0,0:0:0:0:
212,204,102174,2,0,P|216:148|88:100,1,207.750007925034,8|0,0:0|0:0,0:0:0:0:
128,120,102631,1,0,0:0:0:0:
184,116,102746,1,0,0:0:0:0:
228,84,102860,6,0,B|332:48|332:48|288:136|288:136|312:192,1,259.687509906292
340,212,103374,1,0,0:0:0:0:
340,212,103460,1,0,0:0:0:0:
340,212,103546,6,0,L|424:204,1,69.250002641678,8|0,0:0|0:0,0:0:0:0:
464,200,103774,1,0,0:0:0:0:
436,280,103888,6,0,L|352:288,1,69.250002641678,8|0,0:0|0:0,0:0:0:0:
312,292,104117,1,0,0:0:0:0:
248,244,104231,6,0,B|96:264|96:264|40:244,1,207.750007925034
88,180,104660,1,0,0:0:0:0:
88,180,104746,1,0,0:0:0:0:
88,180,104831,1,0,0:0:0:0:
88,180,104917,2,0,B|136:248|136:248|160:112,1,207.750007925034,8|0,0:0|0:0,0:0:0:0:
136,96,105603,6,0,L|356:76,1,207.750007925034
476,120,106060,2,0,L|400:116,1,69.250002641678
288,80,106288,6,0,B|320:244|320:244|332:192,1,207.750007925034,8|0,0:0|0:0,0:0:0:0:
272,200,106746,1,0,0:0:0:0:
216,196,106860,1,0,0:0:0:0:
160,192,106974,5,0,0:0:0:0:
0,344,107317,1,0,0:0:0:0:
41,340,107403,1,0,0:0:0:0:
82,336,107488,1,0,0:0:0:0:
123,332,107574,1,0,0:0:0:0:
102,366,107660,5,8,0:0:0:0:
82,314,107774,1,0,0:0:0:0:
64,262,107888,1,0,0:0:0:0:
23,233,108003,6,0,L|103:253,1,69.250002641678
160,192,108231,1,0,0:0:0:0:
116,112,108346,6,0,B|60:96|60:96|220:80,1,207.750007925034
256,76,108803,1,0,0:0:0:0:
304,72,108917,1,0,0:0:0:0:
448,56,109031,6,0,L|379:62,1,69.250002641678,8|0,0:0|0:0,0:0:0:0:
340,144,109260,2,0,L|408:137,1,69.250002641678,8|0,0:0|0:0,0:0:0:0:
464,208,109488,2,0,L|395:214,1,69.250002641678,8|0,0:0|0:0,0:0:0:0:
304,228,109717,6,0,B|148:240|148:240|208:272,1,207.750007925034,4|0,0:0|0:0,0:0:0:0:
228,280,110146,1,0,0:0:0:0:
260,296,110231,1,0,0:0:0:0:
292,312,110317,1,0,0:0:0:0:
324,328,110403,1,8,0:0:0:0:
40,344,110746,2,0,L|156:340,1,103.875003962517
324,328,111088,6,0,B|380:360|380:360|336:208,1,207.750007925034
416,72,111603,1,0,0:0:0:0:
320,200,111774,2,0,L|208:188,1,103.875003962517,8|0,0:0|0:0,0:0:0:0:
112,176,112117,1,8,0:0:0:0:
320,200,112288,1,0,0:0:0:0:
512,116,112460,6,0,B|460:80|460:80|488:228,1,207.750007925034
444,192,112888,1,0,0:0:0:0:
404,160,112974,1,0,0:0:0:0:
364,128,113060,1,0,0:0:0:0:
320,96,113146,1,8,0:0:0:0:
320,200,113317,1,0,0:0:0:0:
320,304,113488,5,0,0:0:0:0:
248,272,113603,5,0,0:0:0:0:
172,280,113717,5,0,0:0:0:0:
124,340,113831,5,0,0:0:0:0:
124,340,114346,1,0,0:0:0:0:
84,72,114517,2,0,L|92:128,1,51.9375019812585
104,204,114688,2,0,L|112:260,1,51.9375019812585,0|0,0:0|0:0,0:0:0:0:
204,308,114860,2,0,L|196:252,1,51.9375019812585,8|0,0:0|0:0,0:0:0:0:
184,176,115031,2,0,L|176:120,1,51.9375019812585
276,40,115203,6,0,B|292:152|292:152|260:200,1,155.812505943775
312,120,115546,2,0,L|420:108,1,103.875003962517,0|0,0:0|0:0,0:0:0:0:
276,40,115888,2,0,B|120:24|120:24|164:56,1,207.750007925034,8|0,0:0|0:0,0:0:0:0:
184,176,116403,1,0,0:0:0:0:
204,308,116574,6,0,L|272:284,2,69.250002641678,0|0|0,0:0|0:0|0:0,0:0:0:0:
124,328,116917,2,0,L|16:316,1,103.875003962517,0|0,0:0|0:0,0:0:0:0:
184,176,117260,5,8,0:0:0:0:
236,188,117374,1,0,0:0:0:0:
288,200,117488,1,0,0:0:0:0:
324,236,117603,5,8,0:0:0:0:
320,204,117717,1,0,0:0:0:0:
316,172,117831,1,0,0:0:0:0:
276,104,117946,6,0,B|436:140|436:140|376:156,1,207.750007925034
176,80,118460,1,0,0:0:0:0:
440,40,118631,5,8,0:0:0:0:
432,96,118746,1,0,0:0:0:0:
424,152,118860,1,0,0:0:0:0:
460,192,118974,6,0,L|368:140,1,103.875003962517
300,96,119317,5,8,0:0:0:0:
460,192,119488,1,0,0:0:0:0:
296,280,119660,1,8,0:0:0:0:
300,96,119831,1,0,0:0:0:0:
136,184,120003,1,8,0:0:0:0:
168,180,120088,1,0,0:0:0:0:
200,176,120174,1,0,0:0:0:0:
232,172,120260,1,0,0:0:0:0:
264,168,120346,2,0,L|104:148,1,155.812505943775,8|0,0:0|0:0,0:0:0:0:
84,132,120688,6,0,B|112:360|112:360|136:296,1,290.849991123963,14|0,0:3|0:0,0:0:0:0:
68,240,121031,1,8,0:0:0:0:
296,280,121203,1,2,0:2:0:0:
336,268,121288,1,0,0:0:0:0:
376,256,121374,6,0,L|364:352,1,96.9499970413209
448,200,121546,2,0,L|460:104,1,96.9499970413209,2|0,0:2|0:0,0:0:0:0:
504,272,121717,2,0,L|492:368,1,96.9499970413209,10|0,0:2|0:0,0:0:0:0:
320,184,121888,2,0,L|332:88,1,96.9499970413209,2|0,0:2|0:0,0:0:0:0:
488,56,122060,6,0,L|364:68,1,117.725002245426
252,76,122231,1,2,0:2:0:0:
32,364,122403,1,8,0:0:0:0:
391,372,122574,2,0,L|376:256,1,117.725002245426,2|0,0:2|0:0,0:0:0:0:
216,200,122746,2,2,B|432:156|432:156|412:172,1,235.450004490852,10|0,0:0|0:0,0:0:0:0:
32,364,123088,2,0,B|0:164|0:164|24:124,1,235.450004490852,10|0,0:0|0:0,0:0:0:0:
492,56,123431,6,0,B|240:32|240:32|300:72,1,311.625011887551
216,200,123774,2,0,B|72:248|72:248|8:216,1,207.750007925034,8|0,0:0|0:0,0:0:0:0:
40,152,124031,1,0,0:0:0:0:
56,80,124117,6,0,L|172:68,1,103.875003962517
264,56,124288,2,0,L|380:44,1,103.875003962517,2|0,0:2|0:0,0:0:0:0:
432,128,124460,2,0,L|316:140,1,103.875003962517,10|0,0:2|0:0,0:0:0:0:
224,152,124631,2,0,L|108:164,1,103.875003962517,2|0,0:2|0:0,0:0:0:0:
36,240,124803,6,0,P|28:308|68:364,1,124.649996195984
156,280,124974,2,0,P|198:333|266:345,1,124.649996195984,2|0,0:2|0:0,0:0:0:0:
276,224,125146,2,0,P|344:232|400:192,1,124.649996195984,8|0,0:0|0:0,0:0:0:0:
316,104,125317,2,0,P|369:61|381:-6,1,124.649996195984,2|0,0:2|0:0,0:0:0:0:
160,40,125488,2,2,B|112:88|112:88|132:276,1,249.299992391968,10|0,0:0|0:0,0:0:0:0:
480,360,125831,2,0,L|508:104,1,249.299992391968,10|0,0:0|0:0,0:0:0:0:
488,92,126174,6,0,B|260:68|260:68|360:116,1,332.4
452,164,126517,1,8,0:0:0:0:
48,140,126688,1,0,0:0:0:0:
60,184,126774,1,0,0:0:0:0:
72,228,126860,6,0,L|100:112,1,110.8
168,208,127031,2,0,L|196:92,1,110.8,2|0,0:2|0:0,0:0:0:0:
320,244,127203,2,0,L|348:360,1,110.8,10|0,0:2|0:0,0:0:0:0:
416,264,127374,2,0,L|444:380,1,110.8,2|0,0:2|0:0,0:0:0:0:
192,336,127546,6,0,L|56:324,1,131.574996486569
168,208,127717,2,0,B|228:48|228:48|256:136,1,263.149992973137,2|8,0:2|0:0,0:0:0:0:
491,260,128060,2,0,B|504:296|504:296|416:264,1,131.574996486569,2|0,0:2|0:0,0:0:0:0:
344,156,128231,2,2,B|300:32|300:32|168:56,1,263.149992973137,10|0,0:0|0:0,0:0:0:0:
40,356,128574,2,0,L|312:340,1,263.149992973137,10|0,0:0|0:0,0:0:0:0:
84,32,128917,6,0,B|52:268|52:268|120:168,1,353.175006736279
344,156,129260,2,0,L|92:128,1,235.450004490852,8|0,0:0|0:0,0:0:0:0:
140,208,129517,1,0,0:0:0:0:
172,284,129603,6,0,L|288:260,1,117.725002245426
380,236,129774,2,0,L|496:212,1,117.725002245426,2|0,0:2|0:0,0:0:0:0:
452,308,129946,2,0,L|336:332,1,117.725002245426,10|0,0:2|0:0,0:0:0:0:
244,356,130117,2,0,L|128:380,1,117.725002245426,2|0,0:2|0:0,0:0:0:0:
36,296,130288,6,0,P|-4:244|4:168,1,138.5
220,112,130460,2,0,P|260:164|252:240,1,138.5,2|0,0:2|0:0,0:0:0:0:
0,92,130631,2,0,L|148:100,1,138.5,8|0,0:0|0:0,0:0:0:0:
244,260,130803,2,0,L|96:252,1,138.5,2|0,0:2|0:0,0:0:0:0:
248,32,130974,2,2,B|492:12|492:12|460:44,1,277,10|0,0:0|0:0,0:0:0:0:
132,376,131317,2,0,B|92:176|92:176|140:116,1,277,10|0,0:0|0:0,0:0:0:0:
480,128,131660,6,0,P|508:256|416:368,1,277,8|0,0:0|0:0,0:0:0:0:
0,92,132003,2,0,P|112:144|240:20,1,277,8|0,0:0|0:0,0:0:0:0:
480,128,132346,5,0,0:0:0:0:
404,164,132431,2,0,L|256:148,1,138.5,2|8,0:0|0:0,0:0:0:0:
340,232,132603,2,0,L|192:216,1,138.5,2|8,0:0|0:0,0:0:0:0:
288,304,132774,2,0,L|140:288,1,138.5,2|8,0:0|0:0,0:0:0:0:
224,372,132946,2,0,L|76:356,1,138.5,2|4,0:0|0:0,0:0:0:0:
464,304,133203,5,0,0:0:0:0:
44,32,133374,2,0,L|336:16,1,277,8|0,0:0|0:0,0:0:0:0:
376,356,133717,2,0,L|84:372,1,277,0|0,0:0|0:0,0:0:0:0:
344,96,134060,5,8,0:0:0:0:
99,371,134231,1,0,0:0:0:0:
256,192,134403,1,4,0:0:0:0:
256,192,134488,12,0,138517,0:0:0:0:
