osu file format v14

[General]
AudioFilename: HELIX.mp3
AudioLeadIn: 0
PreviewTime: 43888
Countdown: 0
SampleSet: Normal
StackLeniency: 0.7
Mode: 0
LetterboxInBreaks: 0
WidescreenStoryboard: 0

[Editor]
DistanceSpacing: 1.4
BeatDivisor: 4
GridSize: 8
TimelineZoom: 3.299999

[Metadata]
Title:HELIX (Edit ver.)
TitleUnicode:HELIX (Edit ver.)
Artist:ESTi
ArtistUnicode:ESTi
Creator:Hollow Wings
Version:EX EX
Source:O2Jam Analog
Tags:螺旋 384059043 Elaine EvilElvis fanzhen0019 Irreversible LKs Macuilxochitl Minakami Yuki mtbbsben Oracle smallboat Spectator yf_bmp ZZHBOY
BeatmapID:462700
BeatmapSetID:194910

[Difficulty]
HPDrainRate:6
CircleSize:5
OverallDifficulty:7
ApproachRate:9.3
SliderMultiplier:0.400000005960464
SliderTickRate:1

[Events]
//Background and Video events
0,0,"HELIX.jpg",0,0
//Break Periods
//Storyboard Layer 0 (Background)
//Storyboard Layer 1 (Fail)
//Storyboard Layer 2 (Pass)
//Storyboard Layer 3 (Foreground)
//Storyboard Sound Samples

[TimingPoints]
2746,342.857142857143,4,1,1,70,1,0
10974,-50,4,1,1,80,0,0
12346,-50,4,1,1,90,0,0
13031,-200,4,1,2,90,0,0
13717,-66.6666666666667,4,1,2,100,0,0
31717,-50,4,1,2,100,0,0
32231,-133.333333333333,4,1,2,100,0,0
32917,-83.3333333333333,4,1,2,100,0,0
35317,-133.333333333333,4,1,2,100,0,0
35660,-83.3333333333333,4,1,2,100,0,0
38060,-133.333333333333,4,1,2,100,0,0
38403,-83.3333333333333,4,1,2,100,0,0
40803,-133.333333333333,4,1,2,100,0,0
41146,-83.3333333333333,4,1,2,100,0,0
43203,-50,4,1,2,100,0,0
43546,-133.333333333333,4,1,2,100,0,0
43888,-66.6666666666667,4,1,2,100,0,0
45946,-200,4,1,2,100,0,0
46974,-66.6666666666667,4,1,2,100,0,0
48688,-133.333333333333,4,1,2,100,0,0
49374,-66.6666666666667,4,1,2,100,0,0
51431,-133.333333333333,4,1,2,100,0,0
52117,-66.6666666666667,4,1,2,100,0,0
54174,-50,4,1,2,100,0,0
54860,-66.6666666666667,4,1,2,100,0,0
65488,-71.4285714285714,4,1,2,100,0,0
65831,-76.9230769230769,4,1,2,70,0,0
76803,-133.333333333333,4,1,2,100,0,0
77146,-66.6666666666667,4,1,2,100,0,0
79203,-133.333333333333,4,1,2,100,0,0
79546,-66.6666666666667,4,1,2,100,0,0
85374,-133.333333333333,4,1,2,100,0,0
85888,-66.6666666666667,4,1,2,100,0,0
87774,-83.3333333333333,4,1,2,100,0,0
96003,-66.6666666666667,4,1,2,100,0,0
97374,-200,4,1,2,100,0,0
98746,-66.6666666666667,4,1,2,70,0,0
113831,-200,4,1,2,70,0,0
114517,-66.6666666666667,4,1,2,70,0,0
119317,-50,4,1,2,70,0,0
120003,-75.0187546886722,4,1,2,70,0,0
120688,-149.253731343284,4,1,2,100,0,1
121031,-50,4,1,2,100,0,1
122746,-149.253731343284,4,1,2,100,0,1
123774,-50,4,1,2,100,0,1
125488,-149.253731343284,4,1,2,100,0,1
126517,-50,4,1,2,100,0,1
128231,-149.253731343284,4,1,2,100,0,1
129260,-50,4,1,2,100,0,1
130974,-149.253731343284,4,1,2,100,0,1
131660,-50,4,1,2,100,0,1
134403,-100,4,1,2,100,0,0
134488,-100,4,2,0,70,0,0
135774,-100,4,2,0,50,0,0
137146,-100,4,2,0,30,0,0
138517,-100,4,2,0,5,0,0

[Colours]
Combo1 : 255,255,128
Combo2 : 255,0,0
Combo3 : 0,255,255

[HitObjects]
29,60,2745,22,0,L|73:52,1,40.0000005960464,2|0,0:0|0:0,0:0:0:0:
152,34,3431,2,0,L|192:28,1,40.0000005960464,2|0,0:0|0:0,0:0:0:0:
66,140,4117,6,0,L|27:148,1,40.0000005960464,2|0,0:0|0:0,0:0:0:0:
190,116,4803,2,0,L|150:122,1,40.0000005960464,2|0,0:0|0:0,0:0:0:0:
318,91,5488,1,2,0:0:0:0:
428,115,5831,2,0,L|466:124,2,40.0000005960464,0|2|0,0:0|0:0|0:0,0:0:0:0:
405,6,6860,22,0,L|412:50,1,40.0000005960464,2|0,0:0|0:0,0:0:0:0:
428,115,7546,1,2,0:0:0:0:
451,224,7888,5,0,0:0:0:0:
428,115,8060,1,0,0:0:0:0:
405,6,8231,2,0,L|412:50,1,40.0000005960464,2|0,0:0|0:0,0:0:0:0:
451,224,8917,2,0,L|444:184,1,40.0000005960464
372,167,9603,2,0,L|365:211,1,40.0000005960464,2|0,0:0|0:0,0:0:0:0:
340,332,10289,2,0,L|334:372,1,40.0000005960464
261,369,10974,22,0,L|263:352,5,13.3333335320155,2|0|0|0|0|0,0:0|0:0|0:0|0:0|0:0|0:0,0:0:0:0:
187,346,11317,2,0,L|205:316,3,20.0000002980232,2|0|0|0,0:0|0:0|0:0|0:0,0:0:0:0:
133,292,11660,6,0,P|114:293|94:290,1,40.0000005960464,2|0,0:0|0:0,0:0:0:0:
114,206,12003,2,0,P|130:216|149:222,1,40.0000005960464,2|0,0:0|0:0,0:0:0:0:
282,104,12346,22,0,P|252:102|222:109,2,60.0000008940696
35,42,13031,22,0,P|35:25|37:13,1,30.0000004470348,2|0,0:3|0:0,0:0:0:0:
485,63,13717,6,0,L|437:68,1,45.0000023871661,4|0,0:0|0:0,0:0:0:0:
200,176,14060,1,8,0:0:0:0:
355,76,14231,1,0,0:0:0:0:
363,60,14574,5,0,0:0:0:0:
208,160,14745,1,8,0:0:0:0:
372,44,14917,1,0,0:0:0:0:
440,308,15088,22,0,L|392:303,1,45.0000023871661
306,290,15431,1,8,0:0:0:0:
36,309,15603,2,0,L|50:330,1,15.000000795722
43,285,15774,2,0,L|57:306,1,15.000000795722
20,292,15945,5,2,0:3:0:0:
170,300,16116,1,8,0:0:0:0:
321,304,16288,1,0,0:0:0:0:
106,12,16460,22,0,L|93:62,1,45.0000023871661
156,287,16803,1,8,0:0:0:0:
37,17,16974,1,0,0:0:0:0:
75,73,17317,5,0,0:0:0:0:
251,129,17488,1,8,0:0:0:0:
420,183,17660,1,8,0:0:0:0:
13,265,17831,22,0,L|61:260,1,45.0000023871661
192,308,18174,1,8,0:0:0:0:
359,362,18345,1,0,0:0:0:0:
327,236,18517,2,0,P|305:251|296:275,1,45.0000023871661
359,362,18860,6,0,L|357:347,1,15.000000795722,8|0,0:0|0:0,0:0:0:0:
240,136,19031,1,0,0:0:0:0:
334,378,19203,22,0,L|331:327,1,45.0000023871661
327,236,19546,1,8,0:0:0:0:
308,12,19717,1,0,0:0:0:0:
446,14,20060,5,0,0:0:0:0:
174,42,20231,1,8,0:0:0:0:
496,64,20403,1,0,0:0:0:0:
149,104,20574,22,0,L|101:109,1,45.0000023871661
193,157,20917,1,8,0:0:0:0:
466,127,21088,1,0,0:0:0:0:
215,275,21260,2,0,L|204:296,1,15.000000795722
171,222,21431,1,2,0:3:0:0:
512,177,21603,5,8,0:0:0:0:
485,235,21774,1,0,0:0:0:0:
100,234,21946,22,0,L|56:239,1,45.0000023871661
215,275,22288,1,8,0:0:0:0:
80,300,22460,1,0,0:0:0:0:
346,254,22803,5,0,0:0:0:0:
215,275,22974,1,8,0:0:0:0:
80,300,23145,1,0,0:0:0:0:
290,6,23317,22,0,L|300:53,1,45.0000023871661
346,254,23660,1,8,0:0:0:0:
80,300,23831,1,0,0:0:0:0:
450,326,24003,5,8,0:0:0:0:
215,275,24174,1,0,0:0:0:0:
326,334,24345,1,8,0:0:0:0:
383,110,24517,1,0,0:0:0:0:
27,62,24688,22,0,L|71:66,1,45.0000023871661
384,110,25031,1,8,0:0:0:0:
206,190,25202,1,0,0:0:0:0:
400,126,25374,5,8,0:0:0:0:
181,188,25545,1,2,0:3:0:0:
162,170,25716,5,8,0:0:0:0:
406,147,25888,1,0,0:0:0:0:
96,150,26060,5,0,0:0:0:0:
410,226,26232,1,0,0:0:0:0:
418,254,26403,5,8,0:0:0:0:
70,160,26575,1,0,0:0:0:0:
55,182,26746,5,8,0:0:0:0:
435,271,26918,1,2,0:3:0:0:
501,311,27088,5,0,0:0:0:0:
76,261,27260,1,0,0:0:0:0:
39,340,27431,5,4,0:0:0:0:
191,331,27603,1,0,0:0:0:0:
231,67,27774,1,8,0:0:0:0:
195,355,27946,21,0,0:0:0:0:
235,91,28117,1,0,0:0:0:0:
387,80,28289,1,8,0:0:0:0:
90,109,28460,21,8,0:0:0:0:
394,52,28632,1,8,0:0:0:0:
434,315,28803,5,0,0:0:0:0:
255,286,28975,1,0,0:0:0:0:
77,262,29146,1,8,0:0:0:0:
504,263,29317,5,0,0:0:0:0:
256,258,29489,1,0,0:0:0:0:
10,249,29660,1,2,0:3:0:0:
423,233,29831,5,8,0:0:0:0:
33,315,30003,1,8,0:0:0:0:
27,379,30174,5,0,0:0:0:0:
13,107,30346,1,0,0:0:0:0:
267,102,30517,5,8,0:0:0:0:
235,368,30689,1,0,0:0:0:0:
504,355,30860,21,0,0:0:0:0:
489,332,30946,1,0,0:0:0:0:
464,320,31032,1,0,0:0:0:0:
438,320,31117,1,0,0:0:0:0:
412,328,31203,1,0,0:0:0:0:
395,349,31288,1,0,0:0:0:0:
387,375,31374,1,0,0:0:0:0:
447,380,31460,5,0,0:0:0:0:
214,243,31717,2,0,L|224:224,1,20.0000002980232
78,11,32060,2,0,L|99:6,1,20.0000002980232
132,332,32231,6,0,P|121:351|102:363,1,45.0000023871661,0|2,0:0|0:3,0:0:0:0:
97,133,32917,5,4,0:0:0:0:
72,303,33088,1,0,0:0:0:0:
47,79,33260,1,8,0:0:0:0:
167,120,33431,2,0,L|165:89,1,23.999999625206
273,116,33774,1,0,0:0:0:0:
492,144,33946,1,8,0:0:0:0:
382,120,34117,1,0,0:0:0:0:
327,206,34288,6,0,L|327:236,1,23.999999625206
167,120,34631,1,8,0:0:0:0:
273,116,34803,1,0,0:0:0:0:
382,120,34975,1,0,0:0:0:0:
492,144,35146,1,8,0:0:0:0:
64,140,35317,6,0,L|55:122,1,15.000000795722,8|0,0:0|0:0,0:0:0:0:
59,292,35660,6,0,L|98:301,1,35.999999437809
167,228,36003,1,8,0:0:0:0:
323,245,36174,1,0,0:0:0:0:
404,338,36346,2,0,L|371:337,1,23.999999625206
319,312,36603,1,0,0:0:0:0:
323,245,36688,1,8,0:0:0:0:
326,177,37031,5,0,0:0:0:0:
315,376,37203,1,0,0:0:0:0:
218,273,37374,1,8,0:0:0:0:
326,177,37546,1,0,0:0:0:0:
421,283,37717,2,0,L|395:280,1,23.999999625206,0|8,0:0|0:0,0:0:0:0:
25,206,38060,6,0,L|10:207,1,15.000000795722,8|0,0:0|0:0,0:0:0:0:
39,353,38403,6,0,P|25:327|23:302,1,47.999999250412,0|8,0:0|0:0,0:0:0:0:
256,32,38917,2,0,P|256:67|249:87,1,47.999999250412,0|0,0:0|0:0,0:0:0:0:
334,321,39346,1,0,0:0:0:0:
393,352,39431,2,0,P|421:361|449:359,1,47.999999250412,8|0,0:0|0:0,0:0:0:0:
425,286,39946,5,0,0:0:0:0:
362,257,40117,1,8,0:0:0:0:
295,263,40288,1,0,0:0:0:0:
245,308,40460,1,0,0:0:0:0:
228,373,40631,1,8,0:0:0:0:
47,131,40803,6,0,L|74:133,1,22.500001193583,8|0,0:0|0:0,0:0:0:0:
124,251,41146,6,0,P|138:257|164:253,1,35.999999437809
226,239,41488,5,8,0:0:0:0:
171,32,41660,2,0,L|141:18,1,23.999999625206
246,20,42003,21,8,0:0:0:0:
184,329,42174,2,0,L|204:355,1,23.999999625206,8|0,0:0|0:0,0:0:0:0:
503,224,42517,5,8,0:0:0:0:
382,47,42688,1,0,0:0:0:0:
171,32,42860,1,8,0:0:0:0:
3,169,43031,1,0,0:0:0:0:
263,134,43203,22,0,L|248:147,1,20.0000002980232,8|0,0:0|0:0,0:0:0:0:
256,244,43374,2,0,L|242:229,1,20.0000002980232,8|0,0:0|0:0,0:0:0:0:
452,24,43546,22,0,P|464:32|471:43,1,22.500001193583,8|0,0:0|0:0,0:0:0:0:
340,111,43888,6,0,L|339:144,1,30.000001591444,4|0,0:0|0:0,0:0:0:0:
331,229,44231,1,8,0:0:0:0:
495,341,44403,6,0,L|482:319,1,15.000000795722
375,335,44574,2,0,L|362:313,1,15.000000795722,8|0,0:0|0:0,0:0:0:0:
253,323,44746,2,0,L|241:301,1,15.000000795722,8|0,0:0|0:0,0:0:0:0:
134,315,44917,2,0,L|121:293,1,15.000000795722,8|0,0:0|0:0,0:0:0:0:
13,305,45088,2,0,L|0:283,1,15.000000795722,0|0,0:0|0:0,0:0:0:0:
495,341,45260,22,0,L|482:319,1,15.000000795722,8|0,0:0|0:0,0:0:0:0:
375,335,45431,2,0,L|367:322,1,15.000000795722,8|0,0:0|0:0,0:0:0:0:
134,315,45603,2,0,L|126:302,1,15.000000795722
13,305,45774,2,0,L|0:283,1,15.000000795722,8|0,0:0|0:0,0:0:0:0:
253,323,45946,22,0,L|241:301,1,15.000000795722,8|0,0:0|0:0,0:0:0:0:
243,206,46288,2,0,L|243:191,1,15.0000002235174,2|0,0:3|0:0,0:0:0:0:
272,88,46631,2,0,L|279:72,1,15.0000002235174,4|0,0:0|0:0,0:0:0:0:
368,22,46974,1,8,0:0:0:0:
253,323,47146,22,0,L|241:301,1,15.000000795722
243,206,47317,2,0,L|243:191,1,15.0000002235174,8|0,0:0|0:0,0:0:0:0:
272,88,47488,2,0,L|279:72,1,15.0000002235174,8|0,0:0|0:0,0:0:0:0:
368,22,47660,2,0,L|385:8,1,15.000000795722,8|0,0:0|0:0,0:0:0:0:
485,6,47831,2,0,L|511:4,1,15.000000795722
253,323,48003,22,0,L|245:310,1,15.000000795722,8|0,0:0|0:0,0:0:0:0:
243,206,48174,2,0,L|243:191,1,15.0000002235174,8|0,0:0|0:0,0:0:0:0:
368,22,48346,2,0,L|385:8,1,15.000000795722
485,6,48517,2,0,L|511:4,1,15.000000795722,8|0,0:0|0:0,0:0:0:0:
272,88,48688,22,0,L|279:72,1,15.0000002235174,8|0,0:0|0:0,0:0:0:0:
63,20,49031,2,0,L|65:35,1,15.000000795722,2|2,0:3|0:3,0:0:0:0:
468,82,49374,6,0,P|452:66|430:48,1,45.0000023871661,4|0,0:0|0:0,0:0:0:0:
368,23,49717,1,8,0:0:0:0:
364,118,49888,6,0,L|357:139,1,15.000000795722
6,231,50060,2,0,L|1:216,1,15.000000795722,8|0,0:0|0:0,0:0:0:0:
322,231,50231,2,0,L|311:241,1,15.000000795722,8|0,0:0|0:0,0:0:0:0:
105,294,50403,2,0,L|91:286,1,15.000000795722,8|0,0:0|0:0,0:0:0:0:
226,300,50574,2,0,L|211:302,1,15.000000795722,0|0,0:0|0:0,0:0:0:0:
364,118,50746,22,0,L|357:139,1,15.000000795722,8|0,0:0|0:0,0:0:0:0:
6,231,50917,2,0,L|1:215,1,15.000000795722,8|0,0:0|0:0,0:0:0:0:
322,231,51088,2,0,L|308:244,1,15.000000795722
105,294,51260,2,0,L|91:286,1,15.000000795722,8|0,0:0|0:0,0:0:0:0:
226,300,51431,22,0,L|211:302,1,15.000000795722,8|2,0:0|0:3,0:0:0:0:
374,328,51774,2,0,L|388:341,1,15.000000795722,2|2,0:3|0:3,0:0:0:0:
11,346,52117,6,0,P|3:325|1:303,1,45.0000023871661,4|0,0:0|0:0,0:0:0:0:
6,231,52460,5,8,0:0:0:0:
328,162,52631,2,0,L|347:160,1,15.000000795722
336,88,52803,2,0,L|355:86,1,15.000000795722,8|0,0:0|0:0,0:0:0:0:
478,234,52974,21,8,0:0:0:0:
170,160,53146,2,0,L|151:158,1,15.000000795722,8|0,0:0|0:0,0:0:0:0:
162,86,53318,2,0,L|143:84,1,15.000000795722
328,162,53488,6,0,L|347:160,1,15.000000795722,8|0,0:0|0:0,0:0:0:0:
170,160,53660,2,0,L|151:158,1,15.000000795722,8|0,0:0|0:0,0:0:0:0:
336,88,53831,22,0,L|355:86,1,15.000000795722
162,86,54003,2,0,L|143:84,1,15.000000795722,8|0,0:0|0:0,0:0:0:0:
256,242,54174,22,0,B|273:294|257:355|257:355|242:322,1,140.000002086162,8|0,0:0|0:0,0:0:0:0:
256,152,54860,5,2,0:3:0:0:
56,56,55031,1,0,0:0:0:0:
208,8,55203,1,0,0:0:0:0:
104,200,55374,1,0,0:0:0:0:
249,149,55546,5,0,0:0:0:0:
62,58,55717,1,0,0:0:0:0:
205,14,55889,1,0,0:0:0:0:
106,193,56060,1,8,0:0:0:0:
243,146,56231,21,0,0:0:0:0:
68,61,56402,1,0,0:0:0:0:
202,20,56574,1,0,0:0:0:0:
109,187,56745,1,0,0:0:0:0:
238,144,56917,21,8,0:0:0:0:
166,81,57003,1,8,0:0:0:0:
74,63,57088,1,0,0:0:0:0:
200,26,57260,21,0,0:0:0:0:
111,181,57431,1,0,0:0:0:0:
277,287,57603,21,0,0:0:0:0:
477,191,57774,1,0,0:0:0:0:
325,143,57946,1,0,0:0:0:0:
429,335,58117,1,0,0:0:0:0:
283,284,58289,5,0,0:0:0:0:
470,193,58460,1,0,0:0:0:0:
327,149,58632,1,0,0:0:0:0:
426,328,58803,1,8,0:0:0:0:
289,281,58974,21,0,0:0:0:0:
464,196,59145,1,8,0:0:0:0:
330,155,59317,1,0,0:0:0:0:
423,322,59488,1,0,0:0:0:0:
295,279,59660,6,0,L|312:273,1,15.000000795722,8|0,0:0|0:0,0:0:0:0:
458,198,59831,2,0,L|443:205,1,15.000000795722,8|0,0:0|0:0,0:0:0:0:
333,161,60003,5,8,0:0:0:0:
416,216,60088,1,8,0:0:0:0:
421,317,60174,1,0,0:0:0:0:
210,189,60346,5,0,0:0:0:0:
46,263,60517,1,0,0:0:0:0:
203,190,60688,1,0,0:0:0:0:
39,264,60860,1,0,0:0:0:0:
196,191,61031,5,0,0:0:0:0:
32,265,61203,1,0,0:0:0:0:
190,192,61373,1,0,0:0:0:0:
26,266,61545,1,8,0:0:0:0:
183,194,61717,21,0,0:0:0:0:
19,268,61888,1,0,0:0:0:0:
176,195,62060,1,0,0:0:0:0:
12,269,62231,1,8,0:0:0:0:
169,196,62403,5,8,0:0:0:0:
85,228,62488,1,8,0:0:0:0:
5,270,62574,1,0,0:0:0:0:
163,197,62746,5,0,0:0:0:0:
0,271,62916,1,8,0:0:0:0:
248,263,63088,5,0,0:0:0:0:
412,337,63259,1,0,0:0:0:0:
254,264,63431,1,0,0:0:0:0:
418,338,63602,1,0,0:0:0:0:
261,265,63774,5,0,0:0:0:0:
425,339,63946,1,8,0:0:0:0:
267,266,64117,1,0,0:0:0:0:
431,340,64287,1,8,0:0:0:0:
275,268,64459,21,0,0:0:0:0:
439,342,64631,2,0,L|445:355,1,15.000000795722,8|0,0:0|0:0,0:0:0:0:
281,269,64803,22,0,L|286:282,1,15.000000795722,8|0,0:0|0:0,0:0:0:0:
445,343,64973,1,8,0:0:0:0:
288,270,65146,5,8,0:0:0:0:
368,305,65230,1,8,0:0:0:0:
452,344,65317,1,8,0:0:0:0:
294,271,65488,5,8,0:0:0:0:
378,307,65574,1,8,0:0:0:0:
458,345,65660,1,8,0:0:0:0:
477,230,65831,21,8,0:0:0:0:
387,249,66002,1,0,0:0:0:0:
416,14,66174,1,0,0:0:0:0:
438,170,66345,1,8,0:0:0:0:
270,32,66517,5,0,0:0:0:0:
509,165,66688,1,0,0:0:0:0:
134,252,66860,1,0,0:0:0:0:
343,22,67031,1,8,0:0:0:0:
397,374,67202,21,0,0:0:0:0:
199,40,67373,1,8,0:0:0:0:
371,175,67545,1,0,0:0:0:0:
129,52,67716,1,0,0:0:0:0:
312,88,67888,5,8,0:0:0:0:
104,121,68059,1,0,0:0:0:0:
243,98,68231,1,8,0:0:0:0:
153,179,68402,1,0,0:0:0:0:
224,165,68574,21,8,0:0:0:0:
30,133,68745,1,0,0:0:0:0:
199,233,68917,1,0,0:0:0:0:
82,0,69088,1,8,0:0:0:0:
177,297,69260,5,0,0:0:0:0:
268,30,69431,1,0,0:0:0:0:
154,179,69603,1,0,0:0:0:0:
369,75,69774,1,8,0:0:0:0:
105,120,69945,21,0,0:0:0:0:
408,138,70116,1,8,0:0:0:0:
59,66,70288,1,0,0:0:0:0:
403,280,70459,1,0,0:0:0:0:
199,39,70631,5,8,0:0:0:0:
298,358,70802,1,0,0:0:0:0:
369,75,70974,1,8,0:0:0:0:
230,351,71145,1,0,0:0:0:0:
54,353,71317,21,0,0:0:0:0:
69,344,71403,1,0,0:0:0:0:
86,339,71489,1,8,0:0:0:0:
104,337,71574,1,0,0:0:0:0:
122,342,71660,1,8,0:0:0:0:
67,216,71831,1,0,0:0:0:0:
403,359,72003,5,0,0:0:0:0:
377,249,72174,1,0,0:0:0:0:
286,180,72346,1,8,0:0:0:0:
173,167,72517,1,0,0:0:0:0:
403,359,72688,21,0,0:0:0:0:
377,249,72859,1,0,0:0:0:0:
286,180,73031,1,8,0:0:0:0:
173,167,73202,1,0,0:0:0:0:
403,359,73374,6,0,L|390:356,1,12.9999995986223
377,249,73545,1,0,0:0:0:0:
286,180,73717,1,8,0:0:0:0:
173,167,73888,1,0,0:0:0:0:
67,216,74060,22,0,L|72:204,1,12.9999995986223
68,138,74231,2,0,L|85:129,2,12.9999995986223,8|0|8,0:0|0:0|0:0,0:0:0:0:
103,70,74574,1,0,0:0:0:0:
202,80,74746,5,0,0:0:0:0:
283,88,74917,1,0,0:0:0:0:
368,97,75089,1,8,0:0:0:0:
429,39,75260,2,0,L|424:26,1,12.9999995986223
468,179,75431,21,0,0:0:0:0:
468,179,75517,1,0,0:0:0:0:
468,179,75603,2,0,L|471:191,1,12.9999995986223
388,196,75774,1,8,0:0:0:0:
317,157,75945,1,8,0:0:0:0:
228,154,76117,6,0,L|215:157,1,12.9999995986223
160,15,76288,2,0,L|147:17,1,12.9999995986223
63,41,76460,1,8,0:0:0:0:
81,195,76631,1,8,0:0:0:0:
261,328,76803,6,0,L|266:303,1,22.500001193583,4|0,0:0|0:0,0:0:0:0:
331,313,77146,5,8,0:0:0:0:
496,320,77317,1,0,0:0:0:0:
426,335,77488,5,0,0:0:0:0:
426,335,77575,2,0,L|422:320,1,15.000000795722
261,328,77831,1,8,0:0:0:0:
283,262,78174,21,0,0:0:0:0:
14,244,78345,1,2,0:0:0:0:
14,244,78517,1,8,0:0:0:0:
83,230,78689,5,0,0:0:0:0:
305,198,78860,1,2,0:0:0:0:
305,198,79031,1,0,0:0:0:0:
480,54,79203,6,0,P|474:45|463:38,1,22.500001193583,8|0,0:0|0:0,0:0:0:0:
403,63,79546,6,0,L|354:64,1,45.0000023871661
276,85,79888,1,8,0:0:0:0:
77,62,80060,1,0,0:0:0:0:
77,62,80231,1,0,0:0:0:0:
248,154,80403,5,0,0:0:0:0:
452,122,80574,2,0,P|464:110|472:89,1,30.000001591444,8|0,0:0|0:0,0:0:0:0:
469,196,80917,21,0,0:0:0:0:
112,169,81088,1,2,0:0:0:0:
112,169,81260,1,8,0:0:0:0:
37,189,81431,5,0,0:0:0:0:
397,172,81603,2,0,P|394:190|403:222,1,45.0000023871661,2|0,0:0|0:0,0:0:0:0:
455,268,81946,21,10,0:0:0:0:
467,334,82031,1,0,0:0:0:0:
408,367,82117,1,0,0:0:0:0:
359,321,82203,1,0,0:0:0:0:
388,259,82288,6,0,P|367:253|334:258,1,45.0000023871661,0|0,0:0|0:0,0:0:0:0:
292,297,82631,1,8,0:0:0:0:
34,329,82803,1,0,0:0:0:0:
95,300,83145,21,0,0:0:0:0:
359,321,83317,1,8,0:0:0:0:
359,321,83660,5,0,0:0:0:0:
34,329,83831,1,0,0:0:0:0:
34,329,84003,1,10,0:0:0:0:
292,297,84174,21,2,0:0:0:0:
95,300,84346,1,0,0:0:0:0:
95,300,84517,1,2,0:0:0:0:
197,323,84688,5,8,0:0:0:0:
176,25,84860,1,0,0:0:0:0:
38,118,85031,22,0,L|85:109,1,45.0000023871661
141,81,85374,21,8,0:0:0:0:
189,257,85546,2,0,L|186:233,1,22.500001193583,0|0,0:0|0:0,0:0:0:0:
127,193,85888,5,0,0:0:0:0:
152,356,86060,1,8,0:0:0:0:
95,300,86403,5,0,0:0:0:0:
92,31,86574,1,0,0:0:0:0:
181,12,86917,5,0,0:0:0:0:
152,356,87088,1,0,0:0:0:0:
76,375,87260,1,2,0:0:0:0:
182,12,87431,1,10,0:0:0:0:
262,45,87603,1,2,0:0:0:0:
397,362,87774,5,4,0:0:0:0:
495,293,87946,1,0,0:0:0:0:
385,244,88117,1,8,0:0:0:0:
381,348,88288,5,0,0:0:0:0:
489,273,88460,1,0,0:0:0:0:
368,219,88631,1,8,0:0:0:0:
365,329,88803,5,8,0:0:0:0:
478,249,88975,1,0,0:0:0:0:
352,193,89146,1,8,0:0:0:0:
352,318,89317,5,0,0:0:0:0:
476,231,89489,1,0,0:0:0:0:
337,169,89660,1,8,0:0:0:0:
339,309,89831,5,0,0:0:0:0:
476,213,90003,1,0,0:0:0:0:
73,34,90174,1,8,2:0:0:0:
94,201,90346,1,8,2:0:0:0:
34,283,90517,5,8,0:0:0:0:
184,262,90688,1,0,0:0:0:0:
331,240,90860,1,0,0:0:0:0:
367,235,91031,5,8,0:0:0:0:
204,250,91203,1,0,0:0:0:0:
38,265,91374,1,0,0:0:0:0:
45,244,91546,5,8,0:0:0:0:
228,237,91717,1,0,0:0:0:0:
407,229,91889,1,0,0:0:0:0:
452,223,92060,5,0,0:0:0:0:
254,221,92232,1,0,0:0:0:0:
53,218,92403,1,8,0:0:0:0:
36,72,92574,5,0,0:0:0:0:
63,189,92746,1,0,0:0:0:0:
495,217,92917,1,8,0:0:0:0:
28,300,93088,1,8,0:0:0:0:
36,72,93260,5,8,0:0:0:0:
63,189,93431,1,0,0:0:0:0:
28,300,93603,1,0,0:0:0:0:
50,58,93774,5,0,0:0:0:0:
80,187,93945,1,0,0:0:0:0:
41,309,94117,1,8,0:0:0:0:
65,42,94288,5,8,0:0:0:0:
98,184,94459,1,0,0:0:0:0:
55,318,94631,1,8,0:0:0:0:
81,25,94803,5,0,0:0:0:0:
117,181,94974,1,0,0:0:0:0:
70,328,95146,1,0,0:0:0:0:
98,4,95317,5,0,0:0:0:0:
86,338,95488,1,8,0:0:0:0:
425,338,95660,1,8,0:0:0:0:
413,4,95831,1,8,0:0:0:0:
349,322,96003,6,0,L|362:357,1,30.000001591444,8|8,0:0|0:0,0:0:0:0:
334,36,96346,2,0,L|347:1,1,30.000001591444,8|8,0:0|0:0,0:0:0:0:
423,175,96688,5,0,0:0:0:0:
400,177,96774,1,0,0:0:0:0:
377,180,96860,1,0,0:0:0:0:
354,182,96946,1,0,0:0:0:0:
332,186,97031,1,0,0:0:0:0:
309,188,97117,1,0,0:0:0:0:
286,191,97203,1,0,0:0:0:0:
263,193,97289,1,0,0:0:0:0:
146,202,97374,6,0,P|132:204|108:200,1,35.0000005215406
7,186,98060,2,0,P|24:183|42:186,1,35.0000005215406,0|0,0:0|0:0,0:0:0:0:
82,316,98746,6,0,P|102:330|119:337,1,40.0000021219254,4|0,0:0|0:0,0:0:0:0:
294,312,99088,2,0,L|337:306,1,40.0000021219254
454,292,99431,2,0,P|454:315|449:337,1,40.0000021219254,8|0,0:0|0:0,0:0:0:0:
393,204,99774,2,0,L|398:160,1,40.0000021219254
441,51,100117,6,0,P|421:45|402:42,1,40.0000021219254,0|0,0:0|0:0,0:0:0:0:
284,73,100460,2,0,P|264:78|245:81,1,40.0000021219254,0|0,0:0|0:0,0:0:0:0:
124,217,100803,2,0,L|84:213,1,40.0000021219254,8|0,0:0|0:0,0:0:0:0:
58,36,101145,2,0,L|85:30,2,20.0000010609627,0|0|0,0:0|0:0|0:0,0:0:0:0:
206,87,101488,22,0,L|167:89,1,40.0000021219254,0|0,0:0|0:0,0:0:0:0:
402,143,101831,2,0,L|444:147,1,40.0000021219254
226,263,102174,2,0,P|212:245|207:221,1,40.0000021219254,8|0,0:0|0:0,0:0:0:0:
316,283,102517,1,0,0:0:0:0:
272,217,102631,1,0,0:0:0:0:
274,137,102746,1,0,0:0:0:0:
333,77,102860,6,0,L|372:69,1,40.0000021219254
487,88,103203,2,0,L|447:80,1,40.0000021219254
364,152,103546,2,0,L|403:144,1,40.0000021219254,8|0,0:0|0:0,0:0:0:0:
493,183,103888,5,0,0:0:0:0:
488,4,104060,1,0,0:0:0:0:
411,231,104231,6,0,L|397:270,1,40.0000021219254
279,296,104574,2,0,L|239:318,1,40.0000021219254
63,293,104917,2,0,L|106:292,1,40.0000021219254,8|0,0:0|0:0,0:0:0:0:
93,14,105260,2,0,L|133:22,1,40.0000021219254
173,276,105603,6,0,L|212:268,1,40.0000021219254
107,234,105946,1,0,0:0:0:0:
211,205,106060,1,0,0:0:0:0:
309,220,106174,1,0,0:0:0:0:
383,283,106288,1,8,0:0:0:0:
0,219,106631,2,0,L|39:224,1,40.0000021219254
251,282,106974,22,0,L|212:290,1,40.0000021219254
460,328,107317,2,0,L|503:334,1,40.0000021219254
217,354,107660,2,0,L|178:362,1,40.0000021219254,8|0,0:0|0:0,0:0:0:0:
336,337,108003,5,0,0:0:0:0:
316,214,108117,1,0,0:0:0:0:
399,263,108231,1,0,0:0:0:0:
377,131,108346,2,0,L|371:89,1,40.0000021219254,0|0,0:0|0:0,0:0:0:0:
357,254,108688,21,0,0:0:0:0:
377,131,108802,1,0,0:0:0:0:
294,180,108916,1,0,0:0:0:0:
316,48,109031,2,0,L|321:8,1,40.0000021219254,8|0,0:0|0:0,0:0:0:0:
272,296,109374,2,0,L|265:337,1,40.0000021219254
221,160,109717,6,0,L|233:200,1,40.0000021219254
31,275,110059,2,0,L|41:314,1,40.0000021219254
180,289,110403,2,0,L|192:249,1,40.0000021219254,8|0,0:0|0:0,0:0:0:0:
435,253,110745,2,0,L|445:214,1,40.0000021219254
494,34,111088,22,0,L|484:73,1,40.0000021219254
455,354,111431,2,0,L|465:315,1,40.0000021219254
292,139,111774,2,0,L|306:182,1,40.0000021219254,8|0,0:0|0:0,0:0:0:0:
32,53,112117,2,0,P|35:34|50:17,1,40.0000021219254
350,33,112459,6,0,L|311:41,1,40.0000021219254
79,106,112803,2,0,L|118:114,1,40.0000021219254
368,211,113145,2,0,P|360:190|346:171,1,40.0000021219254,8|0,0:0|0:0,0:0:0:0:
307,258,113488,1,0,0:0:0:0:
230,265,113602,1,0,0:0:0:0:
166,222,113717,1,0,0:0:0:0:
142,152,113831,6,0,P|154:142|170:137,1,33.3333338300387
64,356,114517,6,0,L|25:348,1,40.0000021219254,8|0,0:0|0:0,0:0:0:0:
63,163,114859,21,0,0:0:0:0:
136,343,115031,1,0,0:0:0:0:
96,91,115202,6,0,P|114:77|136:73,1,40.0000021219254,0|0,0:0|0:0,0:0:0:0:
87,285,115545,2,0,L|48:277,1,40.0000021219254
282,346,115888,2,0,L|321:338,1,40.0000021219254,8|0,0:0|0:0,0:0:0:0:
488,161,116231,2,0,P|484:143|468:123,1,40.0000021219254
471,310,116574,6,0,P|451:309|432:300,1,40.0000021219254,0|0,0:0|0:0,0:0:0:0:
273,168,116917,1,0,0:0:0:0:
273,168,117259,1,8,0:0:0:0:
39,261,117602,2,0,P|62:258|78:253,1,40.0000021219254
135,146,117945,22,0,P|153:130|172:120,1,40.0000021219254,0|0,0:0|0:0,0:0:0:0:
344,80,118288,2,0,P|348:103|348:125,1,40.0000021219254,0|0,0:0|0:0,0:0:0:0:
291,292,118631,2,0,P|268:284|249:272,1,40.0000021219254,8|0,0:0|0:0,0:0:0:0:
351,240,118974,1,0,0:0:0:0:
427,270,119088,1,0,0:0:0:0:
415,347,119202,1,0,0:0:0:0:
331,363,119317,6,0,L|289:364,1,40.0000005960464,8|8,0:0|0:0,0:0:0:0:
40,280,119660,2,0,L|80:272,1,40.0000005960464,8|8,0:0|0:0,0:0:0:0:
176,64,120003,22,0,L|190:77,1,13.3333335320155
204,176,120174,2,0,L|221:161,1,13.3333335320155,2|0,0:3|0:0,0:0:0:0:
264,70,120346,2,0,L|283:81,1,13.3333335320155,0|0,0:0|0:0,0:0:0:0:
293,179,120517,2,0,L|308:166,1,13.3333335320155
467,16,120688,22,0,L|463:39,1,20.0999993487382,4|0,0:0|0:0,0:0:0:0:
383,25,121031,5,8,0:0:0:0:
382,328,121203,6,0,L|369:301,1,20.0000002980232
204,270,121374,2,0,L|225:249,1,20.0000002980232,0|0,0:0|0:0,0:0:0:0:
204,82,121546,2,0,L|231:96,1,20.0000002980232,0|0,0:0|0:0,0:0:0:0:
383,25,121717,2,0,L|378:54,1,20.0000002980232,8|0,0:0|0:0,0:0:0:0:
493,176,121888,2,0,L|463:181,1,20.0000002980232
204,270,122060,22,0,L|218:255,1,20.0000002980232,0|0,0:0|0:0,0:0:0:0:
204,82,122231,2,0,L|231:96,1,20.0000002980232,0|0,0:0|0:0,0:0:0:0:
493,176,122403,2,0,L|463:181,1,20.0000002980232,8|0,0:0|0:0,0:0:0:0:
382,328,122574,2,0,L|373:309,1,20.0000002980232,0|0,0:0|0:0,0:0:0:0:
383,25,122746,22,0,L|378:50,1,20.0999993487382,0|0,0:0|0:0,0:0:0:0:
363,110,123088,21,8,0:0:0:0:
46,20,123260,1,2,0:3:0:0:
125,345,123431,6,0,L|119:323,1,20.0999993487382,4|0,0:0|0:0,0:0:0:0:
24,300,123774,5,8,0:0:0:0:
199,364,123946,6,0,L|217:350,1,20.0000002980232
402,298,124117,2,0,L|394:277,1,20.0000002980232
402,85,124288,2,0,L|380:87,1,20.0000002980232
199,19,124460,2,0,L|194:41,1,20.0000002980232,8|0,0:0|0:0,0:0:0:0:
74,192,124631,2,0,L|93:203,1,20.0000002980232
402,298,124803,22,0,L|394:277,1,20.0000002980232
402,85,124974,2,0,L|380:87,1,20.0000002980232
199,19,125146,2,0,L|194:41,1,20.0000002980232,8|0,0:0|0:0,0:0:0:0:
74,192,125317,2,0,L|91:202,1,20.0000002980232
199,364,125488,22,0,L|215:351,1,20.0999993487382
307,348,125831,21,2,0:3:0:0:
305,45,126003,1,2,0:3:0:0:
199,20,126174,6,0,L|215:33,1,20.0999993487382,4|0,0:0|0:0,0:0:0:0:
305,45,126517,5,8,0:0:0:0:
462,160,126688,6,0,L|428:162,1,20.0000002980232,0|0,0:0|0:0,0:0:0:0:
245,170,126860,2,0,L|211:172,1,20.0000002980232,0|0,0:0|0:0,0:0:0:0:
43,187,127031,2,0,L|9:189,1,20.0000002980232,0|0,0:0|0:0,0:0:0:0:
250,182,127203,2,0,L|270:184,1,20.0000002980232,8|0,0:0|0:0,0:0:0:0:
467,192,127375,2,0,L|487:194,1,20.0000002980232,0|0,0:0|0:0,0:0:0:0:
245,170,127546,22,0,L|211:172,1,20.0000002980232,0|0,0:0|0:0,0:0:0:0:
43,187,127717,2,0,L|9:189,1,20.0000002980232,0|0,0:0|0:0,0:0:0:0:
250,182,127888,2,0,L|270:184,1,20.0000002980232,8|0,0:0|0:0,0:0:0:0:
467,192,128060,2,0,L|487:194,1,20.0000002980232,0|0,0:0|0:0,0:0:0:0:
43,187,128231,22,0,L|20:188,1,20.0999993487382,0|0,0:0|0:0,0:0:0:0:
5,118,128574,21,2,0:3:0:0:
495,111,128746,1,8,0:0:0:0:
467,192,128917,6,0,L|488:194,1,20.0999993487382,4|0,0:0|0:0,0:0:0:0:
495,111,129260,5,8,0:0:0:0:
250,354,129431,6,0,L|259:385,1,20.0000002980232
276,290,129603,2,0,L|267:321,1,20.0000002980232
254,226,129774,2,0,L|263:257,1,20.0000002980232
276,160,129946,2,0,L|267:191,1,20.0000002980232,8|0,0:0|0:0,0:0:0:0:
250,12,130117,2,0,L|256:32,1,20.0000002980232
250,354,130288,22,0,L|259:385,1,20.0000002980232
276,290,130460,2,0,L|267:321,1,20.0000002980232
254,226,130631,2,0,L|263:257,1,20.0000002980232,8|0,0:0|0:0,0:0:0:0:
276,160,130803,2,0,L|267:191,1,20.0000002980232
250,12,130974,22,0,L|256:31,1,20.0999993487382
262,112,131317,21,8,0:0:0:0:
189,379,131488,1,8,0:0:0:0:
30,101,131660,21,12,0:0:0:0:
58,275,131831,1,0,0:0:0:0:
107,119,132003,1,8,0:0:0:0:
107,205,132174,1,0,0:0:0:0:
185,120,132346,1,8,0:0:0:0:
174,155,132517,1,0,0:0:0:0:
262,112,132688,1,8,0:0:0:0:
247,129,132860,1,0,0:0:0:0:
322,73,133031,1,8,0:0:0:0:
322,122,133203,1,8,0:0:0:0:
363,13,133374,1,8,0:0:0:0:
393,149,133546,1,8,0:0:0:0:
322,73,133717,5,0,0:0:0:0:
322,122,133803,1,0,0:0:0:0:
262,112,133888,1,2,0:3:0:0:
247,129,133974,1,0,0:0:0:0:
185,120,134060,1,0,0:0:0:0:
174,155,134146,1,0,0:0:0:0:
107,119,134231,1,0,0:0:0:0:
287,343,134403,21,4,0:0:0:0:
256,192,134488,12,0,138517,0:0:0:0:
