osu file format v13

[General]
AudioFilename: 137.HELIX.mp3
AudioLeadIn: 0
PreviewTime: 13717
Countdown: 0
SampleSet: Normal
StackLeniency: 0.7
Mode: 0
LetterboxInBreaks: 0
WidescreenStoryboard: 1

[Editor]
DistanceSpacing: 1
BeatDivisor: 4
GridSize: 4
TimelineZoom: 1.2

[Metadata]
Title:HELIX
TitleUnicode:HELIX
Artist:ESTi
ArtistUnicode:ESTi
Creator:[Seraphin]
Version:fk
Source:O2JAM U
Tags:
BeatmapID:462817
BeatmapSetID:194964

[Difficulty]
HPDrainRate:6
CircleSize:4
OverallDifficulty:7
ApproachRate:9
SliderMultiplier:3.1
SliderTickRate:1

[Events]
//Background and Video events
0,0,"HELIX.jpg",0,0
//Break Periods
2,54974,95403
2,98774,120088
//Storyboard Layer 0 (Background)
//Storyboard Layer 1 (Fail)
//Storyboard Layer 2 (Pass)
//Storyboard Layer 3 (Foreground)
//Storyboard Sound Samples
//Background Colour Transformations
3,100,163,162,255

[TimingPoints]
0,4000,4,1,1,70,1,0
100,90.0900900900901,4,1,1,70,1,0
2746,342.857142857143,4,1,1,70,1,0
2746,-133.333333333333,4,1,1,70,0,0
10974,-133.333333333333,4,1,1,80,0,0
12346,-133.333333333333,4,1,1,90,0,0
13717,-100,4,1,2,100,0,0
27603,-66.6666666666667,4,1,2,100,0,0
31717,-50,4,1,2,100,0,0
32231,-133.333333333333,4,1,2,100,0,0
32917,-83.3333333333333,4,1,2,100,0,0
35317,-100,4,1,2,100,0,0
43803,-200,4,1,2,100,0,0
44403,-100,4,1,2,100,0,0
44917,-66.6666666666667,4,1,2,100,0,0
45260,-71.4285714285714,4,1,2,100,0,0
46631,-200,4,1,2,100,0,0
46631,-83.3333333333333,4,1,2,100,0,0
46974,-83.3333333333333,4,1,2,100,0,0
48003,-66.6666666666667,4,1,2,100,0,0
49374,-83.3333333333333,4,1,2,100,0,0
50746,-62.5,4,1,2,100,0,0
52117,-83.3333333333333,4,1,2,100,0,0
53488,-58.8235294117647,4,1,2,100,0,0
54174,-100,4,1,2,100,0,0
54860,-100,4,1,2,100,0,0
65488,-71.4285714285714,4,1,2,100,0,0
65831,-133.333333333333,4,1,2,70,0,0
76803,-100,4,1,2,100,0,0
87774,-83.3333333333333,4,1,2,100,0,0
96003,-66.6666666666667,4,1,2,100,0,0
98746,-133.333333333333,4,1,2,70,0,0
120688,-71.4285714285714,4,1,2,100,0,1
122060,-58.8235294117647,4,1,2,100,0,1
123431,-66.6666666666667,4,1,2,100,0,1
124803,-55.5555555555556,4,1,2,100,0,1
126174,-62.5,4,1,2,100,0,1
127546,-52.6315789473684,4,1,2,100,0,1
128917,-58.8235294117647,4,1,2,100,0,1
130288,-50,4,1,2,100,0,1
134403,-100,4,1,2,100,0,0
134488,-100,4,2,0,70,0,0
135774,-100,4,2,0,50,0,0
137146,-100,4,2,0,30,0,0
138517,-100,4,2,0,5,0,0

[Colours]
Combo1 : 255,255,128
Combo2 : 255,0,0
Combo3 : 0,255,255

[HitObjects]
96,152,2745,5,2,0:0:0:0:
224,348,2917,1,0,0:0:0:0:
127,102,3088,5,0,0:0:0:0:
200,324,3260,1,0,0:0:0:0:
171,62,3431,5,2,0:0:0:0:
184,296,3603,1,0,0:0:0:0:
223,35,3774,5,0,0:0:0:0:
175,264,3946,1,0,0:0:0:0:
416,284,4117,5,2,0:0:0:0:
204,188,4288,1,0,0:0:0:0:
429,254,4460,5,0,0:0:0:0:
204,197,4631,1,0,0:0:0:0:
437,223,4803,5,2,0:0:0:0:
205,206,4974,1,0,0:0:0:0:
440,191,5146,5,0,0:0:0:0:
208,214,5317,1,0,0:0:0:0:
100,60,5488,5,2,0:0:0:0:
328,104,5660,1,0,0:0:0:0:
61,145,5831,5,0,0:0:0:0:
290,109,6003,1,0,0:0:0:0:
54,239,6174,5,2,0:0:0:0:
257,126,6346,1,0,0:0:0:0:
80,329,6517,5,0,0:0:0:0:
232,154,6689,1,0,0:0:0:0:
356,332,6860,5,2,0:0:0:0:
400,104,7031,1,0,0:0:0:0:
324,349,7203,5,0,0:0:0:0:
415,135,7374,1,0,0:0:0:0:
290,360,7546,5,2,0:0:0:0:
423,170,7717,1,0,0:0:0:0:
254,364,7888,5,0,0:0:0:0:
424,205,8059,1,0,0:0:0:0:
92,280,8231,5,2,0:0:0:0:
260,116,8403,1,0,0:0:0:0:
70,202,8574,5,0,0:0:0:0:
291,124,8746,1,0,0:0:0:0:
83,122,8917,5,2,0:0:0:0:
316,146,9089,1,0,0:0:0:0:
128,56,9260,5,0,0:0:0:0:
330,176,9432,1,0,0:0:0:0:
356,344,9603,5,2,0:0:0:0:
444,128,9774,1,0,0:0:0:0:
345,350,9946,5,0,0:0:0:0:
448,141,10117,1,0,0:0:0:0:
333,356,10288,5,2,0:0:0:0:
451,154,10459,1,0,0:0:0:0:
322,361,10631,5,0,0:0:0:0:
453,168,10802,1,0,0:0:0:0:
188,148,10974,5,2,0:0:0:0:
184,144,11059,1,2,0:0:0:0:
224,137,11145,1,2,0:0:0:0:
220,132,11231,1,2,0:0:0:0:
260,149,11316,1,2,0:0:0:0:
256,144,11402,1,2,0:0:0:0:
283,180,11488,1,2,0:0:0:0:
288,176,11574,1,2,0:0:0:0:
285,218,11659,1,2,0:0:0:0:
292,216,11745,1,2,0:0:0:0:
265,250,11831,5,2,0:0:0:0:
231,266,12002,1,2,0:0:0:0:
193,259,12173,1,2,0:0:0:0:
166,232,12346,6,0,P|116:176|52:272,1,174.375006651879,2|0,0:0|0:0,0:0:0:0:
104,320,12688,2,0,P|160:356|288:340,1,174.375006651879,10|0,0:0|0:0,0:0:0:0:
360,288,13031,2,0,B|392:176|492:112|492:112|332:56,1,348.750013303757,2|0,0:0|0:0,0:0:0:0:
188,320,13717,6,0,B|92:160|92:160|232:152,1,310,12|0,0:0|0:0,0:0:0:0:
392,304,14231,1,0,0:0:0:0:
392,304,14574,2,0,B|448:216|448:216|372:216,1,155,8|0,0:0|0:0,0:0:0:0:
188,308,15088,5,8,0:0:0:0:
188,75,15260,1,0,0:0:0:0:
390,192,15431,1,8,0:0:0:0:
161,286,15603,1,0,0:0:0:0:
221,62,15775,1,8,0:0:0:0:
385,226,15946,1,0,0:0:0:0:
139,259,16117,1,8,0:0:0:0:
256,57,16288,1,8,0:0:0:0:
76,312,16460,6,0,B|196:96|196:96|200:212,1,310,8|0,0:0|0:0,0:0:0:0:
359,307,16974,2,0,B|408:304|408:304|308:268,1,155
204,332,17317,2,0,L|52:301,1,155,8|8,0:0|0:0,0:0:0:0:
364,308,17831,5,8,0:0:0:0:
308,164,18003,1,0,0:0:0:0:
176,80,18174,1,0,0:0:0:0:
407,238,18346,5,8,0:0:0:0:
287,141,18518,1,0,0:0:0:0:
132,136,18689,1,8,0:0:0:0:
0,220,18860,1,0,0:0:0:0:
140,288,19031,2,0,B|240:248|240:248|196:288,2,155,8|8|8,0:0|0:0|0:0,0:0:0:0:
288,344,19546,2,0,B|452:184|452:184|352:224,1,310,8|0,0:0|0:0,0:0:0:0:
224,228,20060,1,0,0:0:0:0:
252,76,20231,1,8,0:0:0:0:
352,140,20574,6,0,B|448:196|448:196|396:216,1,155,8|0,0:0|0:0,0:0:0:0:
104,284,20917,2,0,B|8:320|8:320|60:244,1,155,8|0,0:0|0:0,0:0:0:0:
348,252,21260,2,0,B|404:328|404:328|332:320,1,155,8|0,0:0|0:0,0:0:0:0:
108,116,21603,2,0,B|80:16|80:16|160:60,1,155,8|0,0:0|0:0,0:0:0:0:
236,208,21946,6,0,B|376:44|376:44|272:84,1,310,8|8,0:0|0:0,0:0:0:0:
188,252,22460,1,8,0:0:0:0:
336,92,22803,2,8,B|272:172|272:172|272:108,1,155
64,180,23317,5,8,0:0:0:0:
348,300,23488,1,0,0:0:0:0:
268,0,23660,5,8,0:0:0:0:
148,284,23831,1,0,0:0:0:0:
448,204,24003,5,8,0:0:0:0:
164,84,24174,1,0,0:0:0:0:
244,384,24346,5,8,0:0:0:0:
364,100,24517,1,0,0:0:0:0:
64,180,24688,6,8,B|264:208|264:208|168:152,1,310
328,148,25203,1,8,0:0:0:0:
80,332,25546,2,8,L|288:368,1,155
352,276,26060,6,0,L|172:204,1,155,8|0,0:0|0:0,0:0:0:0:
0,156,26403,2,0,L|180:84,1,155,8|0,0:0|0:0,0:0:0:0:
376,192,26746,2,0,L|196:120,1,155,8|0,0:0|0:0,0:0:0:0:
24,72,27089,2,0,L|204:0,1,155,8|0,0:0|0:0,0:0:0:0:
408,76,27431,6,10,L|324:36,1,77.5
252,196,27603,2,0,B|224:268|224:268|248:324,1,116.250004434586,8|0,0:0|0:0,0:0:0:0:
340,160,27774,2,0,B|371:230|371:230|427:253,1,116.250004434586,8|0,0:0|0:0,0:0:0:0:
104,104,27946,2,0,B|37:63|37:63|-21:77,1,116.250004434586,8|0,0:0|0:0,0:0:0:0:
124,196,28117,2,0,B|49:215|49:215|17:267,1,116.250004434586,8|0,0:0|0:0,0:0:0:0:
366,121,28288,2,0,B|385:46|385:46|355:-5,1,116.250004434586,8|0,0:0|0:0,0:0:0:0:
284,168,28460,2,0,B|244:101|244:101|176:72,1,116.250004434586,8|0,0:0|0:0,0:0:0:0:
172,308,28631,6,0,B|100:336|100:336|-8:328,1,116.250004434586,8|0,0:0|0:0,0:0:0:0:
144,232,28803,2,0,B|67:240|67:240|-35:204,1,116.250004434586,8|0,0:0|0:0,0:0:0:0:
260,156,28974,2,0,B|231:84|231:84|237:-23,1,116.250004434586,8|0,0:0|0:0,0:0:0:0:
336,128,29146,2,0,B|326:51|326:51|360:-51,1,116.250004434586,8|0,0:0|0:0,0:0:0:0:
272,280,29317,2,0,B|326:225|326:225|428:188,1,116.250004434586,8|0,0:0|0:0,0:0:0:0:
328,338,29489,2,0,B|395:299|395:299|503:290,1,116.250004434586,8|0,0:0|0:0,0:0:0:0:
68,192,29660,5,8,0:0:0:0:
428,200,29831,2,10,B|248:240|248:240|328:280,1,232.500008869171
139,308,30174,5,8,0:0:0:0:
139,75,30346,1,8,0:0:0:0:
372,75,30517,1,8,0:0:0:0:
372,308,30688,1,8,0:0:0:0:
139,308,30860,5,8,0:0:0:0:
140,192,30946,1,0,0:0:0:0:
139,75,31032,1,8,0:0:0:0:
256,76,31117,1,0,0:0:0:0:
372,75,31203,1,8,0:0:0:0:
376,192,31288,1,0,0:0:0:0:
372,308,31374,1,8,0:0:0:0:
256,312,31460,2,0,L|232:320,4,19.375,0|0|0|0|0,0:0|0:0|0:0|0:0|0:0,0:0:0:0:
256,312,31717,1,0,0:0:0:0:
256,312,32060,6,2,B|292:272|276:192|276:192|280:184|280:184|272:180|276:180|284:176|284:176|272:172|272:172|284:168|284:168|276:168|272:168|280:160|280:160|272:160|272:160|272:148|272:148|280:152|280:152|280:144|280:144|272:136|272:136|288:136|288:136|276:128|280:132|280:136|280:136|284:132|284:132|272:120|272:120|288:120|288:120|280:104|280:104|296:108|296:108|284:108|284:108|280:88|280:88|280:100|284:100|288:88|288:88|300:104|296:104|284:96|284:96|296:96|296:96|292:100|292:100|296:76|296:76|296:80|300:88|304:88|304:88|312:96|312:96|312:80|312:80|320:80|320:80|316:64|312:64|300:68|296:72|300:60|320:56|336:64|336:64|344:76|344:76|336:60|348:64|356:84|344:64|340:76|368:80|368:84|368:96|384:88|388:88|384:96|396:112|400:104|400:104|396:116|392:120|384:116|388:116|400:116|372:96|376:96|384:104|384:108|384:108|400:120|408:136|404:136|400:136|396:136|392:144|392:148|400:148|392:132|392:132|384:120|384:120|360:128|376:136|392:152|392:152|392:176|392:176|392:184|384:192|384:188|376:176|388:168|392:168|408:168|408:168|404:176|404:176|396:180|396:180|384:180|384:180|392:196|392:196|396:228|392:208|392:208|384:212|384:212|392:232|392:232|408:224|408:224|404:224|408:240|408:240|404:248|396:256|392:256|392:256|392:268|392:268|408:272|408:272|392:288|392:288|376:280|376:276|364:276|364:276|356:280|356:280|372:304|356:296|368:296|368:296|380:296|380:296|384:296|388:292|396:296|396:296|416:304|416:304|412:304|400:316|400:316|392:320|384:328|384:328|376:328|376:336|376:336|368:352|368:352|360:336|360:336|352:344|352:344|356:344|356:344|364:360|364:360|360:364|356:364|344:372|344:372|340:360|336:356|324:364|312:368|296:372|296:372|296:368|296:368|296:364|304:356|304:356|308:356|320:356|312:340|308:344|304:348|296:352|292:356|284:360|288:360|288:356|280:356|276:360|276:360|276:356|268:356|240:352,1,1511.25
224,352,32917,2,0,L|-4:296,1,185.999994323731,0|0,0:0|0:0,0:0:0:0:
336,80,33260,1,8,0:0:0:0:
188,384,33431,2,0,L|-40:328,1,185.999994323731,0|0,0:0|0:0,0:0:0:0:
336,80,33774,1,8,0:0:0:0:
456,324,33946,6,0,B|320:288|320:288|288:252,2,185.999994323731
256,56,34460,1,0,0:0:0:0:
344,380,34631,1,0,0:0:0:0:
72,180,34803,1,0,0:0:0:0:
404,188,34974,1,0,0:0:0:0:
100,336,35146,1,0,0:0:0:0:
400,192,35317,2,0,B|496:108|496:108|476:48,1,155,8|0,0:0|0:0,0:0:0:0:
208,80,35660,2,0,B|428:28|428:28|496:88,1,310,8|0,0:0|0:0,0:0:0:0:
276,264,36174,2,0,B|124:316|124:316|-56:272,1,310,8|0,0:0|0:0,0:0:0:0:
136,48,36688,2,0,B|224:196|224:196|332:176|332:176|384:232,1,310,8|0,0:0|0:0,0:0:0:0:
84,288,37203,5,2,0:0:0:0:
360,148,37374,1,0,0:0:0:0:
60,228,37546,1,0,0:0:0:0:
368,212,37717,1,2,0:0:0:0:
64,160,37888,1,0,0:0:0:0:
352,276,38060,1,2,0:0:0:0:
404,308,38231,1,2,0:0:0:0:
456,340,38403,6,0,B|216:372|216:372|276:312,1,310,8|0,0:0|0:0,0:0:0:0:
372,216,38917,2,0,B|448:136|448:136|240:216,1,310,8|0,0:0|0:0,0:0:0:0:
124,280,39431,2,0,B|24:368|24:368|24:188|24:188|24:184,1,310,8|0,0:0|0:0,0:0:0:0:
336,172,39946,1,0,0:0:0:0:
56,40,40117,1,0,0:0:0:0:
252,280,40288,1,0,0:0:0:0:
432,28,40460,1,0,0:0:0:0:
132,100,40631,1,0,0:0:0:0:
360,312,40803,1,0,0:0:0:0:
52,344,40974,5,8,0:0:0:0:
124,312,41146,2,0,B|100:224|100:224|200:200|200:200|224:300|224:300|284:284,1,310,0|0,0:0|0:0,0:0:0:0:
276,284,41488,2,2,L|312:120,1,155
160,180,42003,1,0,0:0:0:0:
296,256,42346,5,0,0:0:0:0:
188,320,42517,1,0,0:0:0:0:
64,304,42688,1,0,0:0:0:0:
116,72,42860,5,0,0:0:0:0:
112,88,42946,1,0,0:0:0:0:
116,104,43031,2,0,B|152:192|152:192|76:264,1,155
412,292,43374,2,0,L|400:216,1,77.5
360,212,43546,1,0,0:0:0:0:
320,208,43631,1,0,0:0:0:0:
280,204,43717,2,0,L|268:112,1,77.5
304,108,43888,6,0,P|368:104|296:72,1,193.75,8|0,0:0|0:0,0:0:0:0:
236,96,44403,2,0,P|188:196|184:44,1,387.5,8|0,0:0|0:0,0:0:0:0:
160,120,44917,2,0,P|196:264|228:96,1,465.000017738343,8|0,0:0|0:0,0:0:0:0:
220,184,45431,6,0,L|92:332,1,108.499996688843,8|0,0:0|0:0,0:0:0:0:
256,296,45603,2,0,L|376:328,1,108.499996688843,8|0,0:0|0:0,0:0:0:0:
352,216,45774,2,0,L|320:76,1,108.499996688843,8|0,0:0|0:0,0:0:0:0:
236,172,45946,2,8,B|132:272|132:272|40:296,1,216.999993377686
276,320,46288,5,0,0:0:0:0:
340,208,46460,5,0,0:0:0:0:
352,84,46631,6,0,B|292:32|292:32|196:12,1,155
80,284,47146,2,0,B|104:208|104:208|148:184,1,92.9999971618653,8|0,0:0|0:0,0:0:0:0:
252,328,47317,2,0,B|180:368|180:368|108:360,1,92.9999971618653,8|0,0:0|0:0,0:0:0:0:
200,184,47488,2,0,B|264:244|264:244|268:268,1,92.9999971618653,8|0,0:0|0:0,0:0:0:0:
104,348,47660,2,0,L|84:248,2,92.9999971618653,8|0|8,0:0|0:0|0:0,0:0:0:0:
196,336,47917,1,0,0:0:0:0:
312,320,48003,1,8,0:0:0:0:
284,88,48174,6,0,B|240:152|240:152|188:176,1,116.250004434586,8|0,0:0|0:0,0:0:0:0:
4,44,48346,2,0,B|100:28|100:28|144:40,1,116.250004434586,8|0,0:0|0:0,0:0:0:0:
104,264,48517,2,0,B|28:212|28:212|12:172,1,116.250004434586,8|0,0:0|0:0,0:0:0:0:
232,96,48688,2,8,B|168:212|168:212|200:336,2,232.500008869171,0|0|0,0:0|0:0|0:0,0:0:0:0:
336,308,49203,1,8,0:0:0:0:
448,160,49374,6,8,B|352:192|352:192|240:192,1,185.999994323731,8|0,0:0|0:0,0:0:0:0:
196,132,49717,1,8,0:0:0:0:
68,300,49888,2,8,B|164:332|164:332|248:332,1,185.999994323731,8|0,0:0|0:0,0:0:0:0:
320,272,50231,1,8,0:0:0:0:
68,192,50403,6,0,L|268:192,1,185.999994323731,8|0,0:0|0:0,0:0:0:0:
324,252,50660,1,0,0:0:0:0:
324,128,50746,2,0,L|216:44,1,124,8|0,0:0|0:0,0:0:0:0:
108,272,50917,2,0,L|256:224,1,124,8|0,0:0|0:0,0:0:0:0:
68,44,51088,2,0,L|40:172,1,124,8|0,0:0|0:0,0:0:0:0:
288,116,51260,2,8,B|180:100|180:100|356:60|356:60|376:296,1,496
16,324,51774,1,8,0:0:0:0:
144,332,52117,6,0,P|264:364|400:288,1,278.999991485596,8|0,0:0|0:0,0:0:0:0:
208,272,52460,2,0,L|292:164,1,92.9999971618653,8|0,0:0|0:0,0:0:0:0:
420,300,52631,2,0,L|312:216,1,92.9999971618653,8|0,0:0|0:0,0:0:0:0:
460,92,52803,2,0,L|376:200,1,92.9999971618653,8|0,0:0|0:0,0:0:0:0:
252,56,52974,2,0,L|360:140,1,92.9999971618653,8|0,0:0|0:0,0:0:0:0:
140,156,53146,1,0,0:0:0:0:
196,228,53231,1,0,0:0:0:0:
276,272,53317,1,0,0:0:0:0:
364,300,53403,1,0,0:0:0:0:
484,248,53488,6,0,L|368:96,1,131.750002512932,8|0,0:0|0:0,0:0:0:0:
140,188,53660,2,0,L|96:324,1,131.750002512932,8|0,0:0|0:0,0:0:0:0:
504,251,53831,2,0,L|374:81,1,131.750002512932,8|0,0:0|0:0,0:0:0:0:
119,184,54003,2,0,L|69:336,1,131.750002512932,8|0,0:0|0:0,0:0:0:0:
256,192,54174,12,0,54774,0:0:0:0:
96,80,96003,5,0,0:0:0:0:
384,272,96174,1,0,0:0:0:0:
336,64,96346,1,0,0:0:0:0:
144,352,96517,1,0,0:0:0:0:
440,172,96688,1,0,0:0:0:0:
384,212,96774,1,0,0:0:0:0:
316,228,96860,1,0,0:0:0:0:
248,224,96946,1,0,0:0:0:0:
184,200,97031,1,0,0:0:0:0:
152,136,97117,1,0,0:0:0:0:
176,72,97203,1,0,0:0:0:0:
240,44,97288,6,0,L|368:56,8,116.250004434586,0|0|0|0|0|0|0|0|0,0:0|0:0|0:0|0:0|0:0|0:0|0:0|0:0|0:0,0:0:0:0:
216,160,98060,6,0,B|372:272|372:272|256:328,1,232.500008869171
108,244,98403,2,0,B|64:52|64:52|160:88,1,232.500008869171
56,192,120688,6,0,B|64:188|64:188|64:196|64:196|72:188|72:188|72:196|72:196|80:188|80:188|80:196|80:196|88:188|88:188|88:196|88:196|96:188|96:188|96:196|96:196|112:192,1,108.499996688843,0|0,0:0|0:0,0:0:0:0:
168,64,121203,5,0,0:0:0:0:
180,68,121288,1,0,0:0:0:0:
192,72,121374,6,0,L|272:148,1,108.499996688843
280,256,121546,2,0,L|224:356,1,108.499996688843
168,40,121717,2,0,L|225:134,1,108.499996688843
205,240,121889,2,0,L|125:322,1,108.499996688843
96,280,122060,6,0,B|88:224|88:224|96:128,1,131.750002512932
204,224,122231,2,0,B|225:171|225:171|280:92,1,131.750002512932
328,228,122403,2,0,B|372:193|372:193|459:152,1,131.750002512932
380,328,122574,2,0,B|436:320|436:320|532:327,1,131.750002512932
380,328,122746,2,0,B|312:304|312:304|232:304|232:304|84:248,1,263.500005025864,0|0,0:0|0:0,0:0:0:0:
304,68,123088,2,0,B|240:264|240:264|352:184,1,263.500005025864
208,12,123431,2,0,B|3:36|3:36|123:104,1,263.500005025864
