osu file format v12

[General]
AudioFilename: Sound Sepher - Ghostly Band Phantom Ensemble.mp3
AudioLeadIn: 0
PreviewTime: 179495
Countdown: 0
SampleSet: Soft
StackLeniency: 0.9
Mode: 0
LetterboxInBreaks: 0

[Editor]
Bookmarks: 26053,61413,123036,184466,228815
DistanceSpacing: 0.8
BeatDivisor: 4
GridSize: 4

[Metadata]
Title:Ghostly Band ~ Phantom Ensemble
TitleUnicode:Ghostly Band ~ Phantom Ensemble
Artist:ESTi
ArtistUnicode:ESTi
Creator:Arusha Shuna
Version:Normal
Source:Touhou
Tags:lunasa merlin lyrica prismriver perfect cherry blossom sound sepher cradle
BeatmapID:171578
BeatmapSetID:56799

[Difficulty]
HPDrainRate:3
CircleSize:3
OverallDifficulty:3
ApproachRate:4
SliderMultiplier:1.3
SliderTickRate:1

[Events]
//Background and Video events
0,0,"bg.jpg",0,0
//Break Periods
2,124695,129322
//Storyboard Layer 0 (Background)
//Storyboard Layer 1 (Fail)
//Storyboard Layer 2 (Pass)
//Storyboard Layer 3 (Foreground)
//Storyboard Sound Samples
//Background Colour Transformations
3,100,163,162,255

[TimingPoints]
1430,384.578405922508,4,2,1,50,1,0
1430,-133.333333333333,4,2,1,50,0,0
50656,-100,4,2,1,70,0,0
179874,-100,4,2,1,80,0,1
229100,-100,4,2,1,50,0,0
230061,-100,4,2,1,30,0,0
231023,-100,4,2,1,10,0,0
232369,-100,4,2,1,5,0,0

[Colours]
Combo1 : 244,151,209
Combo2 : 255,0,0
Combo3 : 96,165,240
Combo4 : 218,129,248
Combo5 : 167,243,169
SliderBorder : 218,163,248

[HitObjects]
168,232,26043,2,0,P|84:284|204:272,2,292.50001115799,0|0|0,0:0|0:0|0:0,0:0:0:0:
256,192,28735,1,0,0:0:0:0:
344,152,29119,6,0,P|428:100|308:112,2,292.50001115799
256,192,31811,1,0,0:0:0:0:
192,120,32196,6,0,P|132:88|72:132,2,146.250005578995,2|0|0,0:0|0:0|0:0,0:0:0:0:
272,300,34119,1,2,0:0:0:0:
328,220,34503,1,0,0:0:0:0:
384,300,34888,1,0,0:0:0:0:
444,212,35272,6,0,P|516:180|460:80,1,195.00000743866
436,4,36426,2,0,P|356:44|420:136,1,195.00000743866,0|2,0:0|0:0,0:0:0:0:
328,208,37580,1,0,0:0:0:0:
236,236,37964,1,0,0:0:0:0:
252,140,38349,6,0,B|164:104|136:188|44:104,1,195.00000743866,2|0,0:0|0:0,0:0:0:0:
64,220,39503,2,0,B|148:276|224:188|272:260,1,195.00000743866,0|2,0:0|0:0,0:0:0:0:
336,292,40656,1,0,0:0:0:0:
416,236,41041,1,0,0:0:0:0:
428,140,41426,6,0,P|500:88|524:136,2,146.250005578995
288,276,43349,1,2,0:0:0:0:
192,256,43733,1,0,0:0:0:0:
136,176,44118,1,0,0:0:0:0:
160,80,44502,6,0,P|256:20|232:152,1,292.50001115799,2|0,0:0|0:0,0:0:0:0:
256,340,46425,1,2,0:0:0:0:
256,340,46810,1,0,0:0:0:0:
428,252,47579,6,0,P|488:180|472:128,2,146.250005578995,2|0|0,0:0|0:0|0:0,0:0:0:0:
292,112,49502,1,0,0:0:0:0:
200,152,49886,2,0,P|148:136|120:100,2,97.50000371933,0|0|6,0:0|0:0|0:0,0:0:0:0:
276,228,51040,5,0,0:0:0:0:
368,184,51425,2,0,P|456:172|464:252,1,130,2|0,0:0|0:0,0:0:0:0:
408,276,52194,2,0,L|212:336,2,195,2|0|2,0:0|0:0|0:0,0:0:0:0:
352,188,53732,6,0,P|348:104|296:76,1,130,2|0,0:0|0:0,0:0:0:0:
244,156,54501,2,0,P|204:204|120:188,2,130,2|0|2,0:0|0:0|0:0,0:0:0:0:
156,100,55655,1,0,0:0:0:0:
52,120,56040,1,2,0:0:0:0:
8,216,56424,1,0,0:0:0:0:
72,296,56809,6,0,L|224:328,1,130,2|0,0:0|0:0,0:0:0:0:
312,322,57578,2,0,L|440:296,1,130,2|0,0:0|0:0,0:0:0:0:
420,192,58347,1,2,0:0:0:0:
328,144,58732,1,0,0:0:0:0:
240,204,59116,1,2,0:0:0:0:
148,156,59501,1,2,0:0:0:0:
104,252,59885,6,0,P|81:325|188:279,1,260,2|0,0:0|0:0,0:0:0:0:
256,204,61039,1,2,0:0:0:0:
322,282,61424,2,0,P|430:325|408:252,1,260,0|2,0:0|0:0,0:0:0:0:
228,148,62962,6,0,P|225:139|125:127,1,130
112,232,63731,2,0,P|114:240|214:252,1,130,2|0,0:0|0:0,0:0:0:0:
308,208,64500,2,0,P|432:208|488:336,2,260,2|0|2,0:0|0:0|0:0,0:0:0:0:
308,312,66423,5,0,0:0:0:0:
216,264,66808,1,2,0:0:0:0:
116,240,67192,1,0,0:0:0:0:
184,164,67577,2,0,P|220:88|312:36,1,130,2|0,0:0|0:0,0:0:0:0:
304,152,68346,2,0,P|316:232|360:280,2,130,2|0|2,0:0|0:0|0:0,0:0:0:0:
380,80,69500,5,0,0:0:0:0:
464,144,69884,2,0,P|516:224|308:280,1,390,2|0,0:0|0:0,0:0:0:0:
232,236,71423,1,2,0:0:0:0:
296,156,71807,1,2,0:0:0:0:
220,88,72192,6,0,P|21:161|73:241,1,390
160,300,73730,1,2,0:0:0:0:
260,272,74115,2,0,B|300:244|348:300|400:256,1,130,0|2,0:0|0:0,0:0:0:0:
256,100,75269,6,0,B|156:52|80:156|-8:72,2,260,0|2|0,0:0|0:0|0:0,0:0:0:0:
400,252,77576,1,2,0:0:0:0:
296,240,77961,1,2,0:0:0:0:
216,304,78345,6,0,P|92:283|172:207,2,260,2|0|2,0:0|0:0|0:0,0:0:0:0:
264,212,80268,1,0,0:0:0:0:
348,148,80653,1,2,0:0:0:0:
448,180,81037,1,0,0:0:0:0:
480,280,81422,6,0,P|448:356|376:320,1,130,2|0,0:0|0:0,0:0:0:0:
368,260,82191,2,0,P|296:228|240:276,1,130,2|0,0:0|0:0,0:0:0:0:
152,248,82960,1,2,0:0:0:0:
52,268,83345,1,0,0:0:0:0:
28,168,83729,1,2,0:0:0:0:
128,148,84114,1,0,0:0:0:0:
220,100,84498,6,0,B|288:72|344:104|344:104|404:136|480:84,2,260,2|0|2,0:0|0:0|0:0,0:0:0:0:
280,184,86421,1,0,0:0:0:0:
348,264,86806,1,2,0:0:0:0:
300,356,87190,1,0,0:0:0:0:
200,336,87575,6,0,P|104:300|88:136,1,260,2|2,0:0|0:0,0:0:0:0:
180,152,88729,1,2,0:0:0:0:
224,56,89113,2,0,P|320:92|347:234,1,260,2|0,0:0|0:0,0:0:0:0:
244,244,90267,1,2,0:0:0:0:
168,172,90652,6,0,B|120:136|80:216|24:136,1,130,2|0,0:0|0:0,0:0:0:0:
24,260,91421,2,0,B|60:316|100:236|148:272,1,130,2|0,0:0|0:0,0:0:0:0:
220,336,92190,2,0,P|287:358|308:288,1,130,0|2,0:0|0:0,0:0:0:0:
252,232,92959,1,2,0:0:0:0:
188,148,93344,1,2,0:0:0:0:
132,60,93728,6,0,P|256:16|344:112,1,260,2|2,0:0|0:0,0:0:0:0:
272,176,94882,1,0,0:0:0:0:
300,276,95267,2,0,P|248:324|192:304,2,130,0|2|2,0:0|0:0|0:0,0:0:0:0:
376,204,96420,1,0,0:0:0:0:
316,120,96805,6,0,L|156:88,1,130,2|0,0:0|0:0,0:0:0:0:
236,188,97574,2,0,L|100:160,1,130,2|0,0:0|0:0,0:0:0:0:
56,252,98343,1,2,0:0:0:0:
148,304,98728,1,2,0:0:0:0:
252,304,99112,1,0,0:0:0:0:
348,264,99497,6,0,P|395:247|445:187,1,130,2|4,0:0|0:0,0:0:0:0:
424,84,100266,1,2,0:0:0:0:
324,128,100651,2,0,P|236:176|200:328,1,260,2|0,0:0|0:0,0:0:0:0:
296,360,101804,1,2,0:0:0:0:
356,272,102189,2,0,L|112:144,1,260,2|0,0:0|0:0,0:0:0:0:
132,48,103343,5,2,0:0:0:0:
232,80,103727,2,0,P|194:226|106:274,1,260,2|0,0:0|0:0,0:0:0:0:
16,224,104881,1,2,0:0:0:0:
112,188,105266,1,2,0:0:0:0:
204,240,105650,2,0,P|248:304|320:296,1,130
300,204,106419,5,2,0:0:0:0:
212,148,106804,2,0,P|197:60|68:56,2,195,2|0|2,0:0|0:0|0:0,0:0:0:0:
212,252,108342,2,0,P|197:339|68:344,2,195,2|0|2,0:0|0:0|0:0,0:0:0:0:
124,192,109881,2,0,L|408:192,1,260,2|0,0:0|0:0,0:0:0:0:
376,88,111034,5,2,0:0:0:0:
464,140,111419,1,2,0:0:0:0:
464,244,111804,1,0,0:0:0:0:
376,296,112188,1,0,0:0:0:0:
292,236,112573,6,0,P|240:192|136:236,2,130,2|2|2,0:0|0:0|0:0,0:0:0:0:
272,284,113534,1,0,0:0:0:0:
296,332,113726,1,0,0:0:0:0:
388,284,114111,2,0,P|436:316|528:288,2,130,2|2|2,0:0|0:0|0:0,0:0:0:0:
408,236,115072,1,0,0:0:0:0:
384,192,115265,1,0,0:0:0:0:
300,128,115649,6,0,P|236:84|148:76,2,130,2|0|2,0:0|0:0|0:0,0:0:0:0:
216,192,116803,2,0,P|148:172|188:296,1,260,2|2,0:0|0:0,0:0:0:0:
268,280,117957,1,0,0:0:0:0:
348,344,118341,1,0,0:0:0:0:
428,276,118726,6,0,L|512:148,1,130,2|0,0:0|0:0,0:0:0:0:
416,108,119495,2,0,P|444:72|472:60,2,65,2|0|0,0:0|0:0|0:0,0:0:0:0:
316,140,120264,1,2,0:0:0:0:
240,212,120649,1,2,0:0:0:0:
204,308,121033,2,0,P|181:342|148:349,2,65,2|0|0,0:0|0:0|0:0,0:0:0:0:
308,300,121803,5,2,0:0:0:0:
396,248,122187,2,0,P|468:236|520:292,2,130,0|2|0,0:0|0:0|0:0,0:0:0:0:
304,204,123341,2,0,L|308:136,2,65,2|0|2,0:0|0:0|0:0,0:0:0:0:
216,260,124110,1,0,0:0:0:0:
168,352,124495,1,0,0:0:0:0:
135,168,130648,6,0,P|128:132|188:72,1,130,6|0,0:0|0:0,0:0:0:0:
256,144,131417,1,0,0:0:0:0:
324,72,131802,2,0,P|384:132|344:200,1,130,0|2,0:0|0:0,0:0:0:0:
408,268,132571,1,0,0:0:0:0:
308,244,132955,1,2,0:0:0:0:
208,272,133340,6,0,P|148:312|112:280,1,130,0|2,0:0|0:0,0:0:0:0:
32,216,134109,1,0,0:0:0:0:
68,124,134494,1,2,0:0:0:0:
148,56,134878,2,0,P|208:24|280:40,1,130,0|2,0:0|0:0,0:0:0:0:
364,68,135647,1,0,0:0:0:0:
288,136,136032,1,2,0:0:0:0:
388,168,136417,1,0,0:0:0:0:
308,236,136801,6,0,B|244:344|124:252|84:368,1,260,2|0,0:0|0:0,0:0:0:0:
68,252,137955,1,0,0:0:0:0:
80,200,138147,1,2,0:0:0:0:
112,160,138339,2,0,P|152:116|268:128,2,130,2|0|2,0:0|0:0|0:0,0:0:0:0:
200,216,139493,5,0,0:0:0:0:
248,196,139685,1,2,0:0:0:0:
288,228,139878,2,0,P|372:300|472:244,2,195,0|2|2,0:0|0:0|0:0,0:0:0:0:
384,184,141416,2,0,P|324:92|152:144,1,260,2|0,0:0|0:0,0:0:0:0:
192,204,142570,6,0,P|128:236|64:212,1,130,0|6,0:0|0:0,0:0:0:0:
4,144,143339,1,0,0:0:0:0:
40,48,143724,1,2,0:0:0:0:
112,124,144108,1,0,0:0:0:0:
148,88,144300,1,0,0:0:0:0:
188,52,144493,2,0,B|272:36|352:96|460:52,1,260,2|2,0:0|0:0,0:0:0:0:
416,156,145646,1,0,0:0:0:0:
460,248,146031,6,0,B|384:284|288:208|192:248,1,260,2|2,0:0|0:0,0:0:0:0:
116,192,147185,1,0,0:0:0:0:
160,104,147569,2,0,B|232:48|280:148|360:72,2,195,2|2|0,0:0|0:0|0:0,0:0:0:0:
92,180,149108,5,2,0:0:0:0:
160,256,149492,1,0,0:0:0:0:
264,284,149877,2,0,P|368:288|404:224,1,130,2|2,0:0|0:0,0:0:0:0:
381,223,150454,1,0,0:0:0:0:
381,171,150646,1,2,0:0:0:0:
316,92,151030,2,0,P|232:80|236:160,2,130,0|2|0,0:0|0:0|0:0,0:0:0:0:
280,188,152184,1,0,0:0:0:0:
152,284,152761,6,0,L|64:212,1,65,0|2,0:0|0:0,0:0:0:0:
112,140,153338,1,0,0:0:0:0:
104,36,153723,1,2,0:0:0:0:
200,80,154107,1,0,0:0:0:0:
244,56,154299,1,0,0:0:0:0:
288,80,154492,2,0,P|356:88|280:200,1,260,2|4,0:0|0:0,0:0:0:0:
256,304,155645,5,2,0:0:0:0:
156,272,156030,2,0,P|92:204|212:212,1,260,2|0,0:0|0:0,0:0:0:0:
256,92,157184,1,2,0:0:0:0:
306,184,157568,2,0,P|420:204|356:272,1,260,2|0,0:0|0:0,0:0:0:0:
256,300,158722,5,2,0:0:0:0:
180,232,159107,2,0,P|104:172|44:176,1,130,2|0,0:0|0:0,0:0:0:0:
116,72,159876,1,2,0:0:0:0:
216,96,160260,1,0,0:0:0:0:
288,172,160645,1,2,0:0:0:0:
316,272,161030,1,0,0:0:0:0:
384,352,161414,6,0,P|468:352|488:276,2,130,0|2|2,0:0|0:0|0:0,0:0:0:0:
408,252,162568,1,2,0:0:0:0:
432,208,162760,1,2,0:0:0:0:
404,164,162952,2,0,P|332:112|268:128,1,130,0|2,0:0|0:0,0:0:0:0:
200,68,163722,2,0,B|124:120|208:188|120:256,1,195,2|2,0:0|0:0,0:0:0:0:
104,284,164491,1,0,0:0:0:0:
204,308,164875,5,2,0:0:0:0:
252,216,165260,2,0,P|372:208|396:340,1,260,2|0,0:0|0:0,0:0:0:0:
500,280,166414,1,0,0:0:0:0:
480,176,166798,1,2,0:0:0:0:
448,136,166991,1,0,0:0:0:0:
404,112,167183,1,0,0:0:0:0:
300,104,167567,6,0,P|240:80|200:140,2,130,0|2|2,0:0|0:0|0:0,0:0:0:0:
268,204,168721,1,2,0:0:0:0:
224,232,168913,2,0,B|148:316|120:224|40:272,1,195,0|2,0:0|0:0,0:0:0:0:
24,168,169875,2,0,B|104:177|111:84|204:138,1,195,2|2,0:0|0:0,0:0:0:0:
256,148,170644,1,0,0:0:0:0:
344,92,171029,6,0,P|400:52|492:92,2,130,2|0|2,0:0|0:0|0:0,0:0:0:0:
404,180,172182,1,2,0:0:0:0:
400,284,172567,1,0,0:0:0:0:
308,336,172951,1,2,0:0:0:0:
264,308,173144,1,0,0:0:0:0:
220,336,173336,1,2,0:0:0:0:
156,248,173721,6,0,P|72:236|44:152,2,130,0|2|2,0:0|0:0|0:0,0:0:0:0:
212,160,174874,1,0,0:0:0:0:
240,116,175067,1,2,0:0:0:0:
272,76,175259,2,0,P|312:32|384:28,1,130,0|2,0:0|0:0,0:0:0:0:
448,108,176028,2,0,P|504:160|432:244,1,195,2|2,0:0|0:0,0:0:0:0:
446,243,176797,1,0,0:0:0:0:
344,228,177182,6,0,P|256:204|200:252,2,130,2|0|2,0:0|0:0|0:0,0:0:0:0:
388,256,178143,1,2,0:0:0:0:
256,192,178336,12,6,179874,0:0:0:0:
192,104,180643,6,0,B|136:64|56:112|40:204,1,195,10|0,0:0|0:0,0:0:0:0:
44,236,181412,1,2,0:0:0:0:
128,300,181797,1,2,0:0:0:0:
168,332,181989,1,0,0:0:0:0:
212,300,182181,1,8,0:0:0:0:
260,208,182566,1,0,0:0:0:0:
332,136,182951,6,0,P|392:88|480:88,2,130,2|0|8,0:0|0:0|0:0,0:0:0:0:
396,216,184104,1,0,0:0:0:0:
428,260,184297,1,2,0:0:0:0:
416,312,184489,1,0,0:0:0:0:
316,280,184873,1,0,0:0:0:0:
268,264,185066,1,0,0:0:0:0:
240,220,185258,2,0,P|216:148|248:100,2,130,10|0|2,0:0|0:0|0:0,0:0:0:0:
156,284,186412,6,0,L|88:264,2,65,0|0|10,0:0|0:0|0:0,0:0:0:0:
208,196,187181,1,0,0:0:0:0:
120,144,187565,1,2,0:0:0:0:
208,88,187950,2,0,P|268:52|360:68,2,130,0|8|0,0:0|0:0|0:0,0:0:0:0:
268,172,189104,5,2,0:0:0:0:
372,176,189488,2,0,P|404:136|440:128,2,65,0|0|8,0:0|0:0|0:0,0:0:0:0:
316,264,190257,1,0,0:0:0:0:
280,300,190450,1,0,0:0:0:0:
228,312,190642,2,0,P|88:184|320:152,1,520,2|2,0:0|0:0,0:0:0:0:
392,320,192950,6,0,P|340:252|384:188,1,130,10|0,0:0|0:0,0:0:0:0:
448,176,193719,2,0,P|492:128|460:64,2,130,2|0|8,0:0|0:0|0:0,0:0:0:0:
364,112,194872,1,0,0:0:0:0:
312,112,195065,1,0,0:0:0:0:
260,112,195257,6,0,P|204:112|152:52,1,130,2|0,0:0|0:0,0:0:0:0:
96,148,196026,2,0,P|140:200|224:212,1,130,8|2,0:0|0:0,0:0:0:0:
300,204,196795,1,2,0:0:0:0:
352,296,197180,1,0,0:0:0:0:
408,208,197564,2,0,P|452:176|312:104,1,260,8|0,0:0|0:0,0:0:0:0:
252,68,198718,6,0,L|184:20,2,65,2|0|10,0:0|0:0|0:0,0:0:0:0:
216,164,199487,1,0,0:0:0:0:
128,224,199872,2,0,P|32:188|136:96,2,260,2|8|2,0:0|0:0|0:0,0:0:0:0:
208,292,201795,1,0,0:0:0:0:
252,264,201987,1,0,0:0:0:0:
296,292,202179,2,0,P|384:312|432:264,1,130,8|0,0:0|0:0,0:0:0:0:
256,192,202949,12,4,204487,0:0:0:0:
88,304,205256,5,10,0:0:0:0:
176,248,205641,1,0,0:0:0:0:
232,160,206025,2,0,P|356:164|312:248,1,260,2|8,0:0|0:0,0:0:0:0:
372,332,207179,1,2,0:0:0:0:
416,304,207371,1,0,0:0:0:0:
432,256,207564,6,0,P|460:196|432:120,1,130,2|0,0:0|0:0,0:0:0:0:
344,168,208333,2,0,P|368:116|336:32,1,130,8|2,0:0|0:0,0:0:0:0:
260,96,209102,2,0,P|180:148|24:84,1,260,2|8,0:0|0:0,0:0:0:0:
76,4,210256,1,2,0:0:0:0:
172,44,210640,2,0,P|152:152|280:212,1,260,0|10,0:0|0:0,0:0:0:0:
336,136,211794,5,0,0:0:0:0:
440,148,212178,1,0,0:0:0:0:
488,240,212563,1,2,0:0:0:0:
428,328,212948,1,8,0:0:0:0:
324,320,213332,2,0,P|248:308|204:344,1,130,0|2,0:0|0:0,0:0:0:0:
132,264,214101,5,0,0:0:0:0:
100,224,214294,1,0,0:0:0:0:
120,176,214486,2,0,P|112:112|164:48,1,130,8|2,0:0|0:0,0:0:0:0:
248,72,215255,2,0,L|300:28,2,65,2|0|0,0:0|0:0|0:0,0:0:0:0:
236,176,216024,2,0,L|344:284,1,130,8|2,0:0|0:0,0:0:0:0:
428,300,216793,6,0,P|477:194|334:143,2,260,6|4|2,0:0|0:0|0:0,0:0:0:0:
324,288,218716,1,2,0:0:0:0:
232,340,219101,1,8,0:0:0:0:
132,312,219485,1,0,0:0:0:0:
104,216,219870,6,0,P|152:160|136:96,2,130,2|0|8,0:0|0:0|0:0,0:0:0:0:
44,132,221024,1,2,0:0:0:0:
76,32,221408,2,0,P|180:3|246:134,1,260,2|8,0:0|0:0,0:0:0:0:
352,104,222562,1,2,0:0:0:0:
400,196,222947,6,0,B|336:228|433:275|357:306,1,130,2|0,0:0|0:0,0:0:0:0:
320,328,223524,1,0,0:0:0:0:
272,308,223716,1,10,0:0:0:0:
188,248,224100,6,0,P|112:236|100:176,1,130,2|2,0:0|0:0,0:0:0:0:
188,144,224870,1,2,0:0:0:0:
196,40,225254,2,8,P|272:52|284:112,1,130
332,180,226023,6,0,P|420:292|372:116,1,520,2|0,0:0|0:0,0:0:0:0:
428,200,227946,1,0,0:0:0:0:
428,200,228331,1,8,0:0:0:0:
256,192,229100,12,4,232369,0:0:0:0:
