osu file format v12

[General]
AudioFilename: Sound Sepher - Ghostly Band Phantom Ensemble.mp3
AudioLeadIn: 0
PreviewTime: 179495
Countdown: 0
SampleSet: Soft
StackLeniency: 0.7
Mode: 0
LetterboxInBreaks: 0

[Editor]
Bookmarks: 25668,61413,112196,123036,184466,228815
DistanceSpacing: 0.8
BeatDivisor: 4
GridSize: 4

[Metadata]
Title:Ghostly Band ~ Phantom Ensemble
TitleUnicode:Ghostly Band ~ Phantom Ensemble
Artist:ESTi
ArtistUnicode:ESTi
Creator:Arusha Shuna
Version:Hard
Source:Touhou
Tags:lunasa merlin lyrica prismriver perfect cherry blossom sound sepher cradle
BeatmapID:171577
BeatmapSetID:56799

[Difficulty]
HPDrainRate:6
CircleSize:4
OverallDifficulty:6
ApproachRate:7
SliderMultiplier:1.6
SliderTickRate:1

[Events]
//Background and Video events
0,0,"bg.jpg",0,0
//Break Periods
2,124694,129165
//Storyboard Layer 0 (Background)
//Storyboard Layer 1 (Fail)
//Storyboard Layer 2 (Pass)
//Storyboard Layer 3 (Foreground)
//Storyboard Sound Samples
//Background Colour Transformations
3,100,163,162,255

[TimingPoints]
1430,384.578405922508,4,2,1,40,1,0
1430,-133.333333333333,4,2,1,40,0,0
50656,-100,4,2,1,60,0,0
179874,-100,4,2,1,70,0,1
229100,-100,4,2,1,40,0,0
230061,-100,4,2,1,20,0,0
231023,-100,4,2,1,10,0,0
232369,-100,4,2,1,5,0,0

[Colours]
Combo1 : 167,243,169
Combo2 : 255,0,0
Combo3 : 96,165,240
Combo4 : 218,129,248
SliderBorder : 218,163,248

[HitObjects]
156,64,26043,6,0,B|72:136|156:248,2,180.000006866455,2|0|0,0:0|0:0|0:0,0:0:0:0:
156,64,27389,1,0,0:0:0:0:
296,92,27773,1,0,0:0:0:0:
332,28,27965,2,0,B|376:56|376:108|352:136,1,120.000004577637,2|0,0:0|0:0,0:0:0:0:
424,152,28542,2,0,B|406:204|356:212|320:196,1,120.000004577637
268,240,29119,5,2,0:0:0:0:
212,196,29311,2,0,P|192:224|188:264,1,60.0000022888184,2|0,0:0|0:0,0:0:0:0:
144,168,29696,2,0,P|208:124|256:140,2,120.000004577637
356,72,30850,1,0,0:0:0:0:
412,104,31042,2,0,B|388:152|360:168,1,59.9999982118607,2|0,0:0|0:0,0:0:0:0:
436,184,31427,2,0,B|412:228|380:248,1,59.9999982118607,0|0,0:0|0:0,0:0:0:0:
460,264,31811,1,0,0:0:0:0:
328,288,32196,6,0,B|272:248|192:268|172:352,2,180.000006866455
328,288,33542,1,0,0:0:0:0:
432,128,33926,2,0,B|460:112|452:64,2,59.9999982118607,0|2|2,0:0|0:0|0:0,0:0:0:0:
412,172,34503,2,0,B|380:192|380:240,1,59.9999982118607
400,264,34888,1,0,0:0:0:0:
180,208,35272,6,0,B|163:145|117:145|81:142|72:66,1,180.000006866455,2|0,0:0|0:0,0:0:0:0:
180,324,36426,1,0,0:0:0:0:
180,324,36618,1,0,0:0:0:0:
316,276,37003,2,0,B|380:276,2,59.9999982118607,0|2|2,0:0|0:0|0:0,0:0:0:0:
348,216,37580,2,0,B|460:216,2,89.9999973177911,0|2|2,0:0|0:0|0:0,0:0:0:0:
320,156,38349,6,0,B|276:100|216:92|148:100|108:164,1,239.999992847443,2|0,0:0|0:0,0:0:0:0:
113,288,39503,2,0,B|147:344|215:352|275:344|319:288,1,239.999992847443,0|2,0:0|0:0,0:0:0:0:
217,220,40656,1,0,0:0:0:0:
217,220,41041,1,0,0:0:0:0:
120,112,41426,6,0,B|131:25|50:14,1,119.999996423721,2|0,0:0|0:0,0:0:0:0:
52,84,42003,2,0,B|44:144|64:176|116:200|155:178|164:160,1,179.999994635582,2|0,0:0|0:0,0:0:0:0:
188,104,42772,1,0,0:0:0:0:
260,120,42964,6,0,B|281:111|281:111|299:102|320:110|341:127|339:150|331:171|313:180|313:180|287:192|287:192|269:202|253:221|254:251|260:266|260:266|264:273,2,239.999992847443,2|0|2,0:0|0:0|0:0,0:0:0:0:
264,128,45079,1,2,0:0:0:0:
268,136,45656,2,0,B|232:172|236:212,1,59.9999982118607
316,288,46233,2,0,B|352:260|352:224,2,59.9999982118607,0|2|2,0:0|0:0|0:0,0:0:0:0:
244,276,46810,2,0,B|192:248|120:256,1,119.999996423721
80,104,47579,6,0,B|160:80|212:128,1,119.999996423721,2|0,0:0|0:0,0:0:0:0:
264,132,48156,2,0,B|328:164|408:160|448:140,1,179.999994635582
439,143,48925,1,0,0:0:0:0:
336,240,49310,1,0,0:0:0:0:
336,240,49502,1,2,0:0:0:0:
336,240,49694,1,2,0:0:0:0:
336,240,49886,2,0,B|380:196|440:216,2,89.9999973177911,2|0|2,0:0|0:0|0:0,0:0:0:0:
264,288,50656,6,0,B|184:344|84:304,2,160,2|0|2,0:0|0:0|0:0,0:0:0:0:
312,208,51617,1,0,0:0:0:0:
264,136,51809,1,2,0:0:0:0:
176,136,52002,1,0,0:0:0:0:
104,188,52194,2,0,B|64:220|12:208,2,80,2|0|2,0:0|0:0|0:0,0:0:0:0:
88,100,52771,2,0,B|136:40|228:24,1,160,2|0,0:0|0:0,0:0:0:0:
312,44,53348,1,2,0:0:0:0:
312,44,53732,6,0,B|356:68|344:124,1,80,2|0,0:0|0:0,0:0:0:0:
428,72,54117,1,0,0:0:0:0:
428,160,54309,1,2,0:0:0:0:
372,228,54501,2,0,B|324:280|360:328,1,80,0|2,0:0|0:0,0:0:0:0:
288,208,54886,1,0,0:0:0:0:
288,208,55270,6,0,B|120:156,1,160,2|0,0:0|0:0,0:0:0:0:
264,124,55847,2,0,B|100:72,1,160,2|2,0:0|0:0,0:0:0:0:
52,140,56424,1,0,0:0:0:0:
56,228,56617,1,0,0:0:0:0:
108,300,56809,6,0,B|172:340|204:324,1,80,2|0,0:0|0:0,0:0:0:0:
188,240,57193,1,2,0:0:0:0:
188,240,57386,2,0,B|260:208|328:232|368:264,1,160,2|0,0:0|0:0,0:0:0:0:
332,160,57963,1,2,0:0:0:0:
160,80,58347,6,0,B|112:60|80:92|52:104|0:80,2,160,0|2|0,0:0|0:0|0:0,0:0:0:0:
228,152,59309,1,0,0:0:0:0:
232,240,59501,1,2,0:0:0:0:
168,300,59693,1,0,0:0:0:0:
84,332,59885,6,0,B|176:312|256:352,1,160,2|0,0:0|0:0,0:0:0:0:
324,324,60462,1,2,0:0:0:0:
408,348,60655,1,0,0:0:0:0:
460,276,60847,1,2,0:0:0:0:
460,276,61039,2,0,B|488:216|464:112,1,160,0|2,0:0|0:0,0:0:0:0:
312,32,61808,2,0,B|296:100|332:128,1,80,0|2,0:0|0:0,0:0:0:0:
228,100,62193,6,0,B|256:160|224:212,1,80,2|2,0:0|0:0,0:0:0:0:
176,336,62577,2,0,B|152:292|184:252,1,80,2|0,0:0|0:0,0:0:0:0:
272,256,62962,6,0,B|309:217|357:221|392:256|388:296,1,160,0|2,0:0|0:0,0:0:0:0:
480,324,63539,1,2,0:0:0:0:
492,228,63731,1,0,0:0:0:0:
432,156,63923,2,0,B|432:124|396:84|348:80|304:124,1,160,0|2,0:0|0:0,0:0:0:0:
328,24,64500,2,0,B|252:92|148:24,1,160,2|0,0:0|0:0,0:0:0:0:
68,24,65077,1,2,0:0:0:0:
72,112,65270,1,0,0:0:0:0:
124,184,65462,2,0,B|156:232|112:292,2,80,2|0|2,0:0|0:0|0:0,0:0:0:0:
220,264,66039,6,0,B|292:228|360:272|376:336,1,160,2|0,0:0|0:0,0:0:0:0:
380,216,66616,1,0,0:0:0:0:
332,140,66808,2,0,B|368:108|368:68,2,80,2|0|2,0:0|0:0|0:0,0:0:0:0:
252,180,67385,1,2,0:0:0:0:
252,88,67577,6,0,B|168:124,1,80
184,28,67962,2,0,B|88:72,1,80,2|0,0:0|0:0,0:0:0:0:
68,140,68346,1,0,0:0:0:0:
112,216,68538,2,0,B|164:260|144:340|88:360,1,160,2|0,0:0|0:0,0:0:0:0:
232,284,69115,1,2,0:0:0:0:
232,284,69500,6,0,B|296:280|328:312,1,80
324,212,69884,1,2,0:0:0:0:
396,264,70077,1,0,0:0:0:0:
468,212,70269,1,0,0:0:0:0:
396,160,70461,1,2,0:0:0:0:
324,112,70654,6,0,P|240:100|204:164,1,160
248,240,71230,2,0,P|173:243|108:168,2,160,2|2|0,0:0|0:0|0:0,0:0:0:0:
312,304,72192,6,0,B|396:272|476:316,2,160,2|0|2,0:0|0:0|0:0,0:0:0:0:
316,216,73153,2,0,B|316:52,1,160,2|0,0:0|0:0,0:0:0:0:
236,160,73730,2,0,B|236:64,1,80,2|0,0:0|0:0,0:0:0:0:
160,36,74115,1,0,0:0:0:0:
92,92,74307,2,0,B|56:136|14:148,1,80,0|2,0:0|0:0,0:0:0:0:
31,141,75269,6,0,B|124:112|180:200,2,160,0|0|2,0:0|0:0|0:0,0:0:0:0:
64,224,76230,1,0,0:0:0:0:
128,284,76422,2,0,B|196:272|232:328|316:308,2,160,2|2|0,0:0|0:0|0:0,0:0:0:0:
284,204,77576,6,0,B|344:168|412:216|392:292,2,160,2|2|2,0:0|0:0|0:0,0:0:0:0:
148,92,78730,2,0,B|96:80|64:28,1,80,0|2,0:0|0:0,0:0:0:0:
128,168,79114,2,0,B|184:336,1,160,2|0,0:0|0:0,0:0:0:0:
352,356,79883,5,2,0:0:0:0:
244,260,80268,1,0,0:0:0:0:
368,188,80653,1,2,0:0:0:0:
248,112,81037,2,0,B|204:80|204:24,1,80,0|2,0:0|0:0,0:0:0:0:
296,40,81422,6,0,B|372:24|432:92|424:140,2,160,2|0|2,0:0|0:0|0:0,0:0:0:0:
332,212,82576,1,2,0:0:0:0:
384,284,82768,1,0,0:0:0:0:
296,292,82960,2,0,B|272:328|184:328|144:292,2,160,2|0|2,0:0|0:0|0:0,0:0:0:0:
296,292,84114,1,0,0:0:0:0:
216,136,84498,6,0,B|80:224,1,160,2|0,0:0|0:0,0:0:0:0:
184,268,85075,1,2,0:0:0:0:
184,268,85268,2,0,B|268:228|336:288,1,160,2|0,0:0|0:0,0:0:0:0:
416,256,85844,1,0,0:0:0:0:
372,176,86037,2,0,B|388:0,1,160,2|0,0:0|0:0,0:0:0:0:
280,212,86806,2,0,B|296:36,1,160,2|0,0:0|0:0,0:0:0:0:
124,96,87575,6,0,B|84:136|52:140,1,80,2|0,0:0|0:0,0:0:0:0:
140,176,87960,2,0,B|120:224|60:248,1,80,0|2,0:0|0:0,0:0:0:0:
172,260,88344,2,0,B|264:224|320:304,1,160,0|2,0:0|0:0,0:0:0:0:
388,344,88921,1,0,0:0:0:0:
436,268,89113,2,0,B|372:204|424:112,2,160,2|0|2,0:0|0:0|0:0,0:0:0:0:
332,128,90267,1,0,0:0:0:0:
164,72,90652,5,2,0:0:0:0:
96,16,90844,2,0,B|52:104,1,80
8,160,91229,1,2,0:0:0:0:
80,204,91421,2,0,B|168:168|236:244,1,160,2|0,0:0|0:0,0:0:0:0:
312,208,91998,1,0,0:0:0:0:
268,128,92190,2,0,B|328:108|376:160|448:120,2,160,2|0|2,0:0|0:0|0:0,0:0:0:0:
196,288,93344,1,0,0:0:0:0:
368,332,93728,6,0,B|440:292|348:224|432:188,1,160,2|0,0:0|0:0,0:0:0:0:
376,116,94305,2,0,B|328:172|276:172,1,80,0|2,0:0|0:0,0:0:0:0:
180,160,94690,2,0,B|208:128|248:112,1,80
172,272,95267,2,0,B|120:352,1,80,2|0,0:0|0:0,0:0:0:0:
112,204,95651,2,0,B|68:280,1,80,0|2,0:0|0:0,0:0:0:0:
196,184,96036,2,0,B|224:184|224:184|248:184|264:160|264:136|248:112|224:112|224:112|192:112,1,160,2|0,0:0|0:0,0:0:0:0:
200,112,96805,6,0,B|384:112,1,160,2|0,0:0|0:0,0:0:0:0:
460,256,97574,2,0,B|460:160,1,80,2|0,0:0|0:0,0:0:0:0:
388,228,97959,1,2,0:0:0:0:
364,312,98151,1,2,0:0:0:0:
288,352,98343,2,0,B|232:332|200:364,1,80,0|2,0:0|0:0,0:0:0:0:
236,224,98728,2,0,B|184:236|176:288,1,80,2|2,0:0|0:0,0:0:0:0:
116,160,99112,2,0,B|88:200|108:236,1,80,2|0,0:0|0:0,0:0:0:0:
20,156,99497,5,0,0:0:0:0:
64,80,99689,1,2,0:0:0:0:
140,40,99882,2,0,B|196:12|268:52|284:128,1,160,6|0,0:0|0:0,0:0:0:0:
452,212,100651,2,0,B|396:240|324:200|308:124,1,160,2|2,0:0|0:0,0:0:0:0:
404,132,101228,2,0,B|352:320,1,160
276,264,101804,6,0,B|224:336|124:304,2,160,2|2|2,0:0|0:0|0:0,0:0:0:0:
140,200,102766,1,0,0:0:0:0:
140,200,102958,2,0,B|180:152|160:76|84:76,1,160,0|2,0:0|0:0,0:0:0:0:
12,108,103535,5,0,0:0:0:0:
36,200,103727,2,0,B|0:252|32:320|116:312,1,160,2|2,0:0|0:0,0:3:0:0:
188,276,104304,2,0,B|236:224|296:228|360:264,1,160,2|2,0:0|0:0,0:0:0:0:
464,144,104881,6,0,B|560:88,1,80,2|2,0:0|0:0,0:0:0:0:
400,208,105266,2,0,B|480:248,1,80,2|0,0:0|0:0,0:0:0:0:
320,220,105650,2,0,B|320:328,1,80,0|2,0:0|0:0,0:0:0:0:
224,320,106035,6,0,B|160:276|124:380|56:300,1,160,0|2,0:0|0:0,0:0:0:0:
80,228,106612,1,0,0:0:0:0:
148,168,106804,2,0,B|184:116|152:40|80:24,1,160,2|2,0:0|0:0,0:0:0:0:
72,116,107381,2,0,B|252:60,1,160
312,72,107958,6,0,B|344:116|316:180,1,80,2|0,0:0|0:0,0:0:0:0:
408,120,108342,2,0,B|408:64|444:36,2,80,2|0|2,0:0|0:0|0:0,0:0:0:0:
492,148,108919,2,0,B|464:244|376:288,1,160
328,240,109496,6,0,B|420:288|384:400,1,160,2|0,0:0|0:0,0:0:0:0:
300,336,110073,1,2,0:0:0:0:
224,292,110265,1,2,0:0:0:0:
208,204,110457,2,0,B|196:144|240:92|296:92,1,160,2|0,0:0|0:0,0:0:0:0:
340,16,111034,5,2,0:0:0:0:
252,20,111227,1,2,0:0:0:0:
172,56,111419,1,2,0:0:0:0:
120,128,111611,1,0,0:0:0:0:
96,212,111804,2,0,B|84:248|48:284,1,80,2|0,0:0|0:0,0:0:0:0:
116,344,112188,6,0,B|172:292|188:228|192:192,1,160,0|2,0:0|0:0,0:0:0:0:
244,136,112765,1,0,0:0:0:0:
320,88,112957,2,0,B|380:96|424:160|416:224,1,160,2|2,0:0|0:0,0:0:0:0:
500,168,113534,2,0,B|516:272|444:328,1,160,2|0,0:0|0:0,0:0:0:0:
372,308,114111,6,0,B|320:288|276:332,1,80,2|0,0:0|0:0,0:0:0:0:
300,228,114496,2,0,B|232:256|188:208|200:136|260:144,1,160,2|2,0:0|0:0,0:0:0:0:
144,120,115072,2,0,B|176:112|185:61|141:13|73:41,1,160
40,116,115649,5,2,0:0:0:0:
124,272,116034,2,0,B|180:348|280:328,1,160,2|2,0:0|0:0,0:0:0:0:
364,252,116611,2,0,B|308:176|208:196,1,160,2|2,0:0|0:0,0:0:0:0:
140,164,117188,1,2,0:0:0:0:
68,212,117380,1,0,0:0:0:0:
64,124,117572,1,2,0:0:0:0:
140,80,117764,1,0,0:0:0:0:
216,120,117957,2,0,B|308:120,1,80,2|2,0:0|0:0,0:0:0:0:
252,196,118341,6,0,B|440:196,1,160,0|2,0:0|0:0,0:0:0:0:
480,140,118918,1,0,0:0:0:0:
396,112,119110,2,0,B|336:112|336:112|312:112|292:96|292:72|292:72|292:32,1,160,2|2,0:0|0:0,0:0:0:0:
203,37,119687,2,0,B|203:71|203:71|203:95|183:111|159:111|159:111|99:111,1,160,0|2,0:0|0:0,0:0:0:0:
80,28,120264,6,0,B|64:28|64:28|44:28|28:44|28:68|28:68|28:100,1,80,2|0,0:0|0:0,0:0:0:0:
28,160,120649,2,0,B|28:184|28:184|28:208|48:224|76:228|96:252|96:276|96:276|96:312,1,160,2|2,0:0|0:0,0:0:0:0:
24,348,121226,2,0,B|60:300|128:304|160:336|176:352,1,160
200,260,121803,6,0,B|256:312|348:312,1,160,2|0,0:0|0:0,0:0:0:0:
424,268,122379,1,2,0:0:0:0:
456,184,122572,1,2,0:0:0:0:
420,104,122764,2,0,B|396:52|332:56,1,80,2|0,0:0|0:0,0:0:0:0:
176,296,123341,6,0,B|180:244|228:220,1,80
336,296,123725,2,0,B|332:244|284:220,1,80
200,108,124110,2,0,P|248:156|308:106,1,160
256,132,130071,5,0,0:0:0:0:
152,88,130263,1,0,0:0:0:0:
148,96,130359,1,0,0:0:0:0:
144,104,130456,1,0,0:0:0:0:
140,112,130552,1,0,0:0:0:0:
136,120,130648,6,0,B|172:156|152:220,1,80,2|0,0:0|0:0,0:0:0:0:
200,272,131032,1,0,0:0:0:0:
276,224,131225,1,0,0:0:0:0:
364,240,131417,1,2,0:0:0:0:
404,320,131609,2,0,B|452:312|480:364,1,80,0|2,0:0|0:0,0:0:0:0:
492,264,131994,1,0,0:0:0:0:
460,184,132186,1,2,0:0:0:0:
276,164,132378,6,0,B|224:164|200:224,1,80
140,256,132763,1,0,0:0:0:0:
128,172,132955,1,2,0:0:0:0:
180,100,133148,2,0,B|212:48|172:12,1,80,0|2,0:0|0:0,0:0:0:0:
268,56,133532,1,0,0:0:0:0:
356,64,133724,1,2,0:0:0:0:
340,252,133917,6,0,B|400:248|428:296,1,80
436,360,134301,1,0,0:0:0:0:
496,296,134494,1,2,0:0:0:0:
472,212,134686,2,0,B|432:184|448:136,1,80,0|2,0:0|0:0,0:0:0:0:
372,84,135070,1,2,0:0:0:0:
308,152,135263,2,0,B|324:212|272:284|232:288,1,160,2|0,0:0|0:0,0:0:0:0:
56,188,136032,2,0,B|40:128|92:56|132:52,1,160,2|0,0:0|0:0,0:0:0:0:
390,122,136801,6,0,B|401:26,1,80,2|0,0:0|0:0,0:0:0:0:
471,86,137186,1,0,0:0:0:0:
460,174,137378,1,0,0:0:0:0:
380,208,137570,1,2,0:0:0:0:
309,156,137763,1,0,0:0:0:0:
320,69,137955,1,2,0:0:0:0:
240,104,138147,1,0,0:0:0:0:
146,226,138339,6,0,B|134:321,1,80,2|0,0:0|0:0,0:0:0:0:
65,262,138724,1,0,0:0:0:0:
76,174,138916,1,0,0:0:0:0:
156,140,139109,1,2,0:0:0:0:
227,192,139301,1,0,0:0:0:0:
216,279,139493,1,2,0:0:0:0:
300,248,139685,1,2,0:0:0:0:
444,200,139878,6,0,B|436:160|447:119|447:119|416:84|399:29,1,160
316,24,140455,2,0,B|348:76|312:120,1,80,2|0,0:0|0:0,0:0:0:0:
300,248,140839,1,0,0:0:0:0:
300,248,141031,2,0,B|276:204|300:160,1,80,2|0,0:0|0:0,0:0:0:0:
216,132,141416,2,0,B|208:84|164:72|128:36|128:36|60:88|56:144|80:208,1,320,2|2,0:0|0:0,0:0:0:0:
216,312,142570,2,2,B|176:364|120:360,1,80,0|2,0:0|0:0,0:0:0:0:
268,256,142954,6,0,B|308:208|384:208|440:268,1,160,6|0,0:0|0:0,0:0:0:0:
368,72,143724,1,2,0:0:0:0:
284,44,143916,2,0,B|220:20|180:72,2,80,0|2|2,0:0|0:0|0:0,0:0:0:0:
244,120,144493,1,2,0:0:0:0:
244,295,144877,1,0,0:0:0:0:
320,248,145070,2,0,B|392:216|472:264,2,160,2|2|0,0:0|0:0|0:0,0:0:0:0:
244,296,146031,6,0,B|200:328|172:304|132:248|88:308,1,160,2|0,0:0|0:0,0:0:0:0:
56,220,146608,2,0,P|40:176|48:124,1,80,2|0,0:0|0:0,0:0:0:0:
132,168,146992,1,2,0:0:0:0:
220,152,147185,2,0,B|216:104|160:80,1,80
288,200,147569,2,0,B|448:288,1,160,2|0,0:0|0:0,0:0:0:0:
508,240,148146,2,0,B|348:148,1,160,2|0,0:0|0:0,0:0:0:0:
448,120,148723,1,2,0:0:0:0:
188,56,149108,6,0,B|220:108|204:148|164:172|164:172|136:188|108:220|132:276,1,240,2|0,0:0|0:0,0:0:0:0:
122,269,149781,1,2,0:0:0:0:
118,277,149877,1,2,0:0:0:0:
180,340,150069,1,0,0:0:0:0:
268,348,150261,1,2,0:0:0:0:
328,284,150454,1,2,0:0:0:0:
352,200,150646,6,0,B|400:160|468:192|472:264,1,160,2|0,0:0|0:0,0:0:0:0:
376,100,151223,2,0,B|328:140|260:116|244:52,1,160,2|2,0:0|0:0,0:0:0:0:
328,28,151800,1,0,0:0:0:0:
424,20,151992,1,0,0:0:0:0:
468,104,152184,1,0,0:0:0:0:
72,316,152761,5,2,0:0:0:0:
68,308,152857,1,2,0:0:0:0:
64,300,152953,2,0,B|104:240|72:196,1,80,2|0,0:0|0:0,0:0:0:0:
48,136,153338,1,2,0:0:0:0:
108,60,153530,1,0,0:0:0:0:
200,32,153723,1,2,0:0:0:0:
292,64,153915,5,0,0:0:0:0:
348,140,154107,2,0,B|400:136|416:88,1,80,2|2,0:0|0:0,0:0:0:0:
296,208,154492,2,0,B|288:252|232:268,1,80,2|0,0:0|0:0,0:0:0:0:
436,184,154876,1,0,0:0:0:0:
368,272,155069,1,2,0:0:0:0:
260,128,155261,6,0,B|225:85|182:107|148:143|90:65,2,160,4|2|2,0:0|0:0|0:0,0:0:0:0:
192,196,156222,1,0,0:0:0:0:
168,28,156607,1,2,0:0:0:0:
264,28,156799,6,0,B|337:-1|385:70|377:107,1,160,0|2,0:0|0:0,0:0:0:0:
344,296,157568,1,2,0:0:0:0:
412,228,157761,2,0,B|368:180|296:188|264:240,1,160,0|2,0:0|0:0,0:0:0:0:
120,144,158337,2,0,B|164:192|236:184|268:132,1,160,0|2,0:0|0:0,0:0:0:0:
188,80,158914,5,0,0:0:0:0:
188,80,159107,2,0,B|140:44|92:44|48:76|40:104,1,160,2|2,0:0|0:0,0:0:0:0:
40,188,159684,2,0,B|80:216|64:272,1,80,2|0,0:0|0:0,0:0:0:0:
64,268,159972,1,2,0:0:0:0:
61,277,160068,1,2,0:0:0:0:
140,332,160260,1,2,0:0:0:0:
204,260,160453,1,0,0:0:0:0:
296,232,160645,1,2,0:0:0:0:
380,276,160837,1,0,0:0:0:0:
448,344,161030,2,0,B|485:332|489:280,1,80,2|0,0:0|0:0,0:3:0:0:
428,208,161414,6,0,B|460:168|460:116|420:80|388:72,1,160,0|2,0:0|0:0,0:0:0:0:
348,156,161991,2,0,B|324:200|328:244|360:288|400:296,2,160,2|2|2,0:0|0:0|0:0,0:0:0:0:
296,76,162952,1,0,0:0:0:0:
188,236,163337,5,0,0:0:0:0:
104,60,163722,1,2,0:0:0:0:
132,152,163914,2,0,B|120:200|32:200|16:116,1,160,2|2,0:0|0:0,0:0:0:0:
17,316,164491,2,0,B|31:239|119:239|131:287,1,160,0|2,0:0|0:0,0:0:0:0:
200,352,165068,1,0,0:0:0:0:
288,312,165260,5,2,0:0:0:0:
356,244,165452,1,0,0:0:0:0:
380,152,165644,1,2,0:0:0:0:
356,60,165837,1,2,0:0:0:0:
272,16,166029,2,0,B|272:68|240:120|168:140,1,160
104,80,166606,5,2,0:0:0:0:
104,80,166702,1,2,0:0:0:0:
104,80,166798,1,2,0:0:0:0:
48,160,166991,1,2,0:0:0:0:
120,220,167183,1,2,0:0:0:0:
84,308,167375,1,0,0:0:0:0:
180,320,167567,6,0,B|240:272|332:292,1,160,0|2,0:0|0:0,0:0:0:0:
408,232,168144,1,0,0:0:0:0:
456,148,168337,1,2,0:0:0:0:
412,64,168529,1,0,0:0:0:0:
340,112,168721,2,0,B|376:152|320:200,1,80,2|2,0:0|0:0,0:0:0:0:
256,132,169106,6,0,B|228:88|184:80|136:88|116:136,1,160,0|2,0:0|0:0,0:0:0:0:
32,120,169683,1,2,0:0:0:0:
32,208,169875,1,0,0:0:0:0:
108,256,170067,2,0,B|108:312|164:316|216:308|208:252,1,160,2|0,0:0|0:0,0:0:0:0:
208,256,170548,1,2,0:0:0:0:
208,256,170644,1,0,0:0:0:0:
328,108,171029,6,0,B|384:104|396:140|416:188|480:180,2,160,2|2|2,0:0|0:0|0:0,0:0:0:0:
324,204,171990,2,0,B|372:236|360:300,1,80,2|0,0:0|0:0,0:0:0:0:
384,364,172375,1,0,0:0:0:0:
288,356,172567,1,2,0:0:0:0:
204,308,172759,1,2,0:0:0:0:
156,224,172951,1,2,0:0:0:0:
176,132,173144,1,0,0:0:0:0:
248,68,173336,2,0,B|296:36|352:88,2,80,2|0|0,0:0|0:0|0:0,0:0:0:0:
304,252,174105,6,0,B|380:252|392:204,1,80,2|0,0:0|0:0,0:0:0:0:
440,156,174490,1,2,0:0:0:0:
408,64,174682,1,0,0:0:0:0:
312,48,174874,2,0,B|248:44|228:96,1,80,2|0,0:0|0:0,0:0:0:0:
192,156,175259,6,0,B|140:188|88:184|44:136,1,160,0|2,0:0|0:0,0:0:0:0:
116,72,175836,1,2,0:0:0:0:
124,68,175932,1,2,0:0:0:0:
132,72,176028,2,0,B|216:12|292:92,1,160,2|0,0:0|0:0,0:0:0:0:
364,36,176605,1,2,0:0:0:0:
348,132,176797,6,0,B|280:192|348:288,1,160,0|2,0:0|0:0,0:0:0:0:
244,272,177374,1,0,0:0:0:0:
188,196,177566,2,0,B|92:212,1,80,2|0,0:0|0:0,0:0:0:0:
228,112,177951,2,0,B|116:132,1,80,2|2,0:0|0:0,0:0:0:0:
68,76,178336,5,0,0:0:0:0:
256,32,178720,1,0,0:0:0:0:
444,76,179105,1,2,0:0:0:0:
368,136,179297,2,0,B|400:172|440:172,2,80,0|2|0,0:0|0:0|0:0,0:0:0:0:
300,68,179874,6,0,B|280:148|180:176,1,160,6|0,0:0|0:0,0:0:0:0:
172,80,180451,1,0,0:0:0:0:
92,132,180643,1,10,0:0:0:0:
80,228,180835,1,0,0:0:0:0:
144,300,181028,1,0,0:0:0:0:
240,316,181220,1,0,0:0:0:0:
248,320,181316,1,0,0:0:0:0:
256,316,181412,2,0,B|296:284|364:320,1,80,2|0,0:0|0:0,0:0:0:0:
444,256,181797,2,0,B|408:232|356:244,1,80,2|0,0:0|0:0,0:0:0:0:
320,168,182181,1,10,0:0:0:0:
356,84,182374,2,0,B|396:12,1,80
272,24,182758,5,0,0:0:0:0:
268,32,182854,1,0,0:0:0:0:
264,40,182951,2,0,B|224:136,1,80,2|0,0:0|0:0,0:0:0:0:
148,172,183335,1,2,0:0:0:0:
56,144,183527,1,0,0:0:0:0:
72,240,183720,1,8,0:0:0:0:
164,268,183912,1,2,0:0:0:0:
172,272,184008,1,2,0:0:0:0:
176,280,184104,2,0,B|187:313|239:325,1,80,0|2,0:0|0:0,0:0:0:0:
256,228,184489,6,0,B|292:200|336:216,1,80,2|0,0:0|0:0,0:0:0:0:
312,308,184873,1,0,0:0:0:0:
404,280,185066,1,2,0:0:0:0:
456,200,185258,1,8,0:0:0:0:
436,108,185450,1,0,0:0:0:0:
364,44,185643,2,0,B|300:8|268:96|208:40,1,160,2|2,0:0|0:0,0:0:0:0:
80,272,186412,5,0,0:0:0:0:
156,212,186604,2,0,B|216:184|280:216|300:276,1,160,2|2,0:0|0:0,0:0:0:0:
360,328,187181,1,0,0:0:0:0:
400,240,187373,1,2,0:0:0:0:
400,240,187565,2,0,B|405:195|358:141|292:143,1,160,2|0,0:0|0:0,0:0:0:0:
344,60,188142,1,2,0:0:0:0:
344,60,188335,2,0,B|244:60,1,80,8|2,0:0|0:0,0:0:0:0:
168,68,188719,1,0,0:0:0:0:
100,136,188911,1,2,0:0:0:0:
96,232,189104,6,0,B|96:344,1,80,2|0,0:0|0:0,0:0:0:0:
96,320,189392,1,0,0:0:0:0:
96,328,189488,1,0,0:0:0:0:
188,284,189681,1,2,0:0:0:0:
284,288,189873,1,8,0:0:0:0:
364,340,190065,2,0,B|400:372|440:364|472:304|440:268|396:264,1,160,2|0,0:0|0:0,0:0:0:0:
376,184,190642,6,0,B|372:96,1,80,2|0,0:0|0:0,0:0:0:0:
284,228,191027,2,0,B|288:136,1,80,2|0,0:0|0:0,0:0:0:0:
188,252,191411,2,0,B|204:160,1,80,8|0,0:0|0:0,0:0:0:0:
188,84,191796,1,2,0:0:0:0:
112,140,191988,1,2,0:0:0:0:
48,212,192180,6,0,B|108:228|116:284|96:328|56:344,1,160,2|0,0:0|0:0,0:0:0:0:
188,300,192757,1,0,0:0:0:0:
196,296,192853,1,0,0:0:0:0:
204,300,192950,2,0,B|236:276|284:304|376:288,1,160,10|0,0:0|0:0,0:0:0:0:
456,220,193526,1,0,0:0:0:0:
452,212,193623,1,0,0:0:0:0:
448,204,193719,2,0,B|416:180|344:192,1,80,2|0,0:0|0:0,0:0:0:0:
296,132,194103,2,0,B|276:176|224:196,1,80,2|0,0:0|0:0,0:0:0:0:
200,100,194488,1,8,0:0:0:0:
139,175,194680,2,0,B|95:259|187:339,1,160
172,328,195161,1,0,0:0:0:0:
176,336,195257,1,2,0:0:0:0:
236,256,195449,6,0,B|300:228|336:264,1,80,0|2,0:0|0:0,0:0:0:0:
284,340,195834,2,0,B|352:364|392:340|416:292|416:256,1,160,2|2,0:0|0:0,0:0:0:0:
484,180,196411,2,0,B|484:276,1,80,2|0,0:0|0:0,0:0:0:0:
404,204,196795,2,0,P|404:120|456:120,1,120,2|2,0:0|0:0,0:0:0:0:
422,113,197180,1,2,0:0:0:0:
356,44,197372,1,0,0:0:0:0:
272,88,197564,2,0,B|284:144|208:168,1,80,8|0,0:0|0:0,0:0:0:0:
144,144,197949,2,0,B|144:92|196:76,1,80,0|2,0:0|0:0,0:0:0:0:
172,224,198334,6,0,B|168:308|88:356,1,160
184,380,198911,1,2,0:0:0:0:
272,340,199103,1,10,0:0:0:0:
260,244,199295,2,0,B|296:284|332:296|392:276|412:236,1,160,0|2,0:0|0:0,0:0:0:0:
360,164,199872,2,0,P|396:109|440:170,1,160
352,36,200449,5,0,0:0:0:0:
344,32,200545,1,0,0:0:0:0:
332,36,200641,2,0,B|296:72|244:56,1,80,8|0,0:0|0:0,0:0:0:0:
228,152,201026,2,0,B|200:116|152:116,1,80,2|2,0:0|0:0,0:0:0:0:
156,108,201314,1,2,0:0:0:0:
152,100,201410,1,2,0:0:0:0:
72,156,201603,6,0,B|96:220|64:260,2,80,0|2|0,0:0|0:0|0:0,0:0:0:0:
160,196,202179,1,8,0:0:0:0:
192,284,202372,1,0,0:0:0:0:
260,216,202564,1,2,0:0:0:0:
288,308,202756,1,0,0:0:0:0:
256,192,202949,12,6,204487,0:0:0:0:
72,40,205256,6,0,B|128:48|152:88,1,80,8|0,0:0|0:0,0:0:0:0:
148,80,205544,1,0,0:0:0:0:
152,88,205641,2,0,B|176:136|248:148|296:112,1,160,0|2,0:0|0:0,0:0:0:0:
388,96,206218,1,2,0:0:0:0:
460,160,206410,1,0,0:0:0:0:
476,256,206602,1,2,0:0:0:0:
468,260,206698,1,2,0:0:0:0:
460,256,206794,2,0,B|412:216|376:256|344:288|300:224,1,160,8|2,0:0|0:0,0:0:0:0:
256,160,207371,1,0,0:0:0:0:
204,80,207564,6,0,B|136:40|48:64,2,160,0|0|8,0:0|0:0|0:0,0:0:0:0:
160,164,208525,1,0,0:0:0:0:
228,232,208717,1,2,0:0:0:0:
152,292,208910,1,0,0:0:0:0:
232,344,209102,2,0,B|272:328|320:360,1,80,2|0,0:0|0:0,0:0:0:0:
368,276,209486,2,0,B|292:124,1,160,0|8,0:0|0:0,0:0:0:0:
392,144,210063,1,0,0:0:0:0:
340,64,210256,1,2,0:0:0:0:
244,64,210448,1,0,0:0:0:0:
192,144,210640,6,0,B|176:200|112:216|64:172|64:128,1,160,2|0,0:0|0:0,0:0:0:0:
36,244,211217,1,0,0:0:0:0:
100,316,211409,2,0,B|260:348,1,160,10|0,0:0|0:0,0:0:0:0:
412,236,212178,2,0,B|252:204,1,160,0|2,0:0|0:0,0:0:0:0:
64,240,212948,1,8,0:0:0:0:
252,296,213332,1,2,0:0:0:0:
208,108,213717,6,0,B|268:88|308:136,1,80,2|0,0:0|0:0,0:0:0:0:
344,40,214101,2,0,B|380:76|420:72,1,80,0|2,0:0|0:0,0:0:0:0:
456,160,214486,2,0,B|456:328,1,160,10|2,0:0|0:0,0:0:0:0:
376,208,215063,2,0,B|376:320,1,80,0|2,0:0|0:0,0:0:0:0:
296,340,215447,1,0,0:0:0:0:
204,316,215640,1,0,0:0:0:0:
112,344,215832,1,0,0:0:0:0:
120,248,216024,1,8,0:0:0:0:
52,180,216217,1,0,0:0:0:0:
132,128,216409,2,0,B|108:80|52:88,1,80,2|0,0:0|0:0,0:0:0:0:
184,44,216793,6,0,B|216:116|308:136,1,160,6|0,0:0|0:0,0:0:0:0:
304,40,217370,1,0,0:0:0:0:
224,196,217563,2,0,B|256:268|348:288,2,160,8|0|2,0:0|0:0|0:0,0:0:0:0:
164,120,218524,1,0,0:0:0:0:
68,112,218716,1,2,0:0:0:0:
12,192,218909,1,0,0:0:0:0:
48,280,219101,2,0,B|80:336|152:336|192:292,1,160,8|0,0:0|0:0,0:0:0:0:
464,104,219870,6,0,B|432:48|360:48|320:92,1,160,2|0,0:0|0:0,0:0:0:0:
388,160,220447,2,0,B|428:204|432:252|396:288|364:304,1,160,2|0,0:0|0:0,0:0:0:0:
448,360,221024,1,2,0:0:0:0:
100,228,221408,2,0,B|248:304,1,160,2|0,0:0|0:0,0:0:0:0:
240,204,221985,1,0,0:0:0:0:
156,160,222178,1,8,0:0:0:0:
232,100,222370,1,0,0:0:0:0:
148,56,222562,1,2,0:0:0:0:
72,116,222754,1,0,0:0:0:0:
156,160,222947,6,0,B|328:160,1,160,0|0,0:0|0:0,0:0:0:0:
400,112,223524,1,0,0:0:0:0:
380,204,223716,2,0,B|372:264|296:300|244:276,1,160,10|2,0:0|0:0,0:0:0:0:
140,124,224485,2,0,B|148:64|224:28|276:52,1,160,2|0,0:0|0:0,0:0:0:0:
352,20,225062,1,2,0:0:0:0:
312,108,225254,1,8,0:0:0:0:
272,196,225446,1,0,0:0:0:0:
228,284,225639,1,2,0:0:0:0:
188,372,225831,1,0,0:0:0:0:
284,364,226023,6,0,B|328:320|412:376|440:320,1,160,2|0,0:0|0:0,0:0:0:0:
471,229,226600,1,0,0:0:0:0:
396,152,226792,2,0,B|332:116|288:176|240:148,1,160,10|0,0:0|0:0,0:0:0:0:
164,92,227369,1,2,0:0:0:0:
160,100,227465,1,2,0:0:0:0:
156,108,227562,2,0,B|124:196,1,80,2|0,0:0|0:0,0:0:0:0:
40,148,227946,1,2,0:0:0:0:
48,244,228138,5,0,0:0:0:0:
96,328,228331,1,8,0:0:0:0:
188,360,228523,1,0,0:0:0:0:
280,328,228715,2,0,B|316:292|368:296,1,80,0|0,0:0|0:0,0:0:0:0:
256,192,229100,12,4,232369,0:0:0:0:
