osu file format v12

[General]
AudioFilename: Sound Sepher - Ghostly Band Phantom Ensemble.mp3
AudioLeadIn: 0
PreviewTime: 179495
Countdown: 0
SampleSet: Soft
StackLeniency: 0.7
Mode: 0
LetterboxInBreaks: 0

[Editor]
Bookmarks: 25751,61413,112196,123036,184466,228815
DistanceSpacing: 0.8
BeatDivisor: 4
GridSize: 4

[Metadata]
Title:Ghostly Band ~ Phantom Ensemble
TitleUnicode:Ghostly Band ~ Phantom Ensemble
Artist:ESTi
ArtistUnicode:ESTi
Creator:Arusha Shuna
Version:Easy
Source:Touhou
Tags:lunasa merlin lyrica prismriver perfect cherry blossom sound sepher cradle
BeatmapID:171576
BeatmapSetID:56799

[Difficulty]
HPDrainRate:2
CircleSize:3
OverallDifficulty:1
ApproachRate:1
SliderMultiplier:0.8
SliderTickRate:1

[Events]
//Background and Video events
0,0,"bg.jpg",0,0
//Break Periods
2,124699,128968
//Storyboard Layer 0 (Background)
//Storyboard Layer 1 (Fail)
//Storyboard Layer 2 (Pass)
//Storyboard Layer 3 (Foreground)
//Storyboard Sound Samples
//Background Colour Transformations
3,100,163,162,255

[TimingPoints]
1430,384.578405922508,4,2,1,40,1,0
1430,-133.333333333333,4,2,1,40,0,0
50656,-100,4,2,1,60,0,0
179874,-100,4,2,1,70,0,1
229100,-100,4,2,1,40,0,0
230061,-100,4,2,1,20,0,0
231023,-100,4,2,1,10,0,0
232369,-100,4,2,1,5,0,0

[Colours]
Combo1 : 167,243,169
Combo2 : 255,0,0
Combo3 : 96,165,240
Combo4 : 218,129,248
SliderBorder : 218,163,248

[HitObjects]
432,168,26043,2,0,B|403:139|403:139|386:122|324:122|327:182|346:201|346:201|378:233|378:233|403:258|392:309|341:315|321:295|321:295|284:258,1,359.999989271164,2|0,0:0|0:0,0:0:0:0:
206,279,29119,2,0,B|190:294|190:294|170:314|119:308|108:257|133:232|133:232|165:200|165:200|184:181|187:121|125:121|108:138|108:138|79:167,1,359.999989271164,2|0,0:0|0:0,0:0:0:0:
204,64,32196,6,0,P|256:4|308:64,2,180.000006866455,2|0|0,0:0|0:0|0:0,0:0:0:0:
256,148,35272,2,0,B|256:336,2,179.999994635582
312,68,38349,6,0,B|384:108|308:208|440:228,1,180.000006866455,0|0,0:0|0:0,0:0:0:0:
256,192,40656,1,0,0:0:0:0:
188,124,41426,6,0,B|116:164|192:264|60:284,1,180.000006866455,0|0,0:0|0:0,0:0:0:0:
244,252,43733,1,2,0:0:0:0:
316,316,44502,6,0,B|377:316|377:316|412:316|428:292|429:264|429:264|428:188,1,179.999994635582,2|0,0:0|0:0,0:0:0:0:
332,120,46810,1,0,0:0:0:0:
240,156,47579,6,0,B|248:248|176:284|176:284|84:284,1,240.000009155274,2|0,0:0|0:0,0:0:0:0:
76,188,49886,1,0,0:0:0:0:
160,120,50656,6,0,B|208:56|300:48,1,160,2|2,0:0|0:0,0:0:0:0:
396,132,52194,1,0,0:0:0:0:
316,232,52963,1,2,0:0:0:0:
192,204,53732,6,0,P|100:200|69:286,1,160
180,312,55270,1,2,0:0:0:0:
300,272,56040,1,0,0:0:0:0:
352,156,56809,6,0,B|364:80|464:136|468:28,2,160,2|2|2,0:0|0:0|0:0,0:0:0:0:
224,144,59116,2,0,B|144:104|72:184,1,160,0|2,0:0|0:0,0:0:0:0:
176,260,60655,1,2,0:0:0:0:
284,328,61424,1,2,0:0:0:0:
356,220,62193,2,0,B|404:144|352:64,1,160,2|0,0:0|0:0,0:0:0:0:
227,69,63731,5,2,0:0:0:0:
99,69,64500,2,0,B|35:81|15:129|15:129|15:225,1,160,0|2,0:0|0:0,0:0:0:0:
108,268,66039,5,0,0:0:0:0:
224,224,66808,1,2,0:0:0:0:
314,314,67577,2,0,B|378:302|398:254|398:254|398:158,1,160,0|2,0:0|0:0,0:0:0:0:
332,92,69115,6,0,B|275:45|227:96|173:23,2,160,2|2|0,0:0|0:0|0:0,0:0:0:0:
228,168,71423,2,0,B|137:165|92:256,1,160,2|0,0:0|0:0,0:0:0:0:
216,296,72961,1,2,0:0:0:0:
320,228,73730,1,0,0:0:0:0:
402,327,74499,1,2,0:0:0:0:
468,216,75269,6,0,P|492:80|332:56,1,320,6|0,0:0|0:0,0:0:0:0:
308,168,77576,1,0,0:0:0:0:
196,108,78345,6,0,B|176:188|92:252,1,160,2|0,0:0|0:0,0:0:0:0:
36,132,79883,1,2,0:0:0:0:
100,20,80653,1,2,0:0:0:0:
196,108,81422,6,0,B|272:68|372:108,2,160,2|2|0,0:0|0:0|0:0,0:0:0:0:
92,184,83729,1,2,0:0:0:0:
152,296,84498,6,0,B|200:360|248:264|328:356,1,160,2|2,0:0|0:0,0:0:0:0:
424,356,86037,1,2,0:0:0:0:
480,240,86806,1,0,0:0:0:0:
424,124,87575,5,2,0:0:0:0:
300,88,88344,2,0,B|228:144|128:120,1,160,0|2,0:0|0:0,0:0:0:0:
48,44,89883,1,2,0:0:0:0:
76,168,90652,6,0,B|28:240|48:344,2,160,0|2|0,0:0|0:0|0:0,0:0:0:0:
204,188,92959,1,2,0:0:0:0:
332,208,93728,5,2,0:0:0:0:
380,88,94497,2,0,B|404:48|400:-4,2,80,2|0|2,0:0|0:0|0:0,0:0:0:0:
260,136,96036,2,0,B|220:108|136:132|136:216,1,160,2|0,0:0|0:0,0:0:0:0:
52,292,97574,5,2,0:0:0:0:
176,324,98343,2,0,B|236:252|336:296,1,160,2|2,0:0|0:0,0:0:0:0:
420,208,99882,6,0,B|476:128|416:44,2,160,4|0|0,0:0|0:0|0:0,0:0:0:0:
316,132,102189,1,2,0:0:0:0:
272,252,102958,1,0,0:0:0:0:
212,132,103727,6,0,B|176:100|140:192|52:128,1,160,2|2,0:0|0:0,0:0:0:0:
117,19,105266,1,2,0:0:0:0:
240,56,106035,6,0,B|412:112,2,160,0|2|0,0:0|0:0|0:0,0:0:0:0:
268,180,108342,1,2,0:0:0:0:
320,296,109111,6,0,B|472:216,2,160,0|2|2,0:0|0:0|0:0,0:0:0:0:
192,280,111419,1,2,0:0:0:0:
64,296,112188,5,0,0:0:0:0:
112,176,112957,2,0,B|168:108|236:172|284:80,1,160,2|0,0:0|0:0,0:0:0:0:
372,176,114496,2,0,B|316:244|248:180|200:272,1,160,2|0,0:0|0:0,0:0:0:0:
160,344,116034,5,2,0:0:0:0:
288,324,116803,2,0,B|200:148,1,160,0|2,0:0|0:0,0:0:0:0:
320,104,118341,5,0,0:0:0:0:
436,52,119110,2,0,B|408:132|444:212,1,160,2|0,0:0|0:0,0:0:0:0:
325,259,120649,2,0,B|353:179|317:99,1,160,2|0,0:0|0:0,0:0:0:0:
196,72,122187,5,2,0:0:0:0:
52,172,122956,2,0,B|24:252|60:332,2,160,0|2|0,0:0|0:0|0:0,0:0:0:0:
371,172,130648,6,0,P|363:84|291:52,1,160,6|8,0:0|0:0,0:0:0:0:
252,84,131802,2,0,B|164:132,1,80,0|2,0:0|0:0,0:0:0:0:
104,224,132955,1,0,0:0:0:0:
160,252,133340,6,0,B|196:264|248:252,1,80,0|2,0:0|0:0,0:0:0:0:
360,296,134494,1,0,0:0:0:0:
404,248,134878,6,0,B|428:200|388:144,1,80,0|2,0:0|0:0,0:0:0:0:
324,76,136032,1,0,0:0:0:0:
208,24,136801,6,0,B|132:92|200:184,1,160,2|0,0:0|0:0,0:0:0:0:
304,222,138339,2,0,B|360:297|284:365,2,160,2|0|0,0:0|0:0|0:0,0:0:0:0:
292,96,140647,5,0,0:0:0:0:
368,200,141416,1,2,0:0:0:0:
424,84,142185,1,2,0:0:0:0:
460,136,142570,6,0,B|480:168|468:236,1,80,0|6,0:0|0:0,0:0:0:0:
368,292,143724,2,0,B|284:240|208:336,1,160,2|0,0:0|0:0,0:0:0:0:
128,232,145262,1,0,0:0:0:0:
220,144,146031,6,0,B|136:104|132:13,2,160,0|2|0,0:0|0:0|0:0,0:0:0:0:
344,120,148338,1,2,0:0:0:0:
332,248,149108,6,0,B|304:328|196:316|180:244|180:244|180:156,1,240,2|0,0:0|0:0,0:0:0:0:
180,144,150646,2,0,B|180:107|180:107|164:35|56:23|28:103,1,240,2|0,0:0|0:0,0:0:0:0:
28,165,152184,1,0,0:0:0:0:
132,236,152953,1,2,0:0:0:0:
256,268,153723,2,0,B|336:316|428:300,1,160,0|2,0:0|0:0,0:0:0:0:
484,200,155261,5,4,0:0:0:0:
380,124,156030,2,0,B|296:72|220:136,1,160,0|0,0:0|0:0,0:0:0:0:
124,200,157568,1,2,0:0:0:0:
232,268,158337,1,0,0:0:0:0:
328,184,159107,6,0,B|376:100|472:116,2,160,0|2|2,0:0|0:0|0:0,0:0:0:0:
444,240,161414,1,0,0:0:0:0:
328,300,162183,6,0,B|264:248|144:288,1,160,2|0,0:0|0:0,0:0:0:0:
48,268,163722,1,2,0:0:0:0:
100,152,164491,1,0,0:0:0:0:
208,84,165260,6,0,B|380:68,2,160,0|0|2,0:0|0:0|0:0,0:0:0:0:
164,204,167567,1,0,0:0:0:0:
232,312,168337,6,0,B|320:280|400:352,1,160,2|0,0:0|0:0,0:0:0:0:
332,220,169875,2,0,B|289:137|204:121,1,160,2|0,0:0|0:0,0:0:0:0:
84,144,171413,5,2,0:0:0:0:
92,272,172182,2,0,B|135:355|220:371,2,160,0|2|0,0:0|0:0|0:0,0:0:0:0:
200,204,174490,6,0,B|256:136|288:240|368:136,1,160,2|0,0:0|0:0,0:0:0:0:
368,36,176028,1,2,0:0:0:0:
244,60,176797,2,0,B|156:37|100:109,1,160,0|0,0:0|0:0,0:0:0:0:
56,224,178336,5,2,0:0:0:0:
180,196,179105,1,0,0:0:0:0:
292,136,179874,6,0,B|372:88|460:152,2,160,6|8|2,0:0|0:0|0:0,0:0:0:0:
356,248,182181,1,10,0:0:0:0:
232,276,182951,6,0,B|204:276|204:276|180:276|152:248|152:224|152:224|152:164,1,160,0|8,0:0|0:0,0:0:0:0:
224,68,184489,1,2,0:0:0:0:
288,180,185258,1,8,0:0:0:0:
360,284,186027,6,0,B|444:316|504:248,2,160,2|10|0,0:0|0:0|0:0,0:0:0:0:
404,164,188335,1,8,0:0:0:0:
340,56,189104,6,0,B|288:124|192:80,1,160,2|8,0:0|0:0,0:0:0:0:
80,136,190642,2,0,B|104:192|56:248,2,80,2|0|8,0:0|0:0|0:0,0:0:0:0:
204,168,192180,5,2,0:0:0:0:
256,284,192950,1,10,0:0:0:0:
352,196,193719,2,0,B|428:148|424:52,1,160,2|8,0:0|0:0,0:0:0:0:
296,60,195257,5,2,0:0:0:0:
176,108,196026,1,8,0:0:0:0:
292,160,196795,2,0,B|396:224|416:304,2,160,0|8|0,0:0|0:0|0:0,0:0:0:0:
212,260,199103,6,0,B|208:308|180:336,2,80,10|0|0,0:0|0:0|0:0,0:0:0:0:
156,144,200641,2,0,B|160:96|188:68,2,80,8|0|2,0:0|0:0|0:0,0:0:0:0:
80,248,202179,1,8,0:0:0:0:
256,192,202949,12,6,204487,0:0:0:0:
437,205,206025,5,2,0:0:0:0:
364,100,206794,1,8,0:0:0:0:
236,84,207564,6,0,B|208:32|152:32|152:32|72:32,1,160,6|8,0:0|0:0,0:0:0:0:
152,148,209102,2,0,B|180:200|236:200|236:200|316:200,1,160,0|8,0:0|0:0,0:0:0:0:
376,100,210640,1,0,0:0:0:0:
472,184,211409,6,0,B|472:224|472:224|472:284|428:340,1,160,10|0,0:0|0:0,0:0:0:0:
342,243,212948,1,8,0:0:0:0:
251,333,213717,6,0,B|176:288|96:304,1,160,2|8,0:0|0:0,0:0:0:0:
168,196,215255,2,0,B|243:241|323:225,1,160,0|8,0:0|0:0,0:0:0:0:
364,104,216793,6,0,B|420:288,1,160,6|8,0:0|0:0,0:0:0:0:
288,224,218332,1,2,0:0:0:0:
168,272,219101,1,8,0:0:0:0:
184,144,219870,6,0,B|156:108|96:96,2,80,2|0|8,0:0|0:0|0:0,0:0:0:0:
288,224,221408,2,0,B|368:168|448:256,1,160,2|10,0:0|0:0,0:0:0:0:
340,328,222947,2,0,B|256:388|176:304,1,160,0|8,0:0|0:0,0:0:0:0:
164,196,224485,5,2,0:0:0:0:
256,108,225254,1,8,0:0:0:0:
356,196,226023,1,6,0:0:0:0:
256,276,226792,6,0,B|172:308|92:264,1,160,10|2,0:0|0:0,0:0:0:0:
168,160,228331,1,0,0:0:0:0:
256,192,229100,12,4,232369,0:0:0:0:
