osu file format v7

[General]
AudioFilename: Four Thousand Years.mp3
AudioLeadIn: 0
PreviewTime: -1
Countdown: 0
SampleSet: Normal
StackLeniency: 0.7
Mode: 0
LetterboxInBreaks: 1

[Editor]
Bookmarks: 18104,18389,18675,52389,54104,55247,56389,84961,87247,91818,100389,100675,100961,109532,109818,110104,123818
DistanceSpacing: 1.29999995231628
BeatDivisor: 4
GridSize: 16

[Metadata]
Title:Four Thousand Years
Artist:ESTi
Creator:stenut
Version:Normal
Source:TalesWeaver
Tags:tales weaver game

[Difficulty]
HPDrainRate:5
CircleSize:4
OverallDifficulty:5
SliderMultiplier:1.4
SliderTickRate:2

[Events]
//Background and Video events
//Break Periods
2,92018,99761
//Storyboard Layer 0 (Background)
//Storyboard Layer 1 (Fail)
//Storyboard Layer 2 (Pass)
//Storyboard Layer 3 (Foreground)
//Storyboard Sound Samples
//Background Colour Transformations
3,100,0,0,0

[TimingPoints]
390,571.428571428571,4,2,0,100,1,0
9389,-100,4,2,1,100,0,0
26675,-200,4,2,1,100,0,0
27247,-100,4,2,1,100,0,0
27818,-200,4,2,1,100,0,0
28389,-100,4,2,1,100,0,0
32389,-200,4,2,1,100,0,0
32961,-100,4,2,1,100,0,0
35818,-100,4,1,0,50,0,0
37389,-100,4,2,1,100,0,0
37532,-100,4,2,1,100,0,0
37818,-100,4,2,1,100,0,0
39247,-200,4,2,1,100,0,0
39818,-100,4,2,1,100,0,0
42104,-100,4,2,1,100,0,0
45532,-200,4,2,1,100,0,0
46104,-100,4,2,1,100,0,0
46675,-100,4,2,1,100,0,0
48961,-100,4,2,1,100,0,0
52389,-100,4,2,1,100,0,0
54389,-100,4,1,0,50,0,0
55389,-100,4,2,1,100,0,0
69818,-50,4,2,1,100,0,0
70104,-100,4,2,1,100,0,0
71818,-50,4,2,1,100,0,0
72104,-100,4,2,1,100,0,0
73532,-200,4,2,1,100,0,0
73961,-200,4,2,2,100,0,0
74247,-200,4,2,1,100,0,0
74675,-100,4,2,1,100,0,0
80389,-200,4,2,1,100,0,0
80961,-100,4,2,1,100,0,0
81532,-200,4,2,1,100,0,0
82104,-100,4,2,1,100,0,0
82675,-200,4,2,1,100,0,0
83247,-100,4,2,1,100,0,0
83818,-200,4,2,1,100,0,0
84389,-100,4,2,1,100,0,0
86104,-200,4,2,1,100,0,0
86675,-100,4,2,1,100,0,0
87247,-100,4,2,1,0,0,0
91961,-100,4,2,1,100,0,0
100961,-100,4,1,0,50,0,0
101104,-100,4,2,1,100,0,0
106389,-50,4,2,1,100,0,0
106675,-100,4,2,1,100,0,0
107532,-50,4,2,1,100,0,0
107818,-100,4,2,1,100,0,0
108675,-50,4,2,1,100,0,0
108961,-100,4,2,1,100,0,0
110104,-100,4,1,0,50,0,0

[HitObjects]
384,80,9532,1,0
192,320,10389,5,0
112,256,10675,1,0
112,64,11247,5,0
208,80,11532,1,0
304,112,11818,1,0
240,224,12675,5,0
336,272,12961,1,0
384,80,13818,5,0
288,112,14104,1,0
384,304,14961,5,0
288,272,15247,1,0
112,240,16104,6,0,B|80:224|80:192,2,35
192,112,17247,6,0,B|224:128|224:160,2,35
80,32,18104,5,0
149,101,18389,1,0
112,192,18675,2,0,B|64:272|120:336,1,140
208,352,19532,1,0
424,336,20104,5,0
344,272,20390,1,0
408,200,20675,1,0
424,104,20961,2,0,B|384:40|304:32,1,140
224,80,21818,1,0
128,48,22104,2,0,B|88:80|48:40,3,70
64,160,23247,6,0,B|112:224|56:296,1,140
61,289,24104,2,0,B|152:288,1,70
224,328,24675,1,0
312,288,24961,1,0
376,216,25247,1,0
464,256,25532,2,0,B|488:288|464:336,2,70
464,160,26389,1,0
448,64,26675,2,0,B|400:32|368:32,1,70
352,128,27532,5,0
288,208,27818,2,0,B|256:256|208:256,1,70
144,208,28675,2,0,B|112:160|128:128,1,70
136,39,29247,2,0,B|184:23|224:47,3,70
320,56,30675,5,0
392,120,30961,1,0
464,192,31247,1,0
356,243,31818,5,0
356,243,32104,1,0
356,243,32389,2,0,B|340:291|292:291,1,70
207,285,33247,2,0,B|159:277|151:229,1,70
155,139,33818,2,0,B|171:99|227:99,1,70
308,99,34389,2,0,B|356:107|372:163,2,70
308,99,35247,1,0
309,100,35532,1,0
256,192,35818,12,0,36961
384,144,37532,5,8
384,144,37818,1,0
208,32,38675,5,8
112,80,38961,1,0
112,192,39247,2,0,B|144:224|96:272,1,70,0|8
112,256,40104,1,0
288,336,40675,5,0
384,288,40961,2,0,B|432:272|448:224,1,70,8|0
480,160,41532,1,0
240,64,42104,5,8
128,64,42675,6,0,B|96:80|48:80,1,70
128,160,43247,2,0,B|160:176|208:176,1,70,8|0
128,256,43818,2,0,B|80:272|48:272,1,70
144,336,44389,2,0,B|176:352|224:352,1,70,8|0
208,352,44961,1,0
328,312,45247,1,0
400,224,45532,2,0,B|440:240|448:280,1,70,8|0
400,64,46675,5,8
184,56,47247,6,0,B|152:32|96:64,1,70
96,152,47818,2,0,B|128:128|168:152,1,70,8|0
128,240,48389,1,0
336,288,48961,5,8
336,112,49532,1,0
208,256,50104,5,8
128,304,50389,1,0
128,208,50675,1,0
112,96,51247,5,8
176,32,51532,1,0
240,96,51818,1,0
416,112,52389,5,8
448,288,52961,5,0
368,240,53247,1,0
368,240,53532,1,8
368,336,53818,1,0
448,288,54104,1,0
256,192,54389,12,0,55247
400,80,55818,6,0,B|336:128,2,70,8|0|0
231,104,56961,5,8
240,208,57247,1,0
144,176,57532,1,0
80,96,57818,1,0
176,64,58104,2,0,B|224:64|240:128,2,70,8|0|0
272,272,59247,5,8
367,268,59532,2,0,B|415:252|415:204,1,70
413,121,60104,1,0
315,121,60389,2,0,B|283:137|267:185,1,70,8|0
288,256,60961,1,0
80,336,61532,5,8
80,240,61818,1,0
176,288,62104,1,0
176,192,62389,1,0
80,144,62675,1,8
80,48,62961,1,0
176,80,63247,1,0
384,32,63818,5,8
464,96,64104,2,0,B|448:144|392:144,1,70
336,192,64675,1,0
416,256,64961,2,0,B|400:304|344:304,1,70,8|0
288,352,65532,1,0
112,192,66104,6,0,B|88:128|136:112,1,70,8|0
216,128,66675,2,0,B|240:168|208:200,3,70,0|0|8|0
160,272,67818,1,0
240,32,68389,5,8
332,65,68675,2,0,B|324:113|268:121,1,70
289,115,69247,1,0
288,114,69532,5,8
415,94,69818,2,0,B|399:190|295:198,1,140
328,192,70389,1,0
328,192,70675,1,8
224,128,70961,5,0
161,235,71247,1,0
128,144,71532,1,0
224,128,71818,2,0,B|248:216|144:240,1,140,8|0
208,320,72389,1,0
288,200,72675,6,0,B|336:208|352:256,2,70,0|8|0
416,200,73532,2,0,B|376:136|280:112,1,140
272,208,74961,5,0
258,294,75247,1,8
344,260,75532,1,0
416,200,75818,2,0,B|376:136|280:112,1,140,0|8
305,119,76675,1,0
392,64,76961,2,0,B|328:24|224:24,1,140,0|8
258,25,77818,1,0
160,64,78104,5,0
144,192,78675,1,8
32,48,79247,1,0
32,144,79532,1,0
32,240,79818,1,8
32,336,80104,1,0
126,298,80389,2,0,B|168:320|208:296,1,70,0|8
280,264,81247,1,0
368,224,81532,2,0,B|384:176|352:144,1,70,0|8
296,80,82389,5,0
200,112,82675,2,0,B|136:128|136:168,1,70,0|8
208,224,83532,1,0
288,288,83818,2,0,B|312:320|360:320,1,70,0|8
368,224,84675,6,0,B|384:184|360:136,1,70
256,128,85247,2,0,B|256:80|256:48,2,70,0|8|0
144,160,86104,2,0,B|120:200|152:240,1,70,0|8
224,288,86961,1,0
256,192,87247,12,0,91818
256,192,100961,5,4
256,192,101818,1,0
304,304,102675,5,0
384,240,102961,1,0
416,144,103247,1,0
128,112,104104,5,0
224,80,104389,1,0
128,272,105247,5,0
224,304,105532,1,0
400,192,106389,2,0,B|312:128|344:272|408:192,1,140
224,272,107532,6,0,B|272:304|320:240,2,70
288,112,108675,6,0,B|240:80|192:144,2,70
288,112,109247,1,0
288,112,109532,1,0
288,112,109818,1,0
256,192,110104,5,4
