osu file format v11

[General]
AudioFilename: 11_00.MP3
AudioLeadIn: 1250
PreviewTime: 47620
Countdown: 0
SampleSet: Soft
StackLeniency: 0.7
Mode: 0
LetterboxInBreaks: 0

[Editor]
DistanceSpacing: 1
BeatDivisor: 2
GridSize: 4

[Metadata]
Title:AKAI ITO
TitleUnicode:AKAI ITO
Artist:ESTi
ArtistUnicode:ESTi
Creator:Kawayi Rika
Version:Normal
Source:LaTale
Tags:OST Sakura spboxer3
BeatmapID:221123
BeatmapSetID:72322

[Difficulty]
HPDrainRate:3
CircleSize:4
OverallDifficulty:4
ApproachRate:5
SliderMultiplier:1.2
SliderTickRate:2

[Events]
//Background and Video events
0,0,"BG.png"
//Break Periods
//Storyboard Layer 0 (Background)
//Storyboard Layer 1 (Fail)
//Storyboard Layer 2 (Pass)
//Storyboard Layer 3 (Foreground)
//Storyboard Sound Samples
Sample,4995,2,"soft-hitwhistle.wav",40
Sample,95485,2,"soft-hitfinish3.wav",15
//Background Colour Transformations
3,100,163,162,255

[TimingPoints]
995,500,3,2,1,40,1,0
3495,-100,3,2,4,40,0,0
3620,-100,3,2,1,40,0,0
3995,-100,3,2,3,40,0,0
4120,-100,3,2,1,40,0,0
6495,-100,3,2,4,40,0,0
6620,-100,3,2,1,40,0,0
6995,-100,3,2,3,40,0,0
7120,-100,3,2,1,40,0,0
9495,-100,3,2,4,40,0,0
9620,-100,3,2,1,40,0,0
9995,-100,3,2,3,40,0,0
10120,-100,3,2,1,40,0,0
12495,-100,3,2,4,40,0,0
12620,-100,3,2,1,40,0,0
12995,-100,3,2,3,40,0,0
13120,-100,3,2,1,40,0,0
15495,-100,3,2,4,40,0,0
15620,-100,3,2,1,40,0,0
15995,-100,3,2,3,40,0,0
16120,-100,3,2,1,40,0,0
18495,-100,3,2,4,40,0,0
18620,-100,3,2,1,40,0,0
18995,-100,3,2,3,40,0,0
19120,-100,3,2,1,40,0,0
21495,-100,3,2,4,40,0,0
21620,-100,3,2,1,40,0,0
21995,-100,3,2,3,40,0,0
22120,-100,3,2,1,40,0,0
24495,-100,3,2,4,40,0,0
24620,-100,3,2,1,40,0,0
24995,-100,3,2,3,20,0,1
25120,-100,3,2,1,40,0,1
27995,-100,3,2,3,40,0,1
28120,-100,3,2,1,40,0,1
30995,-100,3,2,3,40,0,1
31120,-100,3,2,1,40,0,1
33995,-100,3,2,3,40,0,1
34120,-100,3,2,1,40,0,1
36495,-100,3,2,1,40,0,0
36995,-100,3,2,2,15,0,1
37120,-100,3,2,1,40,0,1
39995,-100,3,2,3,40,0,1
40120,-100,3,2,1,40,0,1
42995,-100,3,2,3,40,0,1
43120,-100,3,2,1,40,0,1
45995,-100,3,2,3,40,0,0
46120,-100,3,2,1,40,0,0
48995,-100,3,2,3,30,0,1
49120,-100,3,2,1,40,0,1
51995,-100,3,2,3,40,0,1
52120,-100,3,2,1,40,0,1
54995,-100,3,2,3,40,0,1
55120,-100,3,2,1,40,0,1
57995,-100,3,2,3,40,0,1
58120,-100,3,2,1,40,0,1
60495,-100,3,2,1,40,0,0
60995,-100,3,2,3,45,0,1
61120,-100,3,2,1,45,0,1
62495,-100,3,2,1,50,0,1
63995,-100,3,2,3,55,0,1
64120,-100,3,2,1,55,0,1
65495,-100,3,2,3,50,0,1
65620,-100,3,2,1,50,0,1
66995,-100,3,2,3,40,0,1
67120,-100,3,2,1,40,0,1
69995,-100,3,2,3,40,0,1
70120,-100,3,2,1,40,0,0
75495,-100,3,2,4,20,0,0
75620,-100,3,2,1,40,0,0
78495,-100,3,2,4,20,0,0
78620,-100,3,2,1,40,0,0
81495,-100,3,2,4,20,0,0
81620,-100,3,2,1,40,0,0
84495,-100,3,2,4,20,0,0
84620,-100,3,2,1,40,0,0
87495,-100,3,2,4,20,0,0
87620,-100,3,2,1,40,0,0
90495,-100,3,2,4,20,0,0
90620,-100,3,2,1,40,0,0
93495,-100,3,2,4,20,0,0
93620,-100,3,2,1,40,0,0
95245,-100,3,2,0,5,0,0

[Colours]
Combo1 : 255,255,255
Combo2 : 255,128,64
Combo3 : 255,128,192
SliderBorder : 195,195,195

[HitObjects]
312,320,995,2,0,P|368:336|425:318,2,120,4|0|2,0:0|0:0|0:0,0:0:0
200,280,2495,2,0,P|144:264|86:281,2,120,0|0|8,0:0|0:0|0:0,0:0:0
296,212,3995,2,0,P|328:148,1,60,8|0,0:0|0:0,0:0:0
352,104,4495,2,0,P|424:128|400:268,1,240
312,339,5995,2,0,P|256:355|199:339,1,120,0|8,0:0|0:0,0:0:0
256,236,6995,6,0,P|256:104,2,120,8|0|2,0:0|0:0|0:0,0:0:0
140,208,8495,2,0,P|104:176|96:96,2,120,0|0|8,0:0|0:0|0:0,0:0:0
171,318,9995,2,0,P|256:344|340:318,1,180,8|0,0:0|0:0,0:0:0
388,280,10995,1,2,0:0:0
308,192,11495,2,0,P|344:72,2,120,0|0|8,0:0|0:0|0:0,0:0:0
256,300,12995,6,0,P|192:324|56:224,1,240,8|2,0:0|0:0,0:0:0
96,124,14495,2,0,P|160:100|296:200,1,240,0|8,0:0|0:0,0:0:0
368,280,15995,2,0,P|423:301,1,60,8|0,0:0|0:0,0:0:0
480,320,16495,2,0,P|516:232|476:160,1,180,0|2,0:0|0:0,0:0:0
432,124,17495,2,0,P|400:68|412:16,2,120,8|0|8,0:0|0:0|0:0,0:0:0
332,192,18995,6,0,P|368:312,2,120,8|0|2,0:0|0:0|0:0,0:0:0
180,192,20495,2,0,P|144:312,2,120,0|0|8,0:0|0:0|0:0,0:0:0
256,100,21995,1,8,0:0:0
256,192,22120,12,8,24495,0:0:0
92,300,24995,6,0,P|184:316|268:256,1,180,4|0,0:0|0:0,0:0:0
276,216,25995,2,0,P|232:148,1,60,8|0,0:0|0:0,0:0:0
256,110,26495,2,0,P|328:68|420:84,1,180
468,120,27495,2,0,P|456:192,1,60,8|0,0:0|0:0,0:0:0
448,236,27995,6,0,P|428:354,2,120,8|0|8,0:0|0:0|0:0,0:0:0
388,244,29245,1,0,0:0:0
348,288,29495,2,0,P|304:328|246:327,1,120
128,352,30495,2,0,P|100:292,1,60,8|0,0:0|0:0,0:0:0
72,244,30995,6,0,P|112:200|176:188,1,120,8|0,0:0|0:0,0:0:0
268,260,31995,2,0,P|296:200,1,60,8|0,0:0|0:0,0:0:0
324,152,32495,2,0,P|284:108|220:96,2,120,0|0|8,0:0|0:0|0:0,0:0:0
344,208,33745,1,0,0:0:0
364,264,33995,6,0,P|428:304|472:172,1,240,8|8,0:0|0:0,0:0:0
456,72,35495,2,0,P|388:92,1,60
340,76,35995,2,0,P|272:96,1,60
224,80,36495,2,0,P|156:100,1,60,10|0,0:0|0:0,0:0:0
108,84,36995,6,0,P|40:124|80:216,1,180,4|0,0:0|0:0,0:0:0
108,248,37995,2,0,P|128:296|116:368,2,120,8|0|0,0:0|0:0|0:0,0:0:0
216,192,39495,1,8,0:0:0
256,304,39995,6,0,P|336:340|472:276,1,240,8|8,0:0|0:0,0:0:0
480,224,41245,1,0,0:0:0
452,172,41495,2,0,P|372:136|236:200,1,240,0|8,0:0|0:0,0:0:0
232,252,42745,1,0,0:0:0
184,292,42995,6,0,P|140:316|68:316,1,120,8|0,0:0|0:0,0:0:0
8,216,43995,2,0,P|28:148,1,60,8|0,0:0|0:0,0:0:0
44,100,44495,2,0,P|108:80|168:116,1,120
252,172,45495,2,0,P|316:192|376:156,1,120,8|8,0:0|0:0,0:0:0
256,192,46120,12,0,48495,0:0:0
200,272,48995,6,0,P|134:310,1,60,4|0,0:0|0:0,0:0:0
88,294,49495,2,0,P|195:232,1,120
308,276,50495,6,0,P|374:313,1,60
383,361,50995,2,0,P|275:299,1,120,0|2,0:0|0:0,0:0:0
240,188,51995,6,0,P|239:112,1,60,8|0,0:0|0:0,0:0:0
276,80,52495,2,0,P|276:204,2,120,0|0|0,0:0|0:0|0:0,0:0:0
384,28,53995,1,0,0:0:0
480,100,54495,2,0,P|492:128|496:160,1,60,2|0,0:0|0:0,0:0:0
492,216,54995,6,0,P|476:276|408:312,2,120,8|0|0,0:0|0:0|0:0,0:0:0
400,320,56495,2,0,P|459:303|525:344,2,120,0|0|2,0:0|0:0|0:0,0:0:0
288,364,57995,2,0,P|184:372|108:328,1,180,8|0,0:0|0:0,0:0:0
76,296,58995,1,0,0:0:0
36,184,59495,6,0,P|52:156|80:140,1,60
128,116,59995,2,0,P|158:104|189:110,1,60
244,120,60495,2,0,P|274:130|294:155,1,60,2|0,0:0|0:0,0:0:0
324,204,60995,6,0,P|296:156|304:68,1,120,8|0,0:0|0:0,0:0:0
324,204,61995,6,0,P|348:224|380:230,1,60,2|0,0:0|0:0,0:0:0
436,231,62495,2,0,P|380:230|308:281,1,120,2|0,0:0|0:0,0:0:0
280,300,63245,6,0,P|316:352,2,60,0|2|0,0:0|0:0|0:0,0:0:0
228,332,63995,2,0,P|172:362|117:362,1,120,8|0,0:0|0:0,0:0:0
88,244,64995,2,0,P|143:213|198:213,2,120,2|8|0,0:0|0:0|0:0,0:0:0
12,152,66495,2,0,P|36:128|64:116,1,60,2|8,0:0|0:0,0:0:0
116,100,66995,6,0,P|204:92|296:120,1,180,8|0,0:0|0:0,0:0:0
344,144,67995,2,0,P|371:163|388:188,1,60,2|8,0:0|0:0,0:0:0
412,240,68495,2,0,P|440:280|512:312,2,120,0|0|2,0:0|0:0|0:0,0:0:0
372,357,69995,2,0,P|256:332|139:357,1,240,8|8,0:0|0:0,0:0:0
256,228,71495,2,0,P|256:144,2,60
256,348,72495,1,2,0:0:0
360,288,72995,6,0,P|388:248|376:160,1,120,4|0,0:0|0:0,0:0:0
356,64,73995,1,0,0:0:0
156,64,74495,2,0,P|128:104|140:192,1,120
160,288,75495,1,4,0:0:0
256,360,75995,6,0,P|284:368|312:360,1,60
368,340,76495,2,0,P|394:328|411:303,1,60
440,252,76995,2,0,P|452:225|449:196,1,60,2|0,0:0|0:0,0:0:0
432,136,77495,2,0,P|405:83|359:43,1,120
312,152,78495,6,0,P|268:172|240:168,1,60,4|0,0:0|0:0,0:0:0
196,180,78995,2,0,P|132:180|76:156,1,120
88,40,79995,6,0,P|94:87|82:113,1,60,2|0,0:0|0:0,0:0:0
80,159,80495,2,0,P|61:220|21:266,2,120,0|0|4,0:0|0:0|0:0,0:0:0
92,100,81745,1,0,0:0:0
148,76,81995,6,0,P|208:72|266:84,2,120,0|0|2,0:0|0:0|0:0,0:0:0
236,156,83495,2,0,P|269:205|287:262,2,120,0|0|4,0:0|0:0|0:0,0:0:0
352,180,84995,6,0,P|412:184|470:171,1,120
484,112,85745,2,0,P|497:32,1,60,0|2,0:0|0:0,0:0:0
352,180,86495,6,0,P|318:229|300:286,1,120
344,328,87245,2,0,P|406:379,1,60,0|4,0:0|0:0,0:0:0
300,288,87995,6,0,P|264:280|224:284,1,60
180,288,88495,2,0,P|144:299|112:322,1,60,0|0,0:0|0:0,0:0:0
180,288,88995,2,0,P|176:251|160:214,1,60,2|0,0:0|0:0,0:0:0
141,173,89495,2,0,P|116:140|48:88,2,120,0|0|4,0:0|0:0|0:0,0:0:0
169,231,90745,1,0,0:0:0
228,236,90995,6,0,P|288:236|352:212,2,120,0|0|2,0:0|0:0|0:0,0:0:0
308,144,92495,2,0,P|338:92|349:24,2,120,0|0|4,0:0|0:0|0:0,0:0:0
424,116,93995,2,0,P|448:216|372:320,1,240,0|0,0:0|0:0,0:0:0
256,192,95495,12,0,96995,0:0:0
