osu file format v9

[General]
AudioFilename: revive.mp3
AudioLeadIn: 1489
PreviewTime: 56548
Countdown: 1
SampleSet: Soft
StackLeniency: 0.9
Mode: 0
LetterboxInBreaks: 1

[Editor]
Bookmarks: 14113,28685,57399,84828
DistanceSpacing: 0.7
BeatDivisor: 4
GridSize: 8

[Metadata]
Title:Revive
Artist:ESTi / Ntreev Soft
Creator:TW-KUMA01
Version:Hard
Source:PANGYA
Tags:PANGYA season 3 TW-KUMA01 Okuuma ignore ign ignorethis

[Difficulty]
HPDrainRate:7
CircleSize:5
OverallDifficulty:7
ApproachRate:8
SliderMultiplier:2
SliderTickRate:2

[Events]
//Background and Video events
0,0,"kaz01_1024-768.jpg"
//Break Periods
//Storyboard Layer 0 (Background)
//Storyboard Layer 1 (Fail)
//Storyboard Layer 2 (Pass)
//Storyboard Layer 3 (Foreground)
//Storyboard Sound Samples
//Background Colour Transformations
3,100,163,162,255

[TimingPoints]
834,428.571428571429,4,2,0,50,1,0
2548,-133.333333333333,4,2,0,60,0,0
12834,-100,4,2,0,60,0,0
20119,-133.333333333333,4,2,0,60,0,0
20548,-100,4,2,0,60,0,0
26441,-100,4,2,0,30,0,0
27619,-100,4,2,0,30,0,0
34798,-100,4,1,0,40,0,0
35548,-100,4,2,0,40,0,0
36405,-100,4,1,0,40,0,0
36941,-100,4,2,0,40,0,0
40048,-100,4,1,0,40,0,0
40691,-100,4,2,0,40,0,0
41119,-100,4,1,0,54,0,0
41548,-100,4,2,0,60,0,0
41976,-100,4,1,0,50,0,0
42405,-100,4,1,0,36,0,0
43691,-100,4,2,0,70,0,0
56441,-100,4,2,0,69,0,0
70691,-100,4,1,0,49,0,0
71334,-100,4,2,0,73,0,0
84084,-100,4,1,0,40,0,0
84834,-100,4,2,0,50,0,0
95119,-100,4,2,0,48,0,0
97691,-100,4,1,0,60,0,0
98976,-100,4,1,0,30,0,0

[Colours]
Combo1 : 47,51,230
Combo2 : 71,114,177
Combo3 : 85,85,191

[HitObjects]
48,144,405,1,0
176,112,834,1,0
208,240,1262,1,0
208,240,1476,1,2
80,272,1905,1,0
80,272,2119,1,2
208,240,2548,2,0,B|384:240,2,149.999995529652,2|2|0
208,240,3834,1,2
200,80,4262,6,0,B|40:80|40:72,1,149.999995529652,0|0
72,144,4905,2,0,B|160:144|216:152|256:144,1,149.999995529652,2|0
272,208,5548,1,2
336,336,5976,2,0,B|336:208|320:176,1,149.999995529652,0|2
384,128,6619,2,0,B|384:192|400:288,1,149.999995529652
398,277,7262,1,2
398,277,7476,1,0
398,277,7691,5,0
256,320,8119,1,0
256,320,8334,1,2
112,272,8762,1,0
112,272,8976,1,2
112,272,9405,2,0,B|176:224|240:192,1,149.999995529652,0|2
320,176,10048,1,0
288,240,10262,2,0,B|240:288|160:320,1,149.999995529652,2|0
160,320,11119,1,0
160,320,11762,5,0
48,136,12834,5,0
88,80,13048,1,0
152,112,13262,1,2
176,48,13476,1,0
248,64,13691,1,0
248,64,13905,5,0
256,80,14012,1,0
264,96,14119,1,2
272,112,14226,1,0
280,128,14334,2,0,B|320:224,1,100,0|4
216,208,14762,2,0,B|192:320,1,100,0|8
112,248,15191,2,0,B|24:296,2,100,2|0|0
88,152,15834,2,0,B|200:168|280:72,1,200,8|0
272,88,16476,1,2
272,88,16584,1,0
272,88,16691,2,0,B|381:132,1,100,8|2
456,72,17119,2,0,B|384:176|408:288,1,200,2|8
403,260,17655,1,0
403,260,17762,6,0,B|264:296|288:296,1,100
160,184,18191,1,2
184,192,18298,1,0
208,200,18405,2,0,B|312:176,1,100,8|0
400,64,18834,2,0,B|264:96,2,100,2|0|8
256,328,19691,1,2
256,328,19905,5,2
256,328,20012,1,0
256,328,20119,2,0,B|96:256,1,149.999995529652,8|0
24,232,20762,1,0
144,192,20976,1,8
176,176,21084,1,0
208,160,21191,2,0,B|304:112,1,100,0|4
296,216,21619,2,0,B|376:144,1,100,2|8
400,256,22048,2,0,B|456:144,2,100,2|0|2
400,256,22584,1,0
400,256,22691,1,8
200,272,23119,6,0,B|136:352,1,100,4|2
136,248,23548,2,0,B|24:328,1,100,8|2
72,208,23976,2,0,B|-32:240,2,100,2|0|8
72,208,24512,1,0
256,192,24941,12,2,26548
80,192,28262,5,0
256,288,28691,1,0
432,192,29119,1,0
256,96,29548,1,0
256,96,29976,5,0
112,224,30405,2,0,B|16:288,2,100,2|0|2
256,352,31262,2,0,B|352:288,2,100,2|0|0
240,160,32119,2,0,B|128:224,2,100,2|0|0
400,272,32976,2,0,B|496:208,2,100,2|0|4
400,272,33619,5,0
336,304,33834,1,0
272,320,34048,1,0
272,320,34262,1,2
192,128,34691,5,0
169,204,34905,1,0
96,240,35119,1,0
96,240,35548,5,2
208,224,35762,1,0
320,240,35976,1,2
432,224,36191,1,0
432,224,36405,1,0
432,224,36619,6,0,B|464:320,1,100
272,192,37262,1,2
256,128,37476,1,0
272,192,37691,2,0,B|304:352,2,150,0|0|2
224,112,38548,2,0,B|112:64|48:32,2,150
336,160,39405,1,2
336,160,39834,5,0
336,160,40048,2,0,B|448:112,1,100
240,272,40691,1,2
240,272,40905,2,0,B|352:256,1,100
112,320,41548,1,0
112,320,41762,2,0,B|208:368,1,100
256,176,42405,1,8
432,80,42834,1,0
432,80,43048,5,0
432,80,43155,1,0
432,80,43262,1,8
432,80,43369,1,0
432,80,43476,1,8
432,80,43584,1,0
432,80,43691,2,0,B|224:136,1,200,4|8
272,216,44334,1,2
272,216,44548,2,0,B|64:296|64:288,1,200,0|8
168,336,45191,1,2
168,336,45405,2,0,B|136:216|96:144,1,200,0|8
216,112,46048,1,2
216,112,46262,5,0
328,152,46476,1,2
328,152,46584,1,0
328,152,46691,1,8
448,152,46905,1,2
448,152,47119,2,0,B|240:200,1,200,4|0
253,196,47762,5,2
168,144,48191,1,2
168,144,48619,1,2
168,144,48726,1,0
168,144,48834,2,0,B|96:232,1,100,0|2
224,216,49262,2,0,B|176:304,1,100,8|2
296,280,49691,2,0,B|272:376,2,100,0|2|8
224,152,50334,2,0,B|264:56,1,100,2|4
262,59,50976,5,0
168,88,51191,1,0
112,168,51405,1,0
256,304,51834,1,2
352,280,52048,1,0
416,200,52262,1,2
416,104,52476,5,0
384,88,52584,1,2
320,168,52798,1,0
304,136,52905,1,2
272,40,53119,1,0
184,88,53334,1,0
152,112,53441,1,2
104,24,53655,1,0
72,24,53762,1,2
40,120,53976,6,0,B|128:72,2,100,0|0|2
40,120,54619,1,0
160,144,54834,2,0,B|232:96|352:128,2,150
160,144,55691,1,4
144,296,56548,5,0
128,272,56655,1,0
224,224,56869,1,0
192,208,56976,1,0
256,128,57191,1,0
224,120,57298,1,0
192,112,57405,2,0,B|64:80,1,100,2|0
176,216,57834,2,0,B|304:248,1,100,8|0
144,312,58262,2,0,B|40:288,2,100,2|0|8
144,312,58905,1,2
220,334,59119,5,2
39,338,59441,1,0
157,203,59762,2,0,B|181:299|189:299,1,100,2|0
320,240,60191,2,0,B|296:152|288:136,1,100,2|8
291,144,60619,1,0
224,72,60834,1,2
376,168,61155,1,0
208,224,61476,1,2
208,224,61691,6,0,B|208:328,1,100,0|2
136,192,62119,2,0,B|136:296,1,100,8|2
136,292,62548,1,0
256,104,62869,1,2
392,280,63191,1,0
392,280,63405,6,0,B|480:344,1,100,2|0
320,320,63834,2,0,B|408:376,1,100,8|2
404,373,64262,5,4
104,328,64691,1,2
136,232,64905,1,0
208,296,65119,1,4
400,184,65441,1,2
192,96,65762,1,0
248,200,65976,5,4
352,56,66298,1,0
448,208,66619,1,2
448,208,66834,1,0
448,208,67262,6,0,B|360:256|248:256,1,200
32,168,68119,2,0,B|112:112|248:120,1,200,2|0
224,119,68762,1,0
224,119,68869,1,0
224,119,68976,1,2
296,48,69191,5,0
304,64,69298,1,0
312,80,69405,1,2
336,168,69619,5,0
344,144,69726,1,0
352,120,69834,1,2
360,32,70048,5,0
392,56,70155,1,0
424,80,70262,2,0,B|464:176|464:176|408:264,1,200
408,264,70798,5,0
400,272,70905,1,0
392,280,71012,1,0
384,288,71119,2,0,B|246:313|246:305,1,100,4|2
216,208,71548,2,0,B|336:192,1,100,8|2
224,104,71976,2,0,B|96:112|104:112,2,100,0|2|8
224,104,72619,1,2
224,104,72834,5,6
160,184,73155,1,2
152,288,73476,1,0
152,288,73691,2,0,B|32:352,2,100,0|2|8
232,160,74334,2,0,B|320:112|328:112,1,100,2|4
360,256,74869,1,2
360,256,75191,2,0,B|408:352,1,100,0|4
208,304,75834,2,0,B|112:248,1,100,2|0
192,192,76262,6,0,B|120:160|96:64,2,150,2|2|0
272,144,77119,1,0
272,240,77334,1,2
272,240,77441,1,2
352,192,77655,1,0
352,192,77762,1,2
272,240,77976,1,4
176,304,78405,6,0,B|48:312,1,100,2|0
240,240,78834,2,0,B|400:264,2,150,2|2|0
184,160,79691,2,0,B|16:192,2,150,2|2|0
184,160,80548,5,4
336,288,80976,1,2
416,200,81191,1,0
416,80,81405,1,0
312,24,81619,1,2
288,40,81726,1,2
264,56,81834,2,0,B|280:144|264:192|256:200,1,100,0|2
368,160,82262,2,0,B|368:240|384:272,1,100,0|2
304,336,82691,6,0,B|184:352,1,100,0|2
264,248,83119,2,0,B|128:232,1,100,0|2
256,160,83548,2,0,B|144:96,2,100,0|2|4
290,168,84084,1,0
324,169,84191,1,0
357,159,84298,1,0
382,134,84405,1,0
398,103,84512,2,0,B|391:197|427:264,1,150,0|4
420,251,85048,1,2
420,251,85262,1,0
420,251,85476,6,0,B|302:250|222:298,1,200,2|0
120,216,86334,2,0,B|224:168|240:32,1,200,4|0
235,62,86976,5,0
208,152,87405,1,2
240,248,87834,1,0
200,344,88262,2,0,B|152:240|24:200|16:192,1,200,2|0
55,211,88905,1,2
152,200,89334,2,0,B|256:200|336:112|328:112,1,200,0|4
327,115,89976,1,0
327,115,90191,1,0
360,48,90405,5,0
440,272,90834,1,0
392,128,91155,1,0
440,272,91476,1,0
440,272,91691,6,0,B|320:288|256:384,1,200,2|0
216,280,92334,2,0,B|176:184,1,100,2|0
256,96,92762,2,0,B|296:200,1,100
291,189,93191,6,0,B|184:160|80:208,1,200,2|0
32,232,93834,2,0,B|88:160|80:40,1,200,0|2
80,42,94476,1,0
144,120,94691,1,0
144,120,95119,5,4
112,216,95334,1,2
208,248,95548,1,0
240,152,95762,2,0,B|336:184|448:160|440:160,1,200,2|0
440,64,96405,1,0
440,64,96619,2,0,B|336:32|216:56,1,200,2|2
242,51,97262,5,0
144,80,97476,1,0
160,176,97691,1,0
184,208,97798,1,0
224,200,97905,1,0
256,224,98012,1,0
296,216,98119,1,0
328,240,98226,1,0
368,232,98334,1,0
400,256,98441,1,0
488,296,98976,5,0
