osu file format v14

[General]
AudioFilename: revive.mp3
AudioLeadIn: 3500
PreviewTime: 57187
Countdown: 0
SampleSet: Soft
StackLeniency: 0.7
Mode: 3
LetterboxInBreaks: 0
SpecialStyle: 0
WidescreenStoryboard: 0

[Editor]
DistanceSpacing: 0.9
BeatDivisor: 4
GridSize: 8
TimelineZoom: 2.2

[Metadata]
Title:Revive
TitleUnicode:Revive
Artist:ESTi / Ntreev Soft
ArtistUnicode:ESTi / Ntreev Soft
Creator:ArcherLove
Version:Normal
Source:Pangya Season3 Revolution
Tags:Eternalie Golf
BeatmapID:569555
BeatmapSetID:247358

[Difficulty]
HPDrainRate:7.5
CircleSize:7
OverallDifficulty:7.5
ApproachRate:5
SliderMultiplier:1.4
SliderTickRate:1

[Events]
//Background and Video events
0,0,"BG Pang.jpg",0,0
//Break Periods
//Storyboard Layer 0 (Background)
//Storyboard Layer 1 (Fail)
//Storyboard Layer 2 (Pass)
//Storyboard Layer 3 (Foreground)
//Storyboard Sound Samples

[TimingPoints]
883,428.571428571429,4,2,1,25,1,0
14597,-100,4,2,1,25,0,0
43740,-100,4,2,1,25,0,1
43775,-100,4,2,1,25,0,0
57454,-100,4,2,1,25,0,1
71061,-100,4,2,1,25,0,0
71168,-100,4,2,1,25,0,1
84883,-100,4,2,1,25,0,0
99025,-133.333333333333,4,2,1,25,0,0

[Colours]
Combo1 : 18,124,255
Combo2 : 0,202,0

[HitObjects]
182,192,454,128,0,883:0:0:0:0:
329,192,883,1,0,0:0:0:0:
36,192,883,1,0,0:0:0:0:
109,192,1097,1,0,0:0:0:0:
182,192,1311,1,0,0:0:0:0:
256,192,1525,1,0,0:0:0:0:
475,192,1525,1,0,0:0:0:0:
329,192,1740,1,0,0:0:0:0:
402,192,1954,1,0,0:0:0:0:
475,192,2168,1,0,0:0:0:0:
182,192,2168,1,0,0:0:0:0:
256,192,2383,1,0,0:0:0:0:
329,192,2597,1,0,0:0:0:0:
36,192,2597,1,0,0:0:0:0:
109,192,2811,1,0,0:0:0:0:
182,192,3025,1,0,0:0:0:0:
256,192,3240,1,0,0:0:0:0:
475,192,3240,1,0,0:0:0:0:
36,192,3454,1,0,0:0:0:0:
329,192,3454,1,0,0:0:0:0:
109,192,3668,1,0,0:0:0:0:
182,192,3883,1,0,0:0:0:0:
402,192,3883,1,0,0:0:0:0:
256,192,4097,1,0,0:0:0:0:
475,192,4311,1,0,0:0:0:0:
109,192,4311,1,0,0:0:0:0:
182,192,4525,1,0,0:0:0:0:
256,192,4740,1,0,0:0:0:0:
329,192,4954,1,0,0:0:0:0:
36,192,4954,1,0,0:0:0:0:
402,192,5168,1,0,0:0:0:0:
475,192,5383,1,0,0:0:0:0:
182,192,5597,1,0,0:0:0:0:
329,192,5811,1,0,0:0:0:0:
475,192,6025,1,0,0:0:0:0:
109,192,6025,1,0,0:0:0:0:
182,192,6240,1,0,0:0:0:0:
256,192,6454,1,0,0:0:0:0:
402,192,6454,1,0,0:0:0:0:
109,192,6668,1,0,0:0:0:0:
475,192,6883,1,0,0:0:0:0:
329,192,7097,1,0,0:0:0:0:
36,192,7311,1,0,0:0:0:0:
256,192,7311,1,0,0:0:0:0:
182,192,7525,1,0,0:0:0:0:
36,192,7740,1,0,0:0:0:0:
329,192,7740,1,0,0:0:0:0:
182,192,7954,1,0,0:0:0:0:
329,192,8168,1,0,0:0:0:0:
402,192,8383,1,0,0:0:0:0:
109,192,8383,1,0,0:0:0:0:
475,192,8597,1,0,0:0:0:0:
36,192,8811,1,0,0:0:0:0:
182,192,8918,1,0,0:0:0:0:
329,192,9025,1,0,0:0:0:0:
475,192,9025,1,0,0:0:0:0:
256,192,9240,1,0,0:0:0:0:
182,192,9454,1,0,0:0:0:0:
36,192,9454,1,0,0:0:0:0:
256,192,9668,1,0,0:0:0:0:
329,192,9883,1,0,0:0:0:0:
256,192,10097,1,0,0:0:0:0:
475,192,10097,1,0,0:0:0:0:
402,192,10311,1,0,0:0:0:0:
109,192,10311,1,0,0:0:0:0:
36,192,10740,1,0,0:0:0:0:
329,192,10740,1,0,0:0:0:0:
475,192,11168,1,0,0:0:0:0:
256,192,11168,1,0,0:0:0:0:
182,192,11383,1,0,0:0:0:0:
256,192,11597,1,0,0:0:0:0:
329,192,11811,1,0,0:0:0:0:
109,192,11811,1,0,0:0:0:0:
402,192,12025,1,0,0:0:0:0:
182,192,12025,1,0,0:0:0:0:
256,192,12347,1,0,0:0:0:0:
329,192,12668,1,0,0:0:0:0:
36,192,12883,1,0,0:0:0:0:
256,192,12883,1,0,0:0:0:0:
182,192,13097,1,0,0:0:0:0:
256,192,13311,1,0,0:0:0:0:
402,192,13525,1,0,0:0:0:0:
109,192,13525,1,0,0:0:0:0:
182,192,13740,1,0,0:0:0:0:
329,192,13954,1,0,0:0:0:0:
475,192,14168,1,0,0:0:0:0:
36,192,14168,1,0,0:0:0:0:
109,192,14383,1,0,0:0:0:0:
36,192,14597,1,4,0:0:0:0:
475,192,14597,1,4,0:0:0:0:
256,192,14597,1,0,0:0:0:0:
109,192,14811,1,0,0:0:0:0:
182,192,15025,1,8,0:0:0:0:
475,192,15240,1,0,0:0:0:0:
256,192,15240,1,0,0:0:0:0:
329,192,15454,1,0,0:0:0:0:
36,192,15454,1,0,0:0:0:0:
109,192,15668,1,0,0:0:0:0:
329,192,15883,1,0,0:0:0:0:
182,192,15883,1,8,0:0:0:0:
256,192,16097,1,0,0:0:0:0:
182,192,16311,1,0,0:0:0:0:
475,192,16311,1,0,0:0:0:0:
109,192,16525,1,0,0:0:0:0:
182,192,16740,1,8,0:0:0:0:
256,192,16954,1,0,0:0:0:0:
36,192,17168,1,0,0:0:0:0:
329,192,17168,1,0,0:0:0:0:
402,192,17383,1,0,0:0:0:0:
182,192,17597,1,8,0:0:0:0:
475,192,17597,1,0,0:0:0:0:
109,192,17811,1,2,0:0:0:0:
402,192,17811,128,0,18025:0:0:0:0:
182,192,18025,1,0,0:0:0:0:
329,192,18025,1,0,0:0:0:0:
36,192,18240,1,0,0:0:0:0:
109,192,18454,1,8,0:0:0:0:
256,192,18668,1,0,0:0:0:0:
475,192,18668,1,0,0:0:0:0:
402,192,18883,1,0,0:0:0:0:
182,192,19097,1,0,0:0:0:0:
109,192,19311,1,0,0:0:0:0:
329,192,19311,1,8,0:0:0:0:
182,192,19525,1,0,0:0:0:0:
402,192,19740,1,0,0:0:0:0:
36,192,19740,1,0,0:0:0:0:
256,192,19740,128,0,21025:0:0:0:0:
475,192,19954,1,0,0:0:0:0:
329,192,20168,1,8,0:0:0:0:
36,192,20383,128,0,21025:0:0:0:0:
329,192,21025,1,10,0:0:0:0:
475,192,21240,1,0,0:0:0:0:
182,192,21240,1,0,0:0:0:0:
109,192,21454,1,0,0:0:0:0:
402,192,21454,1,0,0:0:0:0:
256,192,21454,1,0,0:0:0:0:
329,192,21668,1,0,0:0:0:0:
182,192,21883,1,10,0:0:0:0:
402,192,22097,1,0,0:0:0:0:
256,192,22311,1,2,0:0:0:0:
36,192,22311,1,0,0:0:0:0:
109,192,22525,1,0,0:0:0:0:
475,192,22740,1,0,0:0:0:0:
256,192,22740,1,8,0:0:0:0:
402,192,22954,1,0,0:0:0:0:
182,192,23168,1,2,0:0:0:0:
36,192,23168,1,0,0:0:0:0:
329,192,23383,1,0,0:0:0:0:
182,192,23597,1,8,0:0:0:0:
329,192,23811,1,2,0:0:0:0:
475,192,23811,1,2,0:0:0:0:
109,192,24240,1,0,0:0:0:0:
256,192,24454,1,0,0:0:0:0:
402,192,24454,1,8,0:0:0:0:
36,192,24883,1,0,0:0:0:0:
329,192,24883,128,2,26597:0:0:0:0:
182,192,24883,1,8,0:0:0:0:
475,192,25311,1,0,0:0:0:0:
109,192,25740,1,0,0:0:0:0:
475,192,26168,1,8,0:0:0:0:
402,192,26597,1,0,0:0:0:0:
182,192,26597,1,0,0:0:0:0:
36,192,26597,128,0,27454:0:0:0:0:
256,192,27025,1,8,0:0:0:0:
182,192,27454,1,0,0:0:0:20:LR_Clap Kick Fast Low Beat.wav
256,192,27561,1,0,0:0:0:20:LR_Clap Kick Fast Low Beat.wav
329,192,27668,1,0,0:0:0:20:LR_Clap Kick Fast Low Beat.wav
402,192,27775,1,0,0:0:0:20:LR_Clap Kick Fast Low Beat.wav
475,192,27883,1,0,0:0:0:20:LR_Clap Kick Fast Low Beat.wav
36,192,27883,1,0,0:0:0:20:LR_Clap Kick Fast Low Beat.wav
109,192,27990,1,0,0:0:0:20:LR_Clap Kick Fast Low Beat.wav
182,192,28097,1,0,0:0:0:20:LR_Clap Kick Fast Low Beat.wav
256,192,28204,1,0,0:0:0:20:LR_Clap Kick Fast Low Beat.wav
475,192,28311,1,0,0:0:0:20:LR_Clap Kick Fast Low Beat.wav
329,192,28311,1,0,0:0:0:20:LR_Clap Kick Fast Low Beat.wav
329,192,28740,1,0,0:0:0:0:
256,192,28740,1,0,0:0:0:0:
256,192,29168,1,0,0:0:0:0:
182,192,29168,1,0,0:0:0:0:
36,192,29597,1,0,0:0:0:0:
182,192,29597,1,0,0:0:0:0:
109,192,30025,1,0,0:0:0:0:
402,192,30025,1,0,0:0:0:0:
256,192,30025,128,0,30883:0:0:0:0:
36,192,30240,1,0,0:0:0:0:
475,192,30454,1,0,0:0:0:0:
36,192,30668,1,0,0:0:0:0:
475,192,30883,1,0,0:0:0:0:
36,192,31311,1,0,0:0:0:0:
329,192,31311,1,0,0:0:0:0:
475,192,31525,1,0,0:0:0:0:
182,192,31525,1,0,0:0:0:0:
109,192,31740,1,0,0:0:0:0:
402,192,31740,1,0,0:0:0:0:
256,192,31740,128,0,32597:0:0:0:0:
36,192,31954,1,0,0:0:0:0:
475,192,32168,1,0,0:0:0:0:
36,192,32383,1,0,0:0:0:0:
475,192,32597,1,0,0:0:0:0:
182,192,33025,1,0,0:0:0:0:
402,192,33025,1,0,0:0:0:0:
256,192,33240,1,0,0:0:0:0:
109,192,33454,1,0,0:0:0:0:
329,192,33454,1,0,0:0:0:0:
182,192,33668,1,0,0:0:0:0:
256,192,33883,1,0,0:0:0:0:
329,192,34097,1,0,0:0:0:0:
402,192,34311,1,0,0:0:0:0:
109,192,34311,1,0,0:0:0:0:
182,192,34525,1,0,0:0:0:0:
256,192,34740,1,0,0:0:0:0:
329,192,34954,1,0,0:0:0:0:
36,192,35168,1,0,0:0:0:0:
402,192,35168,1,0,0:0:0:0:
329,192,35383,1,0,0:0:0:0:
256,192,35597,1,0,0:0:0:0:
182,192,35811,1,0,0:0:0:0:
402,192,36025,128,0,36240:0:0:0:0:
109,192,36025,128,0,36240:0:0:0:0:
475,192,36240,128,2,36454:0:0:0:0:
36,192,36240,128,2,36454:0:0:0:0:
256,192,36454,1,0,0:0:0:0:
402,192,36668,1,0,0:0:0:0:
256,192,36883,1,0,0:0:0:0:
36,192,36883,1,0,0:0:0:0:
109,192,37097,1,0,0:0:0:0:
182,192,37311,1,0,0:0:0:0:
256,192,37525,1,0,0:0:0:0:
329,192,37740,1,0,0:0:0:0:
109,192,37740,1,0,0:0:0:0:
182,192,37954,1,0,0:0:0:0:
402,192,38168,1,0,0:0:0:0:
256,192,38168,1,0,0:0:0:0:
329,192,38383,1,0,0:0:0:0:
475,192,38383,1,0,0:0:0:0:
402,192,38597,1,0,0:0:0:0:
182,192,38597,1,0,0:0:0:0:
109,192,38811,1,0,0:0:0:0:
36,192,39025,1,0,0:0:0:0:
256,192,39025,1,0,0:0:0:0:
109,192,39240,1,0,0:0:0:0:
329,192,39240,1,0,0:0:0:0:
182,192,39454,1,0,0:0:0:0:
36,192,39454,1,0,0:0:0:0:
256,192,39668,1,0,0:0:0:0:
329,192,39883,1,0,0:0:0:0:
182,192,39883,1,0,0:0:0:0:
402,192,40097,1,0,0:0:0:0:
109,192,40097,1,0,0:0:0:0:
475,192,40311,1,0,0:0:0:0:
36,192,40311,1,0,0:0:0:0:
182,192,40525,1,0,0:0:0:0:
256,192,40740,1,0,0:0:0:0:
329,192,40954,1,0,0:0:0:0:
182,192,40954,1,0,0:0:0:0:
402,192,41168,1,0,0:0:0:0:
109,192,41168,1,0,0:0:0:0:
182,192,41383,1,0,0:0:0:0:
256,192,41597,1,0,0:0:0:0:
475,192,41597,1,0,0:0:0:0:
329,192,41811,1,0,0:0:0:0:
36,192,41811,1,0,0:0:0:0:
402,192,42025,1,0,0:0:0:0:
109,192,42025,1,0,0:0:0:0:
182,192,42454,1,0,0:0:0:0:
329,192,42883,1,0,0:0:0:0:
109,192,42883,1,0,0:0:0:0:
182,192,43097,1,0,0:0:0:0:
402,192,43097,1,0,0:0:0:0:
36,192,43311,1,0,0:0:0:0:
109,192,43311,1,0,0:0:0:0:
182,192,43525,1,0,0:0:0:0:
402,192,43525,1,0,0:0:0:0:
475,192,43740,1,4,0:0:0:0:
36,192,43740,1,0,0:0:0:0:
256,192,43740,1,0,0:0:0:0:
182,192,43954,1,0,0:0:0:0:
329,192,44168,1,8,0:0:0:0:
109,192,44168,1,0,0:0:0:0:
402,192,44383,1,0,0:0:0:0:
182,192,44383,1,0,0:0:0:0:
475,192,44597,1,0,0:0:0:0:
256,192,44597,1,0,0:0:0:0:
109,192,44811,1,0,0:0:0:0:
182,192,45025,1,8,0:0:0:0:
329,192,45025,1,0,0:0:0:0:
256,192,45240,1,0,0:0:0:0:
402,192,45240,1,0,0:0:0:0:
329,192,45454,1,0,0:0:0:0:
475,192,45454,1,0,0:0:0:0:
182,192,45668,1,0,0:0:0:0:
256,192,45883,1,8,0:0:0:0:
402,192,45883,1,0,0:0:0:0:
475,192,46097,1,0,0:0:0:0:
329,192,46097,1,0,0:0:0:0:
256,192,46311,1,0,0:0:0:0:
402,192,46311,1,0,0:0:0:0:
329,192,46525,1,0,0:0:0:0:
109,192,46740,1,8,0:0:0:0:
402,192,46740,1,0,0:0:0:0:
329,192,46954,1,2,0:0:0:0:
256,192,47168,1,0,0:0:0:0:
36,192,47168,1,0,0:0:0:0:
109,192,47383,1,0,0:0:0:0:
182,192,47597,1,8,0:0:0:0:
402,192,47597,1,0,0:0:0:0:
256,192,47811,1,0,0:0:0:0:
475,192,47811,1,0,0:0:0:0:
402,192,48025,1,0,0:0:0:0:
109,192,48025,1,0,0:0:0:0:
329,192,48240,1,0,0:0:0:0:
256,192,48454,1,8,0:0:0:0:
475,192,48454,1,0,0:0:0:0:
182,192,48668,1,0,0:0:0:0:
402,192,48668,1,0,0:0:0:0:
109,192,48883,1,0,0:0:0:0:
36,192,48883,1,0,0:0:0:0:
329,192,49097,1,2,0:0:0:0:
36,192,49311,1,8,0:0:0:0:
475,192,49311,1,0,0:0:0:0:
182,192,49525,1,0,0:0:0:0:
402,192,49525,1,0,0:0:0:0:
109,192,49740,1,0,0:0:0:0:
329,192,49740,1,0,0:0:0:0:
182,192,49954,1,2,0:0:0:0:
402,192,49954,1,0,0:0:0:0:
256,192,50168,1,8,0:0:0:0:
475,192,50168,1,0,0:0:0:0:
182,192,50383,1,8,0:0:0:0:
36,192,50383,1,4,0:0:0:0:
402,192,50383,1,0,0:0:0:0:
256,192,50597,1,8,0:0:0:0:
109,192,50597,1,4,0:0:0:0:
475,192,50597,1,0,0:0:0:0:
182,192,50811,1,0,0:0:0:0:
256,192,51025,1,8,0:0:0:0:
329,192,51240,1,0,0:0:0:0:
109,192,51240,1,0,0:0:0:0:
402,192,51454,1,0,0:0:0:0:
36,192,51454,1,0,0:0:0:0:
256,192,51668,1,0,0:0:0:0:
329,192,51883,1,8,0:0:0:0:
182,192,51883,1,0,0:0:0:0:
109,192,52097,1,2,0:0:0:0:
475,192,52311,1,0,0:0:0:0:
329,192,52311,1,0,0:0:0:0:
182,192,52525,1,2,0:0:0:0:
256,192,52740,1,8,0:0:0:0:
475,192,52740,1,0,0:0:0:0:
329,192,52954,1,0,0:0:0:0:
402,192,53168,1,0,0:0:0:0:
109,192,53168,1,0,0:0:0:0:
182,192,53383,1,0,0:0:0:0:
256,192,53597,1,8,0:0:0:0:
36,192,53597,1,0,0:0:0:0:
329,192,53811,1,0,0:0:0:0:
36,192,54025,1,0,0:0:0:0:
402,192,54025,1,0,0:0:0:0:
109,192,54240,1,0,0:0:0:0:
182,192,54454,1,8,0:0:0:0:
402,192,54454,1,0,0:0:0:0:
256,192,54668,1,0,0:0:0:0:
475,192,54883,1,0,0:0:0:0:
36,192,54883,1,0,0:0:0:0:
402,192,55097,1,0,0:0:0:0:
329,192,55311,1,8,0:0:0:0:
109,192,55311,1,0,0:0:0:0:
256,192,55525,1,0,0:0:0:0:
36,192,55740,1,14,0:0:0:0:
475,192,55740,1,8,0:0:0:0:
182,192,55740,1,8,0:0:0:0:
256,192,56168,1,0,0:0:0:0:
109,192,56597,1,0,0:0:0:0:
475,192,56597,1,0,0:0:0:0:
402,192,56811,1,2,0:0:0:0:
36,192,57025,1,0,0:0:0:0:
329,192,57025,1,0,0:0:0:0:
256,192,57240,1,0,0:0:0:0:
109,192,57454,1,4,0:0:0:0:
182,192,57454,1,2,0:0:0:0:
329,192,57454,1,0,0:0:0:0:
402,192,57668,1,0,0:0:0:0:
109,192,57883,1,8,0:0:0:0:
36,192,57883,1,0,0:0:0:0:
402,192,58097,1,0,0:0:0:0:
182,192,58311,1,0,0:0:0:0:
109,192,58311,1,0,0:0:0:0:
402,192,58525,1,0,0:0:0:0:
182,192,58740,1,8,0:0:0:0:
329,192,58740,1,8,0:0:0:0:
109,192,58954,1,0,0:0:0:0:
329,192,59168,1,0,0:0:0:0:
402,192,59168,1,0,0:0:0:0:
109,192,59383,1,0,0:0:0:0:
475,192,59597,1,8,0:0:0:0:
402,192,59597,1,0,0:0:0:0:
109,192,59811,1,0,0:0:0:0:
182,192,60025,1,0,0:0:0:0:
329,192,60025,1,0,0:0:0:0:
402,192,60240,1,0,0:0:0:0:
256,192,60454,1,8,0:0:0:0:
109,192,60454,1,8,0:0:0:0:
36,192,60668,1,0,0:0:0:0:
256,192,60883,1,0,0:0:0:0:
402,192,60883,1,0,0:0:0:0:
182,192,61097,1,0,0:0:0:0:
475,192,61311,1,8,0:0:0:0:
109,192,61311,1,0,0:0:0:0:
256,192,61525,1,0,0:0:0:0:
36,192,61740,1,0,0:0:0:0:
402,192,61740,1,0,0:0:0:0:
182,192,61954,1,0,0:0:0:0:
36,192,62168,1,8,0:0:0:0:
475,192,62168,1,0,0:0:0:0:
109,192,62383,1,0,0:0:0:0:
402,192,62383,1,0,0:0:0:0:
182,192,62597,1,0,0:0:0:0:
329,192,62597,1,0,0:0:0:0:
402,192,62811,1,0,0:0:0:0:
36,192,63025,1,8,0:0:0:0:
475,192,63025,1,8,0:0:0:0:
256,192,63240,1,0,0:0:0:0:
329,192,63454,1,0,0:0:0:0:
182,192,63668,1,0,0:0:0:0:
256,192,63883,1,8,0:0:0:0:
475,192,63883,1,0,0:0:0:0:
402,192,64097,1,2,0:0:0:0:
109,192,64097,1,0,0:0:0:0:
329,192,64311,1,6,0:0:0:0:
36,192,64311,1,4,0:0:0:0:
182,192,64525,1,0,0:0:0:0:
109,192,64740,1,8,0:0:0:0:
402,192,64740,1,0,0:0:0:0:
329,192,64954,1,0,0:0:0:0:
475,192,65168,1,0,0:0:0:0:
109,192,65168,1,0,0:0:0:0:
182,192,65383,1,0,0:0:0:0:
256,192,65597,1,8,0:0:0:0:
36,192,65597,1,0,0:0:0:0:
329,192,65811,1,0,0:0:0:0:
329,192,66025,1,0,0:0:0:0:
182,192,66240,1,0,0:0:0:0:
475,192,66454,1,8,0:0:0:0:
109,192,66454,1,0,0:0:0:0:
256,192,66668,1,0,0:0:0:0:
402,192,66883,1,0,0:0:0:0:
36,192,66883,1,0,0:0:0:0:
182,192,67097,1,0,0:0:0:0:
329,192,67311,1,8,0:0:0:0:
475,192,67311,1,8,0:0:0:0:
402,192,67525,1,0,0:0:0:0:
182,192,67740,1,0,0:0:0:0:
36,192,67740,1,0,0:0:0:0:
329,192,67954,1,0,0:0:0:0:
475,192,68168,1,8,0:0:0:0:
109,192,68168,1,0,0:0:0:0:
256,192,68383,1,0,0:0:0:0:
36,192,68597,1,0,0:0:0:0:
402,192,68597,1,0,0:0:0:0:
475,192,69025,1,8,0:0:0:0:
109,192,69025,1,8,0:0:0:0:
475,192,69454,1,4,0:0:0:0:
182,192,69454,1,2,0:0:0:0:
329,192,69775,1,4,0:0:0:0:
402,192,70097,1,2,0:0:0:0:
182,192,70204,1,4,0:0:0:0:
36,192,70311,1,4,0:0:0:0:
256,192,70311,1,2,0:0:0:0:
475,192,70311,1,0,0:0:0:0:
475,192,70740,1,0,0:0:0:0:
36,192,70740,1,0,0:0:0:0:
402,192,70954,1,0,0:0:0:0:
109,192,70954,1,0,0:0:0:0:
475,192,71168,1,4,0:0:0:0:
36,192,71168,1,2,0:0:0:0:
182,192,71383,1,0,0:0:0:0:
402,192,71597,1,8,0:0:0:0:
109,192,71597,1,8,0:0:0:0:
256,192,71811,1,0,0:0:0:0:
109,192,72025,1,0,0:0:0:0:
402,192,72025,1,0,0:0:0:0:
256,192,72240,1,0,0:0:0:0:
475,192,72454,1,8,0:0:0:0:
36,192,72454,1,8,0:0:0:0:
256,192,72668,1,0,0:0:0:0:
402,192,72883,1,0,0:0:0:0:
109,192,72883,1,0,0:0:0:0:
182,192,73097,1,0,0:0:0:0:
36,192,73311,1,8,0:0:0:0:
329,192,73311,1,0,0:0:0:0:
109,192,73525,1,0,0:0:0:0:
402,192,73525,1,0,0:0:0:0:
182,192,73740,1,0,0:0:0:0:
475,192,73740,1,0,0:0:0:0:
329,192,73954,1,0,0:0:0:0:
182,192,74168,1,8,0:0:0:0:
475,192,74168,1,0,0:0:0:0:
109,192,74383,1,0,0:0:0:0:
329,192,74597,1,0,0:0:0:0:
36,192,74597,1,0,0:0:0:0:
182,192,74811,1,0,0:0:0:0:
36,192,75025,1,8,0:0:0:0:
329,192,75025,1,8,0:0:0:0:
256,192,75240,1,0,0:0:0:0:
109,192,75454,1,0,0:0:0:0:
402,192,75454,1,0,0:0:0:0:
329,192,75668,1,0,0:0:0:0:
109,192,75883,1,8,0:0:0:0:
475,192,75883,1,8,0:0:0:0:
182,192,76097,1,0,0:0:0:0:
256,192,76311,1,0,0:0:0:0:
182,192,76525,1,0,0:0:0:0:
475,192,76740,1,8,0:0:0:0:
256,192,76740,1,0,0:0:0:0:
36,192,76954,1,0,0:0:0:0:
109,192,77168,1,0,0:0:0:0:
329,192,77168,1,0,0:0:0:0:
402,192,77383,1,0,0:0:0:0:
475,192,77597,1,8,0:0:0:0:
109,192,77597,1,0,0:0:0:0:
402,192,77811,1,2,0:0:0:0:
182,192,77811,1,0,0:0:0:0:
329,192,78025,1,6,0:0:0:0:
109,192,78025,1,0,0:0:0:0:
36,192,78025,1,0,0:0:0:0:
256,192,78240,1,0,0:0:0:0:
475,192,78454,1,8,0:0:0:0:
329,192,78454,1,0,0:0:0:0:
109,192,78668,1,0,0:0:0:0:
329,192,78883,1,4,0:0:0:0:
182,192,78883,1,0,0:0:0:0:
475,192,78883,1,0,0:0:0:0:
109,192,79097,1,0,0:0:0:0:
36,192,79311,1,8,0:0:0:0:
182,192,79311,1,8,0:0:0:0:
329,192,79525,1,0,0:0:0:0:
256,192,79740,1,4,0:0:0:0:
36,192,79740,1,0,0:0:0:0:
182,192,79740,1,0,0:0:0:0:
402,192,79954,1,0,0:0:0:0:
475,192,80168,1,8,0:0:0:0:
256,192,80168,1,8,0:0:0:0:
109,192,80383,1,0,0:0:0:0:
329,192,80597,1,4,0:0:0:0:
182,192,80597,1,4,0:0:0:0:
256,192,80811,1,2,0:0:0:0:
182,192,81025,1,10,0:0:0:0:
329,192,81025,1,2,0:0:0:0:
402,192,81240,1,0,0:0:0:0:
109,192,81240,1,4,0:0:0:0:
475,192,81454,1,2,0:0:0:0:
36,192,81454,1,4,0:0:0:0:
256,192,81454,1,0,0:0:0:0:
182,192,81668,1,0,0:0:0:0:
329,192,81883,1,8,0:0:0:0:
36,192,81883,1,0,0:0:0:0:
256,192,82097,1,0,0:0:0:0:
36,192,82311,1,0,0:0:0:0:
256,192,82525,1,0,0:0:0:0:
182,192,82740,1,8,0:0:0:0:
329,192,82740,1,0,0:0:0:0:
256,192,82954,1,2,0:0:0:0:
402,192,83168,1,4,0:0:0:0:
109,192,83168,1,2,0:0:0:0:
256,192,83383,1,0,0:0:0:0:
475,192,83597,1,8,0:0:0:0:
36,192,83597,1,8,0:0:0:0:
182,192,83811,1,0,0:0:0:0:
36,192,84025,1,0,0:0:0:0:
475,192,84025,1,4,0:0:0:0:
256,192,84025,1,0,0:0:0:0:
402,192,84240,1,0,0:0:0:20:LR_Clap Kick Fast Low Beat.wav
109,192,84347,1,0,0:0:0:20:LR_Clap Kick Fast Low Beat.wav
402,192,84454,1,0,0:0:0:20:LR_Clap Kick Fast Low Beat.wav
109,192,84561,1,0,0:0:0:20:LR_Clap Kick Fast Low Beat.wav
402,192,84668,1,0,0:0:0:20:LR_Clap Kick Fast Low Beat.wav
109,192,84775,1,0,0:0:0:20:LR_Clap Kick Fast Low Beat.wav
475,192,84883,1,4,0:0:0:0:
36,192,84883,1,0,0:0:0:0:
256,192,84883,1,0,0:0:0:0:
402,192,85097,1,0,0:0:0:0:
109,192,85311,1,8,0:0:0:0:
256,192,85311,1,0,0:0:0:0:
402,192,85525,1,0,0:0:0:0:
109,192,85954,1,0,0:0:0:0:
329,192,86168,1,8,0:0:0:0:
182,192,86168,1,0,0:0:0:0:
402,192,86383,1,0,0:0:0:0:
36,192,86383,128,0,86811:0:0:0:0:
329,192,86811,1,0,0:0:0:0:
109,192,87025,1,8,0:0:0:0:
256,192,87025,1,8,0:0:0:0:
402,192,87454,1,0,0:0:0:0:
109,192,87883,1,8,0:0:0:0:
256,192,87883,1,8,0:0:0:0:
475,192,88311,1,0,0:0:0:0:
36,192,88311,1,0,0:0:0:0:
329,192,88525,1,0,0:0:0:0:
402,192,88740,1,8,0:0:0:0:
256,192,88740,1,8,0:0:0:0:
109,192,88954,1,0,0:0:0:0:
402,192,89383,1,0,0:0:0:0:
182,192,89597,1,8,0:0:0:0:
329,192,89597,1,8,0:0:0:0:
109,192,89811,1,0,0:0:0:0:
475,192,89811,128,0,90240:0:0:0:0:
402,192,90240,1,0,0:0:0:0:
109,192,90454,1,8,0:0:0:0:
256,192,90454,1,0,0:0:0:0:
256,192,90883,1,4,0:0:0:0:
182,192,90883,1,2,0:0:0:0:
402,192,91204,1,4,0:0:0:0:
329,192,91204,1,6,0:0:0:0:
109,192,91525,1,4,0:0:0:0:
182,192,91525,1,6,0:0:0:0:
256,192,91740,1,4,0:0:0:0:
329,192,91740,1,0,0:0:0:0:
109,192,91954,1,0,0:0:0:0:
402,192,92168,1,8,0:0:0:0:
182,192,92168,1,0,0:0:0:0:
256,192,92383,1,0,0:0:0:0:
402,192,92597,1,0,0:0:0:0:
182,192,92811,1,0,0:0:0:0:
109,192,93025,1,8,0:0:0:0:
402,192,93025,1,0,0:0:0:0:
36,192,93240,1,0,0:0:0:0:
182,192,93454,1,0,0:0:0:0:
329,192,93668,1,0,0:0:0:0:
182,192,93883,1,8,0:0:0:0:
475,192,93883,1,8,0:0:0:0:
402,192,94097,1,0,0:0:0:0:
329,192,94311,1,0,0:0:0:0:
36,192,94311,1,0,0:0:0:0:
182,192,94525,1,0,0:0:0:0:
475,192,94740,1,8,0:0:0:0:
256,192,94740,1,8,0:0:0:0:
402,192,94954,1,4,0:0:0:0:
182,192,94954,1,2,0:0:0:0:
109,192,94954,1,0,0:0:0:0:
475,192,95168,1,4,0:0:0:0:
36,192,95168,1,2,0:0:0:0:
256,192,95168,1,0,0:0:0:0:
329,192,95383,1,0,0:0:0:0:
182,192,95597,1,8,0:0:0:0:
475,192,95597,1,0,0:0:0:0:
329,192,95811,1,0,0:0:0:0:
36,192,96025,1,0,0:0:0:0:
402,192,96025,1,0,0:0:0:0:
182,192,96240,1,0,0:0:0:0:
402,192,96454,1,8,0:0:0:0:
109,192,96454,1,0,0:0:0:0:
36,192,96668,1,0,0:0:0:0:
182,192,96883,1,0,0:0:0:0:
329,192,96883,1,0,0:0:0:0:
109,192,97097,1,0,0:0:0:0:
402,192,97311,1,8,0:0:0:0:
256,192,97311,1,0,0:0:0:0:
475,192,97525,1,0,0:0:0:0:
109,192,97525,1,0,0:0:0:0:
36,192,97740,1,0,0:0:0:0:
329,192,97740,1,0,0:0:0:0:
182,192,97954,1,2,0:0:0:0:
475,192,97954,1,0,0:0:0:0:
329,192,98168,1,0,0:0:0:0:
36,192,98168,1,0,0:0:0:0:
182,192,98383,1,2,0:0:0:0:
475,192,98383,1,0,0:0:0:0:
36,192,98490,1,0,0:0:0:0:
329,192,98490,1,0,0:0:0:0:
182,192,99025,128,0,101168:0:0:0:0:
329,192,99025,128,0,101168:0:0:0:0:
