osu file format v14

[General]
AudioFilename: kantsubaki.mp3
AudioLeadIn: 0
PreviewTime: 81911
Countdown: 0
SampleSet: Normal
StackLeniency: 0.3
Mode: 0
LetterboxInBreaks: 0
WidescreenStoryboard: 0

[Editor]
Bookmarks: 1086
DistanceSpacing: 0.5
BeatDivisor: 4
GridSize: 16
TimelineZoom: 2.300001

[Metadata]
Title:Kantsubaki
TitleUnicode:寒椿
Artist:ESQUARIA
ArtistUnicode:ESQUARIA
Creator:Nostalgic
Version:quite hard.
Source:東方輝針城 ~ Double Dealing Character.
Tags:Mei Ayakura, Touhou, [ White Music ], Gottagof4st
BeatmapID:1516845
BeatmapSetID:716200

[Difficulty]
HPDrainRate:4
CircleSize:3.8
OverallDifficulty:7
ApproachRate:8.5
SliderMultiplier:1.4
SliderTickRate:1

[Events]
//Background and Video events
0,0,"481545.jpg",0,0
//Break Periods
2,27000,41125
//Storyboard Layer 0 (Background)
//Storyboard Layer 1 (Fail)
//Storyboard Layer 2 (Pass)
//Storyboard Layer 3 (Foreground)
//Storyboard Sound Samples

[TimingPoints]
1086,535.714285714286,4,1,0,50,1,0
18228,-151.515151515152,4,1,0,50,0,0
43943,-100,4,1,0,50,0,0
45550,-151.515151515152,4,1,0,50,0,0
47961,-100,4,1,0,50,0,0

[Colours]
Combo1 : 118,40,132
Combo2 : 0,106,66
Combo3 : 83,102,21
Combo4 : 108,69,58

[HitObjects]
128,96,1086,5,0,0:0:0:0:
139,108,1353,1,0,0:0:0:0:
152,122,1621,2,0,P|150:161|156:207,1,70
247,261,2157,5,0,0:0:0:0:
258,249,2424,1,0,0:0:0:0:
271,235,2692,2,0,P|269:196|275:150,1,70
336,72,3228,5,0,0:0:0:0:
344,71,3361,1,0,0:0:0:0:
353,70,3495,1,0,0:0:0:0:
362,69,3629,1,0,0:0:0:0:
371,69,3764,2,0,P|421:72|472:62,1,70
440,219,4300,6,0,P|423:262|386:276,1,70
371,69,4836,1,0,0:0:0:0:
362,70,4970,1,0,0:0:0:0:
353,71,5104,1,0,0:0:0:0:
345,72,5237,1,0,0:0:0:0:
336,72,5371,5,0,0:0:0:0:
215,67,5639,1,0,0:0:0:0:
321,174,5907,2,0,P|271:178|232:173,1,70
130,181,6443,5,0,0:0:0:0:
251,176,6711,1,0,0:0:0:0:
145,283,6979,2,0,P|195:287|234:282,1,70
406,293,7514,5,0,0:0:0:0:
403,279,7647,1,0,0:0:0:0:
402,265,7781,1,0,0:0:0:0:
402,251,7915,1,0,0:0:0:0:
403,237,8050,2,0,P|399:197|403:166,1,70
371,85,8586,6,0,P|408:76|450:96,1,70
402,234,9121,1,0,0:0:0:0:
402,251,9255,1,0,0:0:0:0:
402,265,9389,1,0,0:0:0:0:
403,279,9523,1,0,0:0:0:0:
406,293,9656,5,0,0:0:0:0:
267,223,9925,1,0,0:0:0:0:
288,354,10193,2,0,P|239:344|188:348,1,70
385,162,10728,5,0,0:0:0:0:
246,92,10997,1,0,0:0:0:0:
267,223,11265,2,0,P|218:213|167:217,1,70
53,121,11800,5,0,0:0:0:0:
42,102,11933,1,0,0:0:0:0:
37,82,12067,1,0,0:0:0:0:
38,61,12201,1,0,0:0:0:0:
44,39,12336,2,0,P|88:50|114:40,1,70
246,92,12871,6,0,P|219:54|171:57,1,70
44,39,13407,1,0,0:0:0:0:
37,58,13541,1,0,0:0:0:0:
36,79,13675,1,0,0:0:0:0:
42,100,13809,1,0,0:0:0:0:
52,118,13942,5,0,0:0:0:0:
246,92,14211,1,0,0:0:0:0:
130,228,14478,2,0,P|165:220|206:227,1,70
440,118,15014,5,0,0:0:0:0:
246,92,15283,1,0,0:0:0:0:
362,228,15550,2,0,P|327:220|286:227,1,70
130,228,16086,6,0,L|114:142,3,70
117,159,17157,5,0,0:0:0:0:
121,179,17290,1,0,0:0:0:0:
124,200,17424,1,0,0:0:0:0:
128,221,17558,1,0,0:0:0:0:
151,236,17693,6,0,L|184:229,6,17.5
243,193,18228,6,0,P|250:172|324:137,1,92.3999997180176
264,206,19032,2,0,P|281:191|362:197,1,92.3999997180176
276,227,19836,2,0,P|298:223|365:269,1,92.3999997180176
256,192,22514,12,0,26800,0:0:0:0:
256,192,41800,12,0,43407,0:0:0:0:
72,160,43943,6,0,L|212:142,1,140
210,142,44746,2,0,L|350:124,1,140
71,159,45550,6,0,L|358:122,1,277.199999154053
141,90,47961,5,0,0:0:0:0:
141,90,48094,1,0,0:0:0:0:
141,90,48228,2,0,P|197:82|283:99,1,140
393,229,49032,2,0,P|337:221|251:238,1,140
50,309,49836,5,0,0:0:0:0:
50,309,49969,1,0,0:0:0:0:
50,309,50103,2,0,L|44:262,1,35
152,197,50505,2,0,L|158:150,1,35
49,91,50907,2,0,L|43:44,1,35
214,48,51443,6,0,L|283:65,1,70
404,164,51978,2,0,L|334:181,1,70
214,283,52514,2,0,L|283:300,2,70
