osu file format v9

[General]
AudioFilename: Eric Prydz - Call On Me.mp3
AudioLeadIn: 0
PreviewTime: -1
Countdown: 1
SampleSet: Normal
StackLeniency: 0.7
Mode: 0
LetterboxInBreaks: 1

[Editor]
Bookmarks: 20056,40008
DistanceSpacing: 0.8
BeatDivisor: 4
GridSize: 4

[Metadata]
Title:Call On Me
Artist:ERIC PRYDZ
Creator:aspybio
Version:MowoM time
Source:
Tags:

[Difficulty]
HPDrainRate:0
CircleSize:4
OverallDifficulty:1
ApproachRate:4
SliderMultiplier:1.4
SliderTickRate:1

[Events]
//Background and Video events
Video,0,"Eric Prydz - Call On Me.avi"
0,0,"Eric_Prydz_1.jpg"
//Break Periods
2,34389,35245
2,83795,88451
2,104935,118142
//Storyboard Layer 0 (Background)
//Storyboard Layer 1 (Fail)
//Storyboard Layer 2 (Pass)
//Storyboard Layer 3 (Foreground)
//Storyboard Sound Samples
//Background Colour Transformations
3,100,0,128,128

[TimingPoints]
6161,475.059382422803,4,1,0,100,1,0
119462,475.059382422803,4,2,0,100,1,0
134902,-100,4,1,0,100,0,0
161505,-100,4,2,0,5,0,0

[Colours]
Combo1 : 255,0,128
Combo2 : 5,240,5
Combo3 : 5,5,240
Combo4 : 240,5,5
Combo5 : 255,150,5

[HitObjects]
248,112,20888,1,0
172,192,21362,2,0,B|76:292,2,140
176,80,23263,1,0
344,84,23976,1,0
208,184,24688,5,0
320,184,25163,2,0,B|274:236,8,70
216,140,27538,1,0
288,52,28013,1,0
356,144,28489,5,0
428,56,28963,1,0
316,56,29439,6,0,B|364:56,12,35
212,92,31339,1,0
132,172,31814,1,0
256,192,32527,12,0,34189
168,92,36565,5,0
280,92,37040,1,0
224,188,37515,1,0
328,152,37990,1,0
232,96,38465,1,0
136,156,38940,1,0
72,64,39415,1,0
184,60,39890,5,0
196,172,40365,1,0
208,284,40840,1,0
272,192,41315,1,0
332,100,41790,1,0
220,100,42265,1,0
112,136,42740,1,0
156,300,43453,5,8
176,248,43690,1,8
224,224,43928,2,0,B|240:248,8,23.3333333333333
292,112,45116,1,8
180,128,45590,1,8
236,224,46066,2,8,B|261:224,5,23.3333333333333
160,192,47966,5,0
232,104,48441,1,0
336,140,48916,2,0,B|336:260|272:260,3,140
32,36,51766,5,0
96,128,52242,1,0
160,220,52717,1,0
200,116,53191,1,0
232,164,53429,2,0,B|376:164,2,140
176,164,54617,6,0,B|176:212,4,35
68,192,55567,5,4
136,104,56042,1,8
228,40,56517,1,8
212,152,56992,1,8
268,152,57229,2,0,B|316:152,6,35
232,200,58180,6,0,B|200:232,6,35
352,64,59367,5,4
148,232,59842,1,2
152,72,60318,1,8
240,152,60792,1,8
296,152,61030,6,0,B|348:152,6,35
304,208,61980,6,4,B|304:240|304:276,6,35
256,192,63405,12,0,65543
160,122,66968,5,0
156,232,67443,1,0
48,208,67919,2,0,B|48:128,1,70
104,140,68394,2,0,B|104:220,1,70
152,180,68869,5,0
264,180,69344,1,0
376,180,69818,2,0,B|456:180,2,70
264,180,70769,5,0
152,180,71244,1,0
152,180,71719,2,0,B|152:112,1,70
208,112,72195,2,0,B|208:192,1,70
264,176,72669,5,0
328,268,73144,1,0
384,172,73618,2,0,B|464:172,2,70
284,120,74569,6,0,B|284:260,2,140
228,120,75757,5,0
176,140,75994,1,0
132,108,76232,1,0
120,164,76469,6,0,B|120:304,2,140
332,92,78370,6,0,B|268:276|268:276|176:64|176:64|76:324|76:324|72:48,1,980
256,192,82170,12,8,83595
436,100,89771,5,0
324,100,90246,1,0
228,160,90721,1,0
136,228,91196,1,0
108,120,91671,1,0
208,72,92146,1,0
224,184,92621,2,0,B|280:132,1,70
332,140,93096,1,0
304,224,93572,6,0,B|304:272,2,35
268,280,94522,2,0,B|228:280,3,35
352,232,95472,5,0
348,176,95709,1,0
340,120,95947,1,0
292,92,96184,2,0,B|224:92,1,70
164,96,96659,2,0,B|132:112|112:180,1,70
232,172,97372,5,2
196,216,97609,1,2
144,240,97847,1,2
88,236,98084,1,2
52,192,98322,1,8
44,136,98560,1,8
96,120,98797,1,8
152,120,99035,1,8
208,120,99272,6,0,B|208:161,12,35
300,184,101172,5,0
248,204,101410,1,0
228,256,101647,1,0
260,304,101885,2,0,B|284:332|332:300,1,70
436,304,102598,5,0
460,256,102835,1,0
432,208,103073,1,0
340,140,103548,5,0
288,160,103785,1,0
236,140,104023,1,0
188,164,104260,2,0,B|124:196,2,70
464,64,119462,5,0
432,112,119700,1,0
328,68,120174,2,0,B|252:68,1,70
260,124,120649,2,0,B|336:124,1,70
336,180,121124,2,0,B|256:180,1,70
264,236,121599,2,0,B|336:236,1,70
268,144,122312,2,0,B|228:104,4,35
380,136,123262,5,0
388,192,123500,1,0
388,304,123975,2,0,B|312:304,1,70
264,304,124449,2,0,B|340:304,1,70
300,256,124925,2,0,B|220:256,1,70
192,212,125400,2,0,B|264:212,1,70
164,156,126112,2,0,B|124:116,4,35
276,156,127062,6,0,B|356:156,1,70
404,156,127538,1,0
432,204,127776,1,0
400,252,128014,1,0
444,288,128251,1,0
388,288,128488,2,0,B|288:288,1,70
320,232,128963,6,0,B|320:156,1,70
264,160,129438,2,0,B|264:232,1,70
172,196,129913,2,0,B|172:132,4,35
172,84,130864,6,0,B|248:84,1,70
300,88,131339,2,0,B|212:88,1,70
228,144,131814,2,0,B|308:144,1,70
300,200,132289,2,0,B|220:200,1,70
172,200,132764,1,0
116,200,133002,2,0,B|116:264,16,35
160,122,135376,5,0
156,232,135851,1,0
48,208,136327,2,0,B|48:128,1,70
104,140,136802,2,0,B|104:220,1,70
152,180,137277,5,0
264,180,137752,1,0
376,180,138226,2,0,B|456:180,2,70
264,180,139177,5,0
152,180,139652,1,0
152,180,140127,2,0,B|152:112,1,70
208,112,140603,2,0,B|208:192,1,70
264,176,141077,5,0
328,268,141552,1,0
384,172,142026,2,0,B|464:172,2,70
284,120,142977,6,0,B|284:260,2,140
228,120,144165,5,0
176,140,144402,1,0
132,108,144640,1,0
120,164,144877,6,0,B|120:304,2,140
256,64,146540,2,0,B|280:88,6,35
368,64,147728,1,0
256,60,148203,2,0,B|256:164|372:164|368:52,2,210
408,224,150579,6,0,B|430:224,1,23.3333333333333
408,136,151054,2,0,B|408:171,1,23.3333333333333
320,192,151529,2,0,B|301:219,1,23.3333333333333
216,228,152004,2,0,B|181:207,1,35
156,132,152479,2,0,B|152:165,1,35
156,84,152954,2,0,B|129:60,1,23.3333333333333
224,108,153429,1,0
264,68,153667,1,0
304,108,153904,1,0
240,200,154379,6,0,B|262:200,1,23.3333333333333
196,264,154854,2,0,B|196:299,1,23.3333333333333
288,272,155329,2,0,B|269:299,1,23.3333333333333
216,220,155804,2,0,B|177:199,1,23.3333333333333
212,116,156279,2,0,B|212:149,1,35
292,120,156754,2,0,B|261:140,1,23.3333333333333
248,44,157229,1,0
196,64,157467,1,0
144,84,157704,1,0
128,196,158179,6,0,B|152:232,2,35
184,196,158655,1,4
240,196,158892,1,4
244,252,159129,2,0,B|276:268,2,35
300,236,159605,1,4
344,204,159842,1,0
316,156,160079,2,0,B|348:156,19,23.3333333333333
256,192,161980,12,0,163881
48,344,165305,5,0
176,160,166256,5,0
380,72,167206,5,0
