osu file format v13

[General]
AudioFilename: ENE-Sweet Devil.mp3
AudioLeadIn: 0
PreviewTime: -1
Countdown: 0
SampleSet: Soft
StackLeniency: 0.7
Mode: 0
LetterboxInBreaks: 0
StoryFireInFront: 0
WidescreenStoryboard: 0

[Editor]
Bookmarks: 15651,30197,44742,59288,73833,88379,102924,117470,132015,146560,161106,175651,190197,204742,219288
DistanceSpacing: 0.8
BeatDivisor: 4
GridSize: 8
TimelineZoom: 1

[Metadata]
Title:Sweet Devil
TitleUnicode:
Artist:ENE
ArtistUnicode:
Creator:Doomsday
Version:Collab
Source:
Tags:mak@ron hatsune miku vocaloid 8#prince
BeatmapID:126741
BeatmapSetID:39842

[Difficulty]
HPDrainRate:7
CircleSize:4
OverallDifficulty:8
ApproachRate:8
SliderMultiplier:1.7
SliderTickRate:2

[Events]
//Background and Video events
0,0,"sweetdevil.jpg",0,0
//Break Periods
//Storyboard Layer 0 (Background)
//Storyboard Layer 1 (Fail)
//Storyboard Layer 2 (Pass)
//Storyboard Layer 3 (Foreground)
//Storyboard Sound Samples
//Background Colour Transformations
3,100,163,162,255

[TimingPoints]
-712,454.545454545455,4,2,1,100,1,0
1106,-133.333333333333,4,2,1,100,0,0
15651,-100,4,2,1,100,0,1
16106,-100,4,2,1,100,0,0
44742,-100,4,2,1,100,0,1
45197,-100,4,2,1,100,0,0
55500,-100,4,2,1,100,0,0
55954,-100,4,2,1,100,0,0
56447,-100,4,2,1,100,0,0
56901,-100,4,2,1,100,0,0
59288,-66.6666666666667,4,2,1,100,0,1
73833,-100,4,2,1,100,0,0
96106,-100,4,2,1,100,0,1
96560,-100,4,2,1,100,0,0
102924,-66.6666666666667,4,2,1,100,0,1
116106,-66.6666666666667,4,2,1,100,0,0
117470,-66.6666666666667,4,2,1,100,0,1
130083,-66.6666666666667,4,2,0,100,0,1
131901,-66.6666666666667,4,2,1,100,0,1
132015,-100,4,2,1,100,0,0
144742,-133.333333333333,4,2,1,100,0,0
146560,-200,4,2,1,100,0,1
147015,-200,4,2,1,100,0,0
153833,-133.333333333333,4,2,1,100,0,0
159288,-200,4,2,1,100,0,0
161106,-133.333333333333,4,2,0,100,0,0
175424,-133.333333333333,4,2,1,100,0,0
175651,-100,4,2,1,100,0,1
176106,-100,4,2,1,100,0,0
186560,-133.333333333333,4,2,1,100,0,0
190197,-66.6666666666667,4,2,1,100,0,1
203833,-66.6666666666667,4,2,1,100,0,0
204742,-66.6666666666667,4,2,1,100,0,1
217469,-100,4,2,1,100,0,1
219288,-100,4,2,1,100,0,0

[Colours]
Combo1 : 128,0,255
Combo2 : 255,0,128

[HitObjects]
432,160,1106,6,0,B|437:128|421:99,2,63.749998100102,2|0|8,0:0|0:0|0:0,0:0:0:0:
360,144,1788,1,2,0:0:0:0:
288,120,2015,2,0,B|277:153|294:182,1,63.749998100102
320,208,2356,1,8,0:0:0:0:
328,248,2469,1,0,0:0:0:0:
248,240,2697,5,8,0:0:0:0:
184,280,2924,1,2,0:0:0:0:
128,336,3151,1,0,0:0:0:0:
108,303,3265,1,0,0:0:0:0:
106,264,3378,1,8,0:0:0:0:
160,208,3606,6,0,B|135:186|102:188|102:188|88:160,1,95.624997150153,2|8,0:0|0:0,0:0:0:0:
72,120,4060,1,8,0:0:0:0:
176,80,4288,1,10,0:0:0:0:
280,120,4515,2,0,B|296:184,1,63.749998100102,0|2,0:0|0:0,0:0:0:0:
376,200,4969,2,0,B|360:138,1,63.749998100102,0|6,0:0|0:0,0:0:0:0:
424,88,5424,1,0,0:0:0:0:
424,88,5651,2,2,B|440:152,1,63.749998100102,0|0,0:0|0:0,0:0:0:0:
472,176,5992,5,8,0:0:0:0:
472,176,6106,2,0,B|464:240,1,63.749998100102,0|8,0:0|0:0,0:0:0:0:
480,280,6447,2,0,B|456:304,1,31.874999050051,0|2,0:0|0:0,0:0:0:0:
384,344,6788,1,0,0:0:0:0:
352,320,6901,1,0,0:0:0:0:
376,288,7015,2,6,B|320:256,1,63.749998100102,8|2,0:0|0:0,0:0:0:0:
248,216,7469,6,0,B|272:192,1,31.874999050051,0|8,0:0|0:0,0:0:0:0:
296,160,7697,2,0,B|240:128,1,63.749998100102,2|10,0:0|0:0,0:0:0:0:
144,88,8151,1,8,0:0:0:0:
144,88,8265,1,8,0:0:0:0:
144,88,8378,2,0,B|125:149|125:149|144:208,1,127.499996200204,2|8,0:0|0:0,0:0:0:0:
200,265,9060,2,0,B|219:204|219:204|200:144,1,127.499996200204,2|0,0:0|0:0,0:0:0:0:
200,143,9628,1,8,0:0:0:0:
200,143,9742,1,0,0:0:0:0:
224,72,9969,6,0,B|255:88|255:88|267:114,1,63.749998100102,8|2,0:0|0:0,0:0:0:0:
336,88,10424,2,0,B|343:122|343:122|331:147,1,63.749998100102,0|2,0:0|0:0,0:0:0:0:
288,208,10878,2,2,B|328:256|328:256|360:256,1,95.624997150153,2|8,0:0|0:0,0:0:0:0:
384,288,11333,1,2,0:0:0:0:
456,192,11560,1,8,0:0:0:0:
408,80,11788,2,0,B|400:48|400:48|378:28,1,63.749998100102,0|2,0:0|0:0,0:0:0:0:
224,88,12469,5,8,0:0:0:0:
160,136,12697,2,0,B|146:108|146:108|145:76,1,63.749998100102,2|0,0:0|0:0,0:0:0:0:
224,88,13151,1,0,0:0:0:0:
240,120,13265,1,8,0:0:0:0:
232,168,13378,2,0,B|216:194|216:194|189:210,1,63.749998100102,0|8,0:0|0:0,0:0:0:0:
136,272,13833,5,6,0:0:0:0:
136,272,13984,1,2,0:0:0:0:
136,272,14136,1,2,0:0:0:0:
136,272,14288,1,2,0:0:0:0:
136,272,14439,1,2,0:0:0:0:
136,272,14591,1,2,0:0:0:0:
136,272,14742,1,2,0:0:0:0:
136,272,14894,1,2,0:0:0:0:
136,272,15045,1,2,0:0:0:0:
136,272,15197,1,6,0:0:0:0:
376,120,15651,6,0,B|352:160|376:200,1,85,4|0,0:0|0:0,0:0:0:0:
376,200,15992,1,0,0:0:0:0:
376,200,16106,1,8,0:0:0:0:
336,296,16333,2,0,B|296:352,1,42.5
200,328,16674,2,0,B|160:280,1,42.5
256,240,17015,1,8,0:0:0:0:
256,136,17242,1,0,0:0:0:0:
136,120,17469,6,0,B|160:160|136:200,1,85
135,200,17810,1,0,0:0:0:0:
135,200,17924,1,8,0:0:0:0:
176,296,18151,2,0,B|216:352,1,42.5
312,328,18492,2,0,B|352:280,1,42.5
256,240,18833,1,8,0:0:0:0:
256,136,19060,1,0,0:0:0:0:
320,56,19288,6,0,B|400:104,1,85
432,128,19628,1,0,0:0:0:0:
472,160,19742,1,8,0:0:0:0:
416,248,19969,2,0,B|384:296,1,42.5
312,224,20310,2,0,B|248:248,1,42.5
264,136,20651,2,0,B|192:136,2,42.5,8|0|0,0:0|0:0|0:0,0:0:0:0:
192,56,21106,6,0,B|112:104,1,85
80,128,21446,1,0,0:0:0:0:
40,160,21560,1,8,0:0:0:0:
96,248,21787,2,0,B|128:296,1,42.5
200,224,22128,2,0,B|264:248,1,42.5
248,136,22469,1,8,0:0:0:0:
290,136,22583,1,0,0:0:0:0:
344,136,22697,1,8,0:0:0:0:
392,136,22810,1,0,0:0:0:0:
440,136,22924,5,4,0:0:0:0:
424,320,23151,1,4,0:0:0:0:
256,328,23378,1,12,0:0:0:0:
160,304,23606,6,0,B|104:336,1,42.5
32,280,23947,2,0,B|68:258,1,42.5
88,160,24288,2,0,B|32:192,2,42.5,8|0|0,0:0|0:0|0:0,0:0:0:0:
184,200,24742,5,0,0:0:0:0:
256,272,24969,1,0,0:0:0:0:
256,272,25083,1,0,0:0:0:0:
256,272,25197,1,8,0:0:0:0:
352,304,25424,2,0,B|408:336,1,42.5
480,280,25765,2,0,B|443:258,1,42.5
424,160,26106,2,0,B|480:192,2,42.5,8|0|0,0:0|0:0|0:0,0:0:0:0:
312,160,26560,5,0,0:0:0:0:
200,160,26788,1,0,0:0:0:0:
200,160,26901,1,0,0:0:0:0:
200,160,27015,1,8,0:0:0:0:
168,256,27242,2,0,B|216:296,1,42.5
311,283,27583,2,0,B|344:256,1,42.5
256,208,27924,1,8,0:0:0:0:
256,208,28038,1,0,0:0:0:0:
256,208,28151,1,0,0:0:0:0:
360,192,28378,6,0,B|376:96|376:96|296:136|296:136|256:80|256:80|216:136|216:136|136:96|136:96|152:192,1,510
151,190,29856,1,0,0:0:0:0:
151,190,29969,1,0,0:0:0:0:
151,190,30083,1,0,0:0:0:0:
151,190,30197,1,4,0:0:0:0:
256,336,30651,5,8,0:0:0:0:
336,272,30878,2,0,B|313:230|268:229,1,85,2|0,0:0|0:0,0:0:0:0:
267,228,31219,2,0,B|261:182|293:153,1,85,8|0,0:0|0:0,0:0:0:0:
272,104,31560,1,8,0:0:0:0:
368,80,31788,2,0,B|392:72,4,21.25,8|8|8|8|14,0:0|0:0|0:0|0:0|0:0,0:0:0:0:
272,104,32242,6,0,B|233:126|192:104,1,85,0|10,0:0|0:0,0:0:0:0:
96,64,32697,1,2,0:0:0:0:
120,160,32924,1,0,0:0:0:0:
120,160,33038,1,8,0:0:0:0:
96,256,33265,1,0,0:0:0:0:
96,256,33378,1,2,0:0:0:0:
184,312,33606,6,0,B|192:304|192:304|200:312|200:312|208:304|208:304|216:312|216:312|224:304|224:304|232:312|232:312|240:304|240:304|248:312,1,85,10|4,0:0|0:0,0:0:0:0:
336,264,34060,2,0,B|358:304|336:344,2,85,0|6|0,0:0|0:0|0:0,0:0:0:0:
312,224,34628,1,0,0:0:0:0:
288,176,34742,1,0,0:0:0:0:
312,128,34856,1,8,0:0:0:0:
288,80,34969,1,0,0:0:0:0:
312,32,35083,1,2,0:0:0:0:
400,80,35310,1,0,0:0:0:0:
400,80,35424,2,0,B|424:88,4,21.25,8|8|8|8|12,0:0|0:0|0:0|0:0|0:0,0:0:0:0:
392,176,35878,6,0,B|416:216|400:256,1,85,0|10,0:0|0:0,0:0:0:0:
312,224,36333,1,2,0:0:0:0:
216,184,36560,2,0,B|176:208,1,42.5,0|10,0:0|0:0,0:0:0:0:
136,184,36788,1,2,0:0:0:0:
136,128,36901,1,0,0:0:0:0:
256,56,37242,6,0,B|267:55|267:55|267:67|267:67|278:67|278:67|278:78|278:78|289:78|289:78|289:89|289:89|301:89|301:89|301:95,1,85,0|2,0:0|0:0,0:0:0:0:
392,48,37697,2,0,B|403:47|403:47|403:59|403:59|414:59|414:59|414:70|414:70|425:70|425:70|425:81|425:81|437:81|437:81|437:87,1,85,0|0,0:0|0:0,0:0:0:0:
472,120,38038,1,0,0:0:0:0:
472,168,38151,1,2,0:0:0:0:
448,208,38265,1,0,0:0:0:0:
408,240,38378,1,0,0:0:0:0:
368,264,38492,2,0,B|328:286|288:264,1,85,8|0,0:0|0:0,0:0:0:0:
287,263,38833,1,12,0:0:0:0:
192,224,39060,2,0,B|184:248,4,21.25,8|8|8|8|10,0:0|0:0|0:0|0:0|0:0,0:0:0:0:
248,144,39515,6,0,B|215:120|168:128,1,85,0|8,0:0|0:0,0:0:0:0:
248,144,39969,2,0,B|281:168|328:160,1,85,2|0,0:0|0:0,0:0:0:0:
360,120,40310,2,0,B|392:160,1,42.5,2|0,0:0|0:0,0:0:0:0:
440,144,40538,2,0,B|432:184,1,42.5,2|0,0:0|0:0,0:0:0:0:
408,288,40878,2,0,B|400:296|400:296|392:288|392:288|384:296|384:296|376:288|376:288|368:296|368:296|360:288|360:288|352:296|352:296|344:288,1,85,8|2,0:0|0:0,0:0:0:0:
244,291,41333,2,0,B|240:296|240:296|232:288|232:288|224:296|224:296|216:288|216:288|208:296|208:296|200:288|200:288|192:296|192:296|184:288,1,85,0|8,0:0|0:0,0:0:0:0:
96,240,41788,6,0,B|114:199|160:192,1,85,2|0,0:0|0:0,0:0:0:0:
208,184,42128,1,0,0:0:0:0:
256,168,42242,1,8,0:0:0:0:
280,120,42356,1,10,0:0:0:0:
184,80,42583,1,0,0:0:0:0:
184,80,42697,2,0,B|168:96,4,21.25,8|8|8|8|10,0:0|0:0|0:0|0:0|0:0,0:0:0:0:
280,40,43151,6,0,B|320:48,1,42.5,0|0,0:0|0:0,0:0:0:0:
368,32,43378,2,0,B|376:72,1,42.5,2|8,0:0|0:0,0:0:0:0:
424,80,43606,2,0,B|439:116|419:157|419:157|448:200|448:200|432:234,1,170,2|10,0:0|0:0,0:0:0:0:
400,272,44174,5,0,0:0:0:0:
400,272,44288,1,8,0:0:0:0:
400,272,44401,1,0,0:0:0:0:
400,272,44515,1,8,0:0:0:0:
400,272,44628,1,0,0:0:0:0:
400,272,44742,1,12,0:0:0:0:
304,320,44969,1,0,0:0:0:0:
208,320,45197,1,8,0:0:0:0:
208,320,45310,1,0,0:0:0:0:
112,272,45538,1,0,0:0:0:0:
112,272,45651,2,0,B|72:240|56:192|56:152,1,127.5,2|8,0:0|0:0,0:0:0:0:
32,64,46219,1,0,0:0:0:0:
128,96,46447,1,0,0:0:0:0:
128,96,46560,6,0,B|168:120|208:96,1,85,2|0,0:0|0:0,0:0:0:0:
312,120,47015,2,0,B|352:96|392:120,1,85,8|2,0:0|0:0,0:0:0:0:
488,96,47469,2,0,B|512:40,2,42.5,0|0|2,0:0|0:0|0:0,0:0:0:0:
455,161,47810,2,2,B|456:192|440:240|400:272,1,127.5,8|0,0:0|0:0,0:0:0:0:
352,360,48378,5,4,0:0:0:0:
256,320,48606,1,0,0:0:0:0:
160,280,48833,1,8,0:0:0:0:
160,280,48947,1,0,0:0:0:0:
256,216,49174,2,0,B|256:128,2,85,0|0|8,0:0|0:0|0:0,0:0:0:0:
256,216,49742,1,2,0:0:0:0:
152,200,49969,1,8,0:0:0:0:
152,152,50083,1,0,0:0:0:0:
152,104,50197,6,0,B|232:64,1,85,2|0,0:0|0:0,0:0:0:0:
282,66,50538,2,0,B|358:104,1,85
355,205,50992,1,0,0:0:0:0:
307,181,51106,1,0,0:0:0:0:
256,176,51219,1,0,0:0:0:0:
203,181,51333,1,2,0:0:0:0:
160,208,51447,2,0,B|136:232|136:232|144:280|144:280|104:312,1,127.5,0|4,0:0|0:0,0:0:0:0:
56,320,51901,1,0,0:0:0:0:
8,312,52015,5,4,0:0:0:0:
32,216,52242,1,0,0:0:0:0:
24,112,52469,2,8,B|64:80,1,42.5,8|0,0:0|0:0,0:0:0:0:
152,120,52810,2,0,B|192:88,2,42.5,0|2|0,0:0|0:0|0:0,0:0:0:0:
168,224,53265,1,8,0:0:0:0:
256,280,53492,1,0,0:0:0:0:
344,224,53719,1,0,0:0:0:0:
344,224,53833,6,0,B|320:176|344:112,1,85,4|0,0:0|0:0,0:0:0:0:
307,42,54288,1,8,0:0:0:0:
203,42,54515,1,0,0:0:0:0:
176,141,54742,2,0,B|192:176|168:224,1,85,0|2,0:0|0:0,0:0:0:0:
168,222,55083,1,0,0:0:0:0:
256,272,55310,1,0,0:0:0:0:
256,272,55424,1,0,0:0:0:0:
344,224,55651,5,4,0:0:0:0:
368,24,56106,1,0,0:0:0:0:
448,96,56333,1,0,0:0:0:0:
352,128,56560,1,4,0:0:0:0:
144,24,57015,1,0,0:0:0:0:
64,96,57242,1,0,0:0:0:0:
192,168,57469,5,6,0:0:0:0:
192,168,57621,1,2,0:0:0:0:
192,168,57772,1,2,0:0:0:0:
192,168,57924,1,6,0:0:0:0:
192,168,58075,1,2,0:0:0:0:
192,168,58227,1,2,0:0:0:0:
192,168,58378,1,6,0:0:0:0:
192,168,58530,1,6,0:0:0:0:
192,168,58681,1,6,0:0:0:0:
192,168,58833,2,4,B|252:208|312:168|312:168|352:200,1,170,6|4,0:0|0:0,0:0:0:0:
256,344,59742,6,0,B|208:291|256:228|256:228|302:166|256:112,2,254.999992400408,2|2|10,0:0|0:0|0:0,0:0:0:0:
184,208,60878,2,0,B|146:263|164:329,1,127.499996200204,0|2,0:0|0:0,0:0:0:0:
328,248,61333,2,8,B|366:193|345:127,1,127.499996200204,8|10,0:0|0:0,0:0:0:0:
192,128,61788,5,0,0:0:0:0:
120,160,62015,1,2,0:0:0:0:
112,232,62242,1,0,0:0:0:0:
176,272,62469,2,0,B|155:308|99:320|66:290,1,127.499996200204,2|0,0:0|0:0,0:0:0:0:
112,232,62924,2,0,B|130:190|196:180|231:217|231:217|262:247|316:235|329:202,2,254.999992400408,6|2|6,0:0|0:0|0:0,0:0:0:0:
176,272,64060,6,0,B|217:322|291:309,1,127.499996200204,0|2,0:0|0:0,0:0:0:0:
360,336,64515,2,0,B|368:310|356:279|356:279|404:241|419:205|400:155|377:133|341:129,1,254.999992400408,8|0,0:0|0:0,0:0:0:0:
328,200,65197,1,2,0:0:0:0:
328,200,65424,5,0,0:0:0:0:
144,200,65651,1,10,0:0:0:0:
304,304,65878,1,0,0:0:0:0:
240,136,66106,1,2,0:0:0:0:
184,304,66333,1,0,0:0:0:0:
184,304,66560,6,0,B|128:331|45:302|17:227|38:160,2,254.999992400408,6|2|2,0:0|0:0|0:0,0:0:0:0:
384,200,67924,1,2,0:0:0:0:
384,200,68151,2,0,B|330:242|275:199|209:144|144:199,1,254.999992400408,8|0,0:0|0:0,0:0:0:0:
272,280,69060,5,0,0:0:0:0:
347,294,69288,1,2,0:0:0:0:
419,270,69515,1,8,0:0:0:0:
464,208,69742,1,2,0:0:0:0:
464,208,69969,1,0,0:0:0:0:
464,208,70197,2,0,B|378:100|240:112,1,254.999992400408,6|2,0:0|0:0,0:0:0:0:
160,240,71106,2,0,B|246:348|384:336,1,254.999992400408,2|6,0:0|0:0,0:0:0:0:
448,296,71788,1,0,0:0:0:0:
376,264,72015,1,4,0:0:0:0:
304,232,72242,5,8,0:0:0:0:
304,232,72583,1,8,0:0:0:0:
304,232,72924,1,8,0:0:0:0:
304,232,73151,1,8,0:0:0:0:
304,232,73378,1,8,0:0:0:0:
304,232,73492,1,8,0:0:0:0:
304,232,73606,1,8,0:0:0:0:
304,232,73719,1,8,0:0:0:0:
304,232,73833,1,14,0:0:0:0:
168,328,74288,5,8,0:0:0:0:
80,328,74515,1,2,0:0:0:0:
56,248,74742,1,0,0:0:0:0:
56,248,74856,1,8,0:0:0:0:
124,198,75082,1,8,0:0:0:0:
191,249,75310,1,0,0:0:0:0:
208,168,75538,1,0,0:0:0:0:
208,168,75651,6,0,B|232:128|208:88,1,85,2|0,0:0|0:0,0:0:0:0:
304,87,76106,2,0,B|280:128|304:168,1,85,12|2,0:0|0:0,0:0:0:0:
376,128,76560,1,0,0:0:0:0:
376,128,76674,1,2,0:0:0:0:
376,216,76901,1,2,0:0:0:0:
264,280,77242,1,8,0:0:0:0:
344,328,77469,5,2,0:0:0:0:
432,328,77696,1,0,0:0:0:0:
432,328,77810,1,0,0:0:0:0:
432,328,77924,1,10,0:0:0:0:
456,248,78151,1,2,0:0:0:0:
388,198,78377,1,0,0:0:0:0:
388,198,78492,1,0,0:0:0:0:
321,249,78719,1,8,0:0:0:0:
256,200,78947,5,0,0:0:0:0:
232,168,79060,1,8,0:0:0:0:
208,136,79174,1,0,0:0:0:0:
176,104,79288,1,2,0:0:0:0:
160,24,79515,1,0,0:0:0:0:
240,8,79742,1,8,0:0:0:0:
256,88,79969,1,0,0:0:0:0:
256,88,80083,5,0,0:0:0:0:
336,216,80310,1,8,0:0:0:0:
176,216,80538,1,8,0:0:0:0:
256,376,80878,1,8,0:0:0:0:
256,376,81106,1,4,0:0:0:0:
144,248,81560,5,8,0:0:0:0:
144,248,81674,2,0,B|96:240|64:280,1,85,2|0,0:0|0:0,0:0:0:0:
40,248,82015,2,0,B|72:200|48:136,1,85,0|2,0:0|0:0,0:0:0:0:
56,166,82356,1,8,0:0:0:0:
168,72,82697,1,8,0:0:0:0:
168,72,82924,6,0,B|224:72|248:136,1,85,2|0,0:0|0:0,0:0:0:0:
274,113,83265,2,0,B|296:72|344:72,1,85
376,104,83606,1,2,0:0:0:0:
416,136,83719,1,0,0:0:0:0:
455,166,83833,2,0,B|440:200|472:248,1,85,0|8,0:0|0:0,0:0:0:0:
444,275,84174,2,0,B|416:240|368:248,1,85
368,247,84515,1,8,0:0:0:0:
328,320,84742,6,0,B|312:364|266:371,1,85,6|0,0:0|0:0,0:0:0:0:
184,344,85197,2,0,B|199:299|245:292,1,85,0|2,0:0|0:0,0:0:0:0:
328,240,85651,1,0,0:0:0:0:
256,192,85878,1,0,0:0:0:0:
256,192,85992,1,8,0:0:0:0:
184,144,86220,1,0,0:0:0:0:
184,144,86333,1,2,0:0:0:0:
184,64,86560,6,0,B|199:19|245:12,1,85,2|0,0:0|0:0,0:0:0:0:
328,40,87015,2,0,B|312:84|266:91,1,85,2|2,0:0|0:0,0:0:0:0:
266,91,87356,1,0,0:0:0:0:
352,184,87697,1,8,0:0:0:0:
336,224,87810,1,8,0:0:0:0:
296,240,87924,1,8,0:0:0:0:
256,264,88038,1,8,0:0:0:0:
216,240,88151,1,8,0:0:0:0:
176,224,88265,1,8,0:0:0:0:
160,184,88378,5,14,0:0:0:0:
256,112,88606,1,0,0:0:0:0:
352,184,88833,1,0,0:0:0:0:
400,112,89060,2,0,B|432:144,1,42.5,2|0,0:0|0:0,0:0:0:0:
472,136,89288,2,0,B|484:177|484:177|472:216,1,85,2|0,0:0|0:0,0:0:0:0:
430,209,89628,2,0,B|400:240,1,42.5,0|12,0:0|0:0,0:0:0:0:
336,304,89969,5,8,0:0:0:0:
296,320,90083,1,0,0:0:0:0:
264,296,90197,2,0,B|224:308|224:308|184:296,1,85,2|0,0:0|0:0,0:0:0:0:
144,320,90538,1,0,0:0:0:0:
104,304,90651,2,8,B|96:264,1,42.5
64,240,90878,2,0,B|72:200,1,42.5,2|0,0:0|0:0,0:0:0:0:
104,168,91106,6,0,B|126:126|103:87,1,85,0|2,0:0|0:0,0:0:0:0:
103,87,91447,2,0,B|188:70|271:87,1,170
271,87,92015,2,0,B|253:129|272:168,1,85,2|0,0:0|0:0,0:0:0:0:
344,128,92469,5,8,0:0:0:0:
355,169,92583,1,0,0:0:0:0:
345,210,92697,1,2,0:0:0:0:
315,240,92810,1,0,0:0:0:0:
274,252,92924,1,2,0:0:0:0:
232,241,93038,1,0,0:0:0:0:
203,210,93151,1,0,0:0:0:0:
192,168,93265,2,0,B|152:189|152:189|120:168,1,85,8|0,0:0|0:0,0:0:0:0:
80,144,93606,2,0,B|56:152,4,21.25,8|8|8|8|14,0:0|0:0|0:0|0:0|0:0,0:0:0:0:
192,168,94060,6,0,B|232:147|232:147|264:168,1,85,0|8,0:0|0:0,0:0:0:0:
232,241,94515,1,2,0:0:0:0:
192,312,94742,1,0,0:0:0:0:
192,312,94856,2,0,B|232:334|272:312,1,85
272,311,95197,2,0,B|314:290|312:240|312:240|352:256|352:256|392:240,1,170,2|10,0:0|0:0,0:0:0:0:
312,136,95878,5,2,0:0:0:0:
232,240,96106,1,4,0:0:0:0:
192,312,96333,2,0,B|152:294|148:245,1,85
160,200,96674,1,0,0:0:0:0:
144,160,96788,1,0,0:0:0:0:
160,120,96901,1,8,0:0:0:0:
232,160,97128,5,0,0:0:0:0:
232,160,97242,2,0,B|226:150|226:150|235:144|235:144|229:134|229:134|239:128|239:128|233:119|233:119|242:113|242:113|236:103|236:103|246:97,1,85,8|2,0:0|0:0,0:0:0:0:
184,40,97697,2,0,B|216:11|262:19,1,85,0|8,0:0|0:0,0:0:0:0:
184,40,98151,2,0,B|152:69|106:61,1,85,2|0,0:0|0:0,0:0:0:0:
64,48,98492,2,0,B|64:96,1,42.5,0|2,0:0|0:0,0:0:0:0:
32,120,98719,1,0,0:0:0:0:
48,160,98833,2,0,B|37:165|37:165|43:175|43:175|32:180|32:180|38:190|38:190|28:195|28:195|33:205|33:205|23:210|23:210|28:220,2,85,0|0|6,0:0|0:0|0:0,0:0:0:0:
160,216,99439,5,2,0:0:0:0:
160,216,99591,1,2,0:0:0:0:
160,216,99742,1,2,0:0:0:0:
160,216,99894,1,2,0:0:0:0:
160,216,100045,1,2,0:0:0:0:
160,216,100197,1,2,0:0:0:0:
160,216,100348,1,2,0:0:0:0:
160,216,100500,1,2,0:0:0:0:
160,216,100651,1,2,0:0:0:0:
160,216,100803,1,2,0:0:0:0:
160,216,100954,1,2,0:0:0:0:
160,216,101106,6,0,B|189:145|262:154|324:287|186:394|55:346|38:232|70:174|124:112|186:109,1,510,6|2,0:0|0:0,0:0:0:0:
224,110,102583,1,2,0:0:0:0:
259,125,102697,1,2,0:0:0:0:
283,154,102810,1,2,0:0:0:0:
305,206,102924,1,6,0:0:0:0:
216,320,103151,1,0,0:0:0:0:
104,328,103378,2,0,B|56:328|16:288|24:224,1,127.499996200204,2|0,0:0|0:0,0:0:0:0:
24,136,103833,2,0,B|16:94|56:54|104:54,1,127.499996200204,2|0,0:0|0:0,0:0:0:0:
208,16,104288,1,0,0:0:0:0:
168,112,104515,6,8,B|88:120|64:192|88:272|168:280,1,254.999992400408
256,192,105197,2,0,B|312:225|345:280,1,127.499996200204,2|0,0:0|0:0,0:0:0:0:
400,264,105538,1,0,0:0:0:0:
453,250,105652,2,0,B|454:184|485:127,1,127.499996200204,2|0,0:0|0:0,0:0:0:0:
404,48,106106,2,8,B|346:79|282:81,1,127.499996200204
370,165,106560,5,2,0:0:0:0:
344,280,106788,1,0,0:0:0:0:
456,312,107015,2,0,B|505:241|505:145|456:72,2,254.999992400408,2|8|2,0:0|0:0|0:0,0:0:0:0:
343,280,108151,6,0,B|424:272|448:192|424:120|344:112,1,254.999992400408,4|0,0:0|0:0,0:0:0:0:
256,192,108833,1,2,0:0:0:0:
216,88,109060,1,0,0:0:0:0:
168,64,109174,1,0,0:0:0:0:
120,40,109288,1,8,0:0:0:0:
16,96,109515,1,0,0:0:0:0:
72,192,109742,1,2,0:0:0:0:
16,288,109969,1,8,0:0:0:0:
120,344,110196,1,14,0:0:0:0:
349,334,110651,6,0,B|236:233,1,127.499996200204,2|0,0:0|0:0,0:0:0:0:
139,208,111106,2,0,B|126:144|160:68|246:58|304:88,1,254.999992400408,10|2,0:0|0:0,0:0:0:0:
374,175,111788,6,0,B|387:239|353:315|267:325|209:295,2,254.999992400408,8|0|0,0:0|0:0|0:0,0:0:0:0:
379,118,112810,1,0,0:0:0:0:
384,64,112924,2,0,B|248:8,1,127.499996200204,2|8,0:0|0:0,0:0:0:0:
128,64,113378,2,0,B|264:120,1,127.499996200204,2|8,0:0|0:0,0:0:0:0:
256,224,113833,1,10,0:0:0:0:
72,368,114288,6,0,B|24:240,1,127.499996200204,2|0,0:0|0:0,0:0:0:0:
136,224,114742,2,0,B|208:273|304:272|376:224,1,254.999992400408,2|8,0:0|0:0,0:0:0:0:
432,160,115424,2,0,B|328:120|328:120|280:160|232:160|184:120|184:120|80:160,1,382.499988600612
200,216,116333,5,8,0:0:0:0:
256,224,116447,1,0,0:0:0:0:
312,216,116560,1,10,0:0:0:0:
256,320,116788,1,2,0:0:0:0:
256,320,117015,1,2,0:0:0:0:
256,320,117128,1,2,0:0:0:0:
256,320,117242,1,2,0:0:0:0:
256,320,117356,1,2,0:0:0:0:
256,320,117469,2,0,B|288:336|320:320|320:320|378:336,1,127.499996200204,14|0,0:0|0:0,0:0:0:0:
496,256,117924,6,0,B|462:246|419:270|419:270|319:241|319:241|307:201|273:192,1,254.999992400408,2|2,0:0|0:0,0:0:0:0:
384,176,118606,1,0,0:0:0:0:
384,176,118719,1,0,0:0:0:0:
384,176,118833,2,0,B|349:166|336:126|336:126|236:97|236:97|193:121|160:111,1,254.999992400408,10|2,0:0|0:0,0:0:0:0:
102,28,119515,6,0,B|118:104|48:128,1,127.499996200204,0|2,0:0|0:0,0:0:0:0:
160,111,119970,2,0,B|108:170|48:128,1,127.499996200204,8|2,0:0|0:0,0:0:0:0:
128,208,120424,2,0,B|51:202|48:128,1,127.499996200204,0|2,0:0|0:0,0:0:0:0:
208,176,120878,6,0,B|222:214|208:266|159:289,1,127.499996200204,8|2,0:0|0:0,0:0:0:0:
256,344,121333,1,0,0:0:0:0:
346,285,121560,2,0,B|304:266|290:214|304:176,1,127.499996200204,2|0,0:0|0:0,0:0:0:0:
344,104,122015,2,0,B|304:80|256:118|256:118|208:80|168:104,1,191.249994300306,2|0,0:0|0:0,0:0:0:0:
167,104,122469,1,8,0:0:0:0:
136,216,122697,6,8,B|192:248|256:202|256:202|320:248|376:216,1,254.999992400408
181,347,123378,1,2,0:0:0:0:
256,128,123605,1,0,0:0:0:0:
327,346,123833,1,2,0:0:0:0:
136,216,124060,1,0,0:0:0:0:
376,216,124287,1,2,0:0:0:0:
376,216,124515,2,0,B|429:185|446:113,2,127.499996200204,0|4|0,0:0|0:0|0:0,0:0:0:0:
316,144,125197,6,0,B|256:106|196:144,1,127.499996200204,2|0,0:0|0:0,0:0:0:0:
168,259,125651,2,0,B|256:324|344:259,1,191.249994300306,2|0,0:0|0:0,0:0:0:0:
344,258,126106,1,8,0:0:0:0:
408,184,126333,1,0,0:0:0:0:
344,258,126560,6,0,B|288:214|316:143,1,127.499996200204,8|0,0:0|0:0,0:0:0:0:
195,143,127015,2,0,B|223:214|168:258,1,127.499996200204,2|0,0:0|0:0,0:0:0:0:
80,184,127469,1,2,0:0:0:0:
120,76,127697,1,0,0:0:0:0:
230,54,127924,1,2,0:0:0:0:
310,137,128151,1,8,0:0:0:0:
195,143,128378,6,0,B|190:219|256:244,1,127.499996200204,4|0,0:0|0:0,0:0:0:0:
360,200,128833,1,8,0:0:0:0:
360,200,129060,1,0,0:0:0:0:
384,128,129288,1,8,0:0:0:0:
432,184,129515,1,0,0:0:0:0:
416,256,129742,1,8,0:0:0:0:
344,272,129969,1,0,0:0:0:0:
360,200,130197,5,4,0:0:0:0:
384,128,130424,1,0,0:0:0:0:
312,144,130651,1,4,0:0:0:0:
288,216,130878,1,0,0:0:0:0:
353,281,131106,1,4,0:0:0:0:
353,281,131333,1,4,0:0:0:0:
353,281,131560,1,4,0:0:0:0:
353,281,131788,1,4,0:0:0:0:
352,280,132015,6,0,B|296:296|296:296|248:264|248:264|192:280,1,170,4|8,0:0|0:0,0:0:0:0:
88,296,132697,2,0,B|120:240,1,42.5,2|0,0:0|0:0,0:0:0:0:
112,160,133038,2,0,B|144:104,1,42.5,0|8,0:0|0:0,0:0:0:0:
216,64,133378,2,8,B|248:8,2,42.5,10|8|8,0:0|0:0|0:0,0:0:0:0:
256,160,133833,5,2,0:0:0:0:
288,256,134060,1,2,0:0:0:0:
328,352,134288,1,12,0:0:0:0:
424,296,134515,2,0,B|392:240,1,42.5,2|0,0:0|0:0,0:0:0:0:
400,160,134856,2,0,B|368:104,1,42.5,0|8,0:0|0:0,0:0:0:0:
296,64,135196,2,0,B|264:8,2,42.5
335,158,135651,6,0,B|279:174|279:174|231:142|231:142|175:158,1,170,2|10,0:0|0:0,0:0:0:0:
104,224,136333,2,0,B|120:288,1,42.5,2|0,0:0|0:0,0:0:0:0:
66,366,136674,2,0,B|113:320,1,42.5,8|0,0:0|0:0,0:0:0:0:
210,327,137015,2,8,B|146:308,2,42.5,8|8|10,0:0|0:0|0:0,0:0:0:0:
200,224,137469,5,2,0:0:0:0:
256,136,137697,1,2,0:0:0:0:
312,224,137924,1,4,0:0:0:0:
408,224,138151,2,0,B|392:288,1,42.5,2|2,0:0|0:0,0:0:0:0:
446,366,138492,2,0,B|398:320,1,42.5,0|2,0:0|0:0,0:0:0:0:
302,327,138833,2,0,B|365:308,4,42.5,2|8|8|8|2,0:0|0:0|0:0|0:0|0:0,0:0:0:0:
200,336,139515,5,0,0:0:0:0:
240,248,139742,1,8,0:0:0:0:
144,224,139969,1,2,0:0:0:0:
144,224,140083,1,8,0:0:0:0:
48,248,140310,1,0,0:0:0:0:
48,248,140424,1,8,0:0:0:0:
88,152,140651,2,0,B|120:104|120:104|176:112|176:112|208:56,1,170,8|2,0:0|0:0,0:0:0:0:
312,48,141333,5,0,0:0:0:0:
272,136,141560,1,14,0:0:0:0:
376,128,141787,1,2,0:0:0:0:
376,128,141901,1,0,0:0:0:0:
480,120,142128,1,0,0:0:0:0:
480,120,142242,1,8,0:0:0:0:
488,224,142469,2,8,B|456:280,1,42.5
415,261,142697,2,8,B|383:317,1,42.5
344,320,142924,5,2,0:0:0:0:
256,272,143151,1,0,0:0:0:0:
168,320,143378,1,8,0:0:0:0:
192,224,143606,1,2,0:0:0:0:
192,224,143719,1,10,0:0:0:0:
320,224,143947,1,0,0:0:0:0:
320,224,144060,1,8,0:0:0:0:
256,152,144288,2,8,B|256:72,2,42.5
192,224,144742,2,0,B|160:272|152:352|152:352|200:304|256:272|312:304|360:352|360:352|352:272|320:224,1,509.999984800816,0|4,0:0|0:0,0:0:0:0:
256,192,146788,6,0,B|280:184|280:184|288:168,1,42.5,0|2,0:0|0:0,0:0:0:0:
224,120,147242,1,0,0:0:0:0:
224,120,147356,1,0,0:0:0:0:
176,184,147583,1,0,0:0:0:0:
176,184,147697,1,0,0:0:0:0:
208,256,147924,1,2,0:0:0:0:
168,264,148038,1,0,0:0:0:0:
128,248,148151,1,2,0:0:0:0:
96,176,148378,6,0,B|110:137|110:137|144:112,1,85,0|2,0:0|0:0,0:0:0:0:
224,120,149060,2,0,B|240:104,1,21.25
320,120,149401,2,0,B|304:136,1,21.25
336,208,149742,2,0,B|352:192,1,21.25,2|0,0:0|0:0,0:0:0:0:
379,164,149969,1,2,0:0:0:0:
392,88,150197,6,0,B|433:106|433:106|450:141,1,85,2|6,0:0|0:0,0:0:0:0:
440,224,150878,1,0,0:0:0:0:
416,256,150992,1,8,0:0:0:0:
296,336,151219,1,0,0:0:0:0:
320,304,151333,2,0,B|310:283|310:283|296:272,1,42.5,8|2,0:0|0:0,0:0:0:0:
256,272,151674,1,0,0:0:0:0:
216,272,151788,6,0,B|200:260|200:260|190:239,2,42.5,0|2|0,0:0|0:0|0:0,0:0:0:0:
200,312,152356,1,0,0:0:0:0:
160,320,152469,2,0,B|150:299|150:299|136:288,1,42.5,2|0,0:0|0:0,0:0:0:0:
96,272,152810,1,0,0:0:0:0:
64,160,153038,1,0,0:0:0:0:
96,184,153151,2,0,B|112:195|112:195|132:188,1,42.5,8|0,0:0|0:0,0:0:0:0:
168,168,153492,1,0,0:0:0:0:
208,144,153606,1,8,0:0:0:0:
280,72,153833,6,0,B|256:48|256:48|228:44,2,63.749998100102,4|0|2,0:0|0:0|0:0,0:0:0:0:
320,168,154515,2,8,B|296:192,1,31.874999050051
432,152,154856,2,0,B|408:176,1,31.874999050051,0|8,0:0|0:0,0:0:0:0:
392,272,155197,1,2,0:0:0:0:
352,296,155310,1,0,0:0:0:0:
312,272,155424,2,0,B|284:286|284:286|256:272,1,63.749998100102,10|4,0:0|0:0,0:0:0:0:
184,200,155878,6,0,B|212:186|212:186|240:200,1,63.749998100102,0|10,0:0|0:0,0:0:0:0:
184,288,156333,1,0,0:0:0:0:
136,264,156447,1,8,0:0:0:0:
64,168,156674,1,8,0:0:0:0:
112,192,156788,2,0,B|120:160|120:160|142:140,1,63.749998100102,8|2,0:0|0:0,0:0:0:0:
192,128,157128,1,0,0:0:0:0:
232,144,157242,2,0,B|254:168|254:168|257:199,1,63.749998100102,8|4,0:0|0:0,0:0:0:0:
280,328,157697,6,0,B|258:304|258:304|255:273,1,63.749998100102,8|2,0:0|0:0,0:0:0:0:
352,256,158151,2,0,B|384:240,1,31.874999050051,0|2,0:0|0:0,0:0:0:0:
360,200,158378,1,2,0:0:0:0:
380,158,158492,2,0,B|352:144,1,31.874999050051,0|8,0:0|0:0,0:0:0:0:
248,152,158833,5,2,0:0:0:0:
232,200,158947,1,0,0:0:0:0:
248,248,159060,2,0,B|224:272|224:272|196:266,1,63.749998100102,8|4,0:0|0:0,0:0:0:0:
40,192,159742,5,0,0:0:0:0:
40,112,159969,1,0,0:0:0:0:
56,96,160083,1,0,0:0:0:0:
72,80,160197,1,0,0:0:0:0:
96,88,160310,1,0,0:0:0:0:
120,96,160424,2,0,B|144:104|144:104|160:96,1,42.5
176,88,160765,1,0,0:0:0:0:
192,80,160878,2,0,B|216:72|216:72|232:80,1,42.5,0|4,0:0|0:0,0:0:0:0:
264,88,161333,5,0,0:0:0:0:
296,104,161560,2,0,B|360:144,1,63.749998100102
376,160,162015,2,2,B|424:208|400:280,1,127.499996200204
376,304,162697,2,0,B|224:304,2,127.499996200204
360,280,163833,5,2,0:0:0:0:
344,256,164060,1,0,0:0:0:0:
328,232,164288,1,2,0:0:0:0:
312,208,164515,1,2,0:0:0:0:
248,88,164969,5,0,0:0:0:0:
216,104,165196,2,0,B|152:144,1,63.749998100102
136,160,165651,2,2,B|88:208|112:280,1,127.499996200204
136,304,166333,2,0,B|288:304,1,127.499996200204
296,304,167015,6,0,B|328:240,1,63.749998100102,2|0,0:0|0:0,0:0:0:0:
356,246,167469,2,0,B|388:182,1,63.749998100102,2|0,0:0|0:0,0:0:0:0:
416,190,167924,2,0,B|448:126,1,63.749998100102,0|2,0:0|0:0,0:0:0:0:
464,104,168378,5,4,0:0:0:0:
392,80,168833,1,2,0:0:0:0:
320,104,169288,2,0,B|176:104,1,127.499996200204,2|0,0:0|0:0,0:0:0:0:
192,136,169969,2,2,B|319:136,1,127.499996200204
344,152,170651,5,2,0:0:0:0:
360,184,170878,1,0,0:0:0:0:
360,216,171106,1,2,0:0:0:0:
344,240,171333,1,2,0:0:0:0:
320,256,171560,1,2,0:0:0:0:
288,256,171788,1,2,0:0:0:0:
256,192,172469,12,0,175197,0:0:0:0:
99,184,175651,5,4,0:0:0:0:
144,264,175878,5,0,0:0:0:0:
216,312,176106,2,0,B|256:334|296:312,1,85,8|0,0:0|0:0,0:0:0:0:
256,240,176560,2,0,B|298:234|332:193|328:146,1,127.5,0|8,0:0|0:0,0:0:0:0:
328,148,177015,1,0,0:0:0:0:
240,152,177242,1,8,0:0:0:0:
184,216,177469,2,0,B|152:192|140:139|165:88|204:73,1,170,2|8,0:0|0:0,0:0:0:0:
288,64,178151,5,0,0:0:0:0:
376,64,178378,1,0,0:0:0:0:
408,96,178492,1,8,0:0:0:0:
416,144,178606,1,0,0:0:0:0:
376,224,178833,1,8,0:0:0:0:
288,224,179061,1,8,0:0:0:0:
240,152,179288,6,0,B|204:170|184:221|201:275|237:296,1,170,2|8,0:0|0:0,0:0:0:0:
288,224,179969,1,0,0:0:0:0:
240,152,180197,2,0,B|200:96|129:106,1,127.5,0|8,0:0|0:0,0:0:0:0:
128,106,180651,1,0,0:0:0:0:
240,152,180878,6,0,B|280:129|324:132|366:164|371:212,1,170,8|0,0:0|0:0,0:0:0:0:
288,224,181560,1,8,0:0:0:0:
216,224,181788,1,0,0:0:0:0:
144,224,182015,2,0,B|104:198|65:223,1,85
104,280,182469,1,8,0:0:0:0:
129,348,182696,1,8,0:0:0:0:
129,348,182810,1,8,0:0:0:0:
129,348,182924,2,0,B|190:344|226:276|216:224,2,170,8|8|0,0:0|0:0|0:0,0:0:0:0:
96,224,184174,5,8,0:0:0:0:
96,224,184288,1,0,0:0:0:0:
152,160,184515,1,8,0:0:0:0:
208,96,184742,2,0,B|288:145|368:96,1,170,4|8,0:0|0:0,0:0:0:0:
424,160,185424,2,0,B|344:192,1,85
288,200,185765,1,8,0:0:0:0:
230,191,185878,2,0,B|152:160,1,85,0|8,0:0|0:0,0:0:0:0:
72,128,186333,5,8,0:0:0:0:
64,168,186447,1,8,0:0:0:0:
80,200,186560,2,0,B|102:229|96:264,1,63.749998100102,12|0,0:0|0:0,0:0:0:0:
48,320,187015,2,0,B|69:347|104:340,1,63.749998100102
168,296,187469,2,0,B|181:267|175:234,1,63.749998100102
152,160,187924,2,0,B|188:150|213:166,1,63.749998100102
248,232,188378,5,0,0:0:0:0:
288,168,188606,1,0,0:0:0:0:
256,104,188833,1,0,0:0:0:0:
336,104,189060,2,0,B|365:124|366:156,1,63.749998100102
344,232,189515,1,0,0:0:0:0:
344,232,189742,2,0,B|378:242|405:224,1,63.749998100102
405,223,190197,1,4,0:0:0:0:
216,56,190651,6,0,B|152:72|120:144,1,127.499996200204,2|0,0:0|0:0,0:0:0:0:
0,176,191106,2,0,B|-41:225|-54:306|7:360|71:371,1,254.999992400408,2|2,0:0|0:0,0:0:0:0:
193,332,191788,2,0,B|234:282|247:201|185:147|121:136,2,254.999992400408,8|0|8,0:0|0:0|0:0,0:0:0:0:
256,352,192810,5,0,0:0:0:0:
320,336,192924,1,2,0:0:0:0:
304,208,193151,1,0,0:0:0:0:
416,144,193378,1,10,0:0:0:0:
432,272,193606,1,0,0:0:0:0:
320,336,193833,1,2,0:0:0:0:
296,80,194288,6,0,B|360:96|392:168,1,127.499996200204,2|0,0:0|0:0,0:0:0:0:
512,176,194743,2,0,B|553:225|566:306|504:360|440:371,1,254.999992400408,10|2,0:0|0:0,0:0:0:0:
319,332,195425,2,0,B|277:282|264:201|326:147|390:136,2,254.999992400408,4|0|0,0:0|0:0|0:0,0:0:0:0:
256,352,196447,5,0,0:0:0:0:
193,332,196560,2,0,B|222:300|239:237|203:180,1,127.499996200204,2|0,0:0|0:0,0:0:0:0:
106,148,197015,2,0,B|77:180|60:243|96:300,1,127.499996200204,2|0,0:0|0:0,0:0:0:0:
194,334,197469,1,2,0:0:0:0:
448,312,197924,6,0,B|312:312,1,127.499996200204,2|8,0:0|0:0,0:0:0:0:
368,192,198378,2,0,B|312:120|200:120|144:192,1,254.999992400408,2|8,0:0|0:0,0:0:0:0:
136,64,199060,2,0,B|208:15|304:16|376:64,2,254.999992400408,0|8|0,0:0|0:0|0:0,0:0:0:0:
136,128,200083,5,0,0:0:0:0:
136,192,200197,1,2,0:0:0:0:
128,320,200424,1,0,0:0:0:0:
256,344,200651,1,8,0:0:0:0:
384,320,200878,1,0,0:0:0:0:
376,192,201105,1,2,0:0:0:0:
256,344,201560,6,0,B|256:208,1,127.499996200204,2|0,0:0|0:0,0:0:0:0:
184,112,202015,2,0,B|182:56|216:16|256:8|296:16|331:56|328:112,1,254.999992400408,2|8,0:0|0:0,0:0:0:0:
376,192,202697,2,0,B|440:224|432:304|360:328|312:288|312:288|323:360|256:392|191:360|200:288|200:288|152:328|80:304|72:224|136:192,1,637.49998100102
256,240,204060,5,8,0:0:0:0:
256,112,204288,1,8,0:0:0:0:
256,112,204401,1,8,0:0:0:0:
256,112,204515,1,8,0:0:0:0:
256,112,204628,1,8,0:0:0:0:
256,112,204742,1,14,0:0:0:0:
144,56,204969,5,0,0:0:0:0:
32,120,205197,2,0,B|70:179|136:185,1,127.499996200204,2|0,0:0|0:0,0:0:0:0:
152,336,205651,2,0,B|207:368|288:343|329:281|308:210,1,254.999992400408,2|2,0:0|0:0,0:0:0:0:
203,210,206333,2,0,B|183:281|224:343|305:368|360:336,2,254.999992400408,8|8|0,0:0|0:0|0:0,0:0:0:0:
308,210,207469,6,0,B|328:152|328:152|320:88,2,127.499996200204,2|8|2,0:0|0:0|0:0,0:0:0:0:
203,210,208151,2,0,B|184:152|184:152|192:88,1,127.499996200204,0|4,0:0|0:0,0:0:0:0:
319,86,208606,1,0,0:0:0:0:
440,56,208833,1,2,0:0:0:0:
464,184,209060,1,0,0:0:0:0:
424,232,209174,1,0,0:0:0:0:
384,280,209288,2,0,B|260:331|136:280,1,254.999992400408,2|8,0:0|0:0,0:0:0:0:
135,152,209969,6,0,B|259:100|383:151,1,254.999992400408
384,280,210651,2,0,B|316:269|296:192,1,127.499996200204,2|0,0:0|0:0,0:0:0:0:
136,280,211106,2,0,B|204:269|224:192,1,127.499996200204,2|0,0:0|0:0,0:0:0:0:
261,318,211560,1,2,0:0:0:0:
261,318,211788,1,0,0:0:0:0:
136,280,212015,2,0,B|88:254|88:254|105:234|105:234|61:209,1,127.499996200204,2|0,0:0|0:0,0:0:0:0:
88,152,212356,1,0,0:0:0:0:
136,112,212469,6,0,B|199:141|199:141|256:120|313:141|313:141|376:112,2,254.999992400408,8|2|2,0:0|0:0|0:0,0:0:0:0:
136,280,213606,2,0,B|199:251|199:251|256:272|313:251|313:251|376:280,1,254.999992400408,0|8,0:0|0:0,0:0:0:0:
408,336,214174,2,0,B|440:280,1,63.749998100102,0|2,0:0|0:0,0:0:0:0:
448,152,214515,5,0,0:0:0:0:
344,80,214742,1,2,0:0:0:0:
224,128,214969,1,0,0:0:0:0:
120,56,215197,2,0,B|82:113|107:177,2,127.499996200204,2|8|4,0:0|0:0|0:0,0:0:0:0:
224,128,215878,1,0,0:0:0:0:
160,240,216106,2,0,B|220:270|283:242,1,127.499996200204
224,128,216560,2,0,B|284:98|347:126,2,127.499996200204
283,242,217242,5,0,0:0:0:0:
336,296,217469,2,0,B|368:264|353:218,1,85,4|0,0:0|0:0,0:0:0:0:
304,168,217924,1,4,0:0:0:0:
283,242,218151,2,0,B|253:277|265:321,2,85,0|4|4,0:0|0:0|0:0,0:0:0:0:
336,296,218833,2,4,B|347:341|315:374,1,85
240,376,219288,6,0,B|176:376|128:344|96:272,1,170,4|2,0:0|0:0,0:0:0:0:
64,216,219969,1,0,0:0:0:0:
48,176,220083,1,0,0:0:0:0:
32,136,220197,2,0,B|8:64,2,42.5,2|0|2,0:0|0:0|0:0,0:0:0:0:
122,127,220651,2,0,B|135:167,2,42.5,8|0|8,0:0|0:0|0:0,0:0:0:0:
214,124,221106,6,0,B|302:124,2,85,2|0|2,0:0|0:0|0:0,0:0:0:0:
160,192,221788,1,0,0:0:0:0:
192,224,221901,1,8,0:0:0:0:
216,264,222015,2,0,B|216:320,2,42.5,8|0|8,0:0|0:0|0:0,0:0:0:0:
296,264,222469,2,0,B|296:320,2,42.5,10|0|10,0:0|0:0|0:0,0:0:0:0:
272,376,222924,6,0,B|336:376|384:344|416:272,1,170,2|2,0:0|0:0,0:0:0:0:
448,216,223605,1,0,0:0:0:0:
464,176,223719,1,8,0:0:0:0:
480,136,223833,2,0,B|504:64,2,42.5,8|8|8,0:0|0:0|0:0,0:0:0:0:
390,127,224287,2,0,B|376:167,2,42.5,10|0|10,0:0|0:0|0:0,0:0:0:0:
298,124,224742,6,0,B|210:124,2,85,2|0|2,0:0|0:0|0:0,0:0:0:0:
320,208,225424,1,0,0:0:0:0:
312,248,225537,1,0,0:0:0:0:
304,288,225651,2,0,B|292:350,2,42.5,8|0|8,0:0|0:0|0:0,0:0:0:0:
208,288,226105,2,0,B|220:350,2,42.5,10|0|10,0:0|0:0|0:0,0:0:0:0:
256,216,226560,5,2,0:0:0:0:
188,97,226788,1,2,0:0:0:0:
323,97,227015,1,6,0:0:0:0:
408,96,227242,5,0,0:0:0:0:
392,136,227356,1,0,0:0:0:0:
376,176,227469,2,0,B|344:248,2,42.5,8|0|8,0:0|0:0|0:0,0:0:0:0:
432,240,227924,2,0,B|432:304,2,42.5,10|2|10,0:0|0:0|0:0,0:0:0:0:
360,288,228378,6,0,B|312:360,2,85,2|0|2,0:0|0:0|0:0,0:0:0:0:
293,234,229060,1,0,0:0:0:0:
275,195,229174,1,0,0:0:0:0:
256,160,229288,2,0,B|184:160,2,42.5,8|0|8,0:0|0:0|0:0,0:0:0:0:
256,72,229742,2,0,B|304:72,2,42.5,8|8|8,0:0|0:0|0:0,0:0:0:0:
176,48,230197,5,2,0:0:0:0:
96,24,230424,1,8,0:0:0:0:
23,68,230651,1,2,0:0:0:0:
104,96,230879,1,0,0:0:0:0:
120,136,230993,1,0,0:0:0:0:
136,176,231106,2,0,B|168:248,2,42.5,8|0|8,0:0|0:0|0:0,0:0:0:0:
80,240,231561,2,0,B|80:304,2,42.5,10|10|10,0:0|0:0|0:0,0:0:0:0:
152,280,232015,6,0,B|216:354|280:336|320:272|312:232|296:192|216:192|200:152|192:112|232:48|295:29|360:104,1,510,6|0,0:0|0:0,0:0:0:0:
359,103,233492,1,0,0:0:0:0:
359,103,233606,1,0,0:0:0:0:
359,103,233719,1,0,0:0:0:0:
