osu file format v14

[General]
AudioFilename: stay alive remix.mp3
AudioLeadIn: 0
PreviewTime: 111039
Countdown: 0
SampleSet: Soft
StackLeniency: 0.7
Mode: 0
LetterboxInBreaks: 0
WidescreenStoryboard: 0

[Editor]
Bookmarks: 3433
DistanceSpacing: 1.53
BeatDivisor: 4
GridSize: 32
TimelineZoom: 2.599999

[Metadata]
Title:Stay Alive(Jun Kuroda Bootleg Remix)
TitleUnicode:Stay Alive(Jun Kuroda Bootleg Remix)
Artist:EMILIA (CV: Rie Takahashi)
ArtistUnicode:エミリア(CV:高橋李依)
Creator:chucentry
Version:Incomplete Puzzle
Source:Re:ゼロから始める異世界生活
Tags:dnb rezero drum and bass
BeatmapID:1121912
BeatmapSetID:529041

[Difficulty]
HPDrainRate:6
CircleSize:4
OverallDifficulty:8
ApproachRate:9.2
SliderMultiplier:1.8
SliderTickRate:1

[Events]
//Background and Video events
0,0,"bg_1.png",0,0
//Break Periods
2,45721,47538
2,156066,166331
//Storyboard Layer 0 (Background)
//Storyboard Layer 1 (Fail)
//Storyboard Layer 2 (Pass)
//Storyboard Layer 3 (Foreground)
//Storyboard Sound Samples

[TimingPoints]
1384,344.827586206897,4,2,1,40,1,0
1384,-133.333333333333,4,2,1,40,0,0
1728,-133.333333333333,4,2,0,40,0,0
12418,-133.333333333333,4,2,1,40,0,0
21642,-83.3333333333333,4,2,1,40,0,0
22159,-100,4,2,1,40,0,0
51039,-90.9090909090909,4,2,1,40,0,1
51125,-90.9090909090909,4,2,1,40,0,0
62073,-133.333333333333,4,2,1,40,0,0
62418,-90.9090909090909,4,2,1,40,0,1
62504,-90.9090909090909,4,2,1,40,0,0
71728,-200,4,2,0,40,0,0
73108,-133.333333333333,4,2,1,40,0,0
73452,-100,4,2,1,40,0,0
82763,-133.333333333333,4,2,0,40,0,0
84142,-100,4,2,1,40,0,0
93970,-133.333333333333,4,2,0,40,0,0
95177,-100,4,2,1,40,0,0
106211,-133.333333333333,4,2,0,40,0,0
108970,-166.666666666667,4,2,0,40,0,0
111039,-200,4,2,1,40,0,0
111728,-90.9090909090909,4,2,1,40,0,1
111815,-90.9090909090909,4,2,1,40,0,0
122567,-200,4,2,1,40,0,0
123108,-90.9090909090909,4,2,1,40,0,1
123194,-90.9090909090909,4,2,1,40,0,0
132418,-142.857142857143,4,2,1,40,0,0
133797,-90.909090909091,4,2,1,40,0,1
133884,-90.909090909091,4,2,1,40,0,0
155177,-111.111111111111,4,2,1,40,0,0
166901,-125,4,2,0,40,0,0
177935,-100,4,2,1,40,0,0
188970,-90.9090909090909,4,2,1,40,0,1
189056,-90.9090909090909,4,2,1,40,0,0
200004,-166.666666666667,4,2,1,40,0,0
200349,-90.9090909090909,4,2,1,40,0,1
200435,-90.9090909090909,4,2,1,40,0,0
211039,-133.333333333333,4,2,0,40,0,0

[HitObjects]
341,332,1384,5,2,1:3:0:0:
341,332,1728,6,0,L|333:180,1,135.000005149842,2|0,0:0|0:0,0:0:0:0:
423,219,2246,1,0,0:0:0:0:
473,139,2418,1,0,0:0:0:0:
413,67,2590,1,0,0:0:0:0:
326,102,2763,6,0,L|192:94,1,135.000005149842,2|0,0:0|0:0,0:0:0:0:
109,85,3280,1,2,0:0:0:0:
240,27,3452,5,2,0:0:0:0:
225,169,3625,1,2,0:0:0:0:
109,85,3797,5,2,0:0:0:0:
124,227,3970,1,2,0:0:0:0:
27,150,4142,5,2,0:0:0:0:
27,150,4487,6,0,P|12:119|34:15,1,135.000005149842,2|0,0:0|0:0,0:0:0:0:
109,85,5004,1,2,0:0:0:0:
194,141,5177,2,0,P|207:105|207:58,1,67.5000025749208
109,85,5521,6,0,L|117:235,1,135.000005149842,2|0,0:0|0:0,0:0:0:0:
118,301,6039,1,2,0:0:0:0:
194,141,6211,1,2,0:0:0:0:
18,156,6384,1,2,0:0:0:0:
118,263,6556,5,2,0:0:0:0:
109,85,6728,1,2,0:0:0:0:
186,221,6901,5,2,0:0:0:0:
186,221,7246,6,0,L|328:213,1,135.000005149842,2|0,0:0|0:0,0:0:0:0:
402,212,7760,1,0,0:0:0:0:
282,136,7935,2,0,L|198:134,1,67.5000025749208
109,234,8280,6,0,P|139:290|210:295,1,135.000005149842,2|0,0:0|0:0,0:0:0:0:
283,277,8797,1,2,0:0:0:0:
255,361,8970,5,2,0:0:0:0:
186,221,9142,1,2,0:0:0:0:
283,277,9315,5,2,0:0:0:0:
109,234,9487,1,2,0:0:0:0:
265,179,9659,6,0,P|271:120|265:39,2,135.000005149842,2|0|2,0:0|0:0|0:0,0:0:0:0:
283,277,10521,1,0,0:0:0:0:
209,333,10694,2,0,P|150:340|73:309,1,135.000005149842,2|0,0:0|0:0,0:0:0:0:
265,179,11211,5,2,0:0:0:0:
286,363,11384,1,2,0:0:0:0:
159,242,11556,1,2,0:0:0:0:
366,239,11728,5,2,0:0:0:0:
209,333,11901,1,2,0:0:0:0:
265,179,12073,5,2,0:0:0:0:
359,324,12247,1,2,0:0:0:0:
440,158,12418,6,0,L|365:153,1,67.5000025749208,2|0,0:0|0:0,0:0:0:0:
265,179,12937,5,0,0:0:0:0:
265,179,13108,2,0,L|197:183,1,67.5000025749208,2|0,0:0|0:0,0:0:0:0:
45,149,13452,2,0,L|112:153,1,67.5000025749208,2|0,0:0|0:0,0:0:0:0:
337,139,13797,6,0,P|285:98|220:108,1,135.000005149842,2|0,0:0|0:0,0:0:0:0:
162,166,14315,1,0,0:0:0:0:
162,166,14487,2,0,L|161:237,1,67.5000025749208,2|0,0:0|0:0,0:0:0:0:
66,230,14832,2,0,L|75:304,1,67.5000025749208,2|0,0:0|0:0,0:0:0:0:
186,334,15177,6,0,L|329:329,1,135.000005149842,2|0,0:0|0:0,0:0:0:0:
248,252,15694,1,0,0:0:0:0:
248,252,15866,2,0,P|245:209|250:160,1,67.5000025749208,2|0,0:0|0:0,0:0:0:0:
320,79,16211,2,0,P|333:157|317:222,1,135.000005149842,2|0,0:0|0:0,0:0:0:0:
244,152,16728,1,2,0:0:0:0:
146,219,16901,5,2,0:0:0:0:
277,264,17073,1,2,0:0:0:0:
238,122,17246,1,2,0:0:0:0:
288,285,17418,1,2,0:0:0:0:
347,190,17590,6,0,P|351:151|344:106,1,67.5000025749208,2|0,0:0|0:0,0:0:0:0:
278,36,17935,1,2,0:0:0:0:
278,36,18280,6,0,L|137:32,1,135.000005149842,2|0,0:0|0:0,0:0:0:0:
64,51,18794,1,0,0:0:0:0:
170,125,18966,2,0,L|251:121,1,67.5000025749208
86,175,19315,2,0,L|90:256,1,67.5000025749208
233,189,19659,6,0,L|238:112,1,67.5000025749208
307,244,20004,1,2,0:0:0:0:
159,244,20177,1,2,0:0:0:0:
336,248,20349,5,2,0:0:0:0:
129,242,20523,1,2,0:0:0:0:
226,323,20694,6,0,L|234:168,1,135.000005149842,2|0,0:0|0:0,0:0:0:0:
223,107,21211,1,0,0:0:0:0:
144,219,21384,2,0,L|148:136,1,67.5000025749208,2|0,0:0|0:0,0:0:0:0:
173,38,21728,6,0,B|227:27|227:27|261:39|261:39|312:32|312:32|335:63|323:100|323:100|327:124,1,215.999993408203,2|8,0:0|0:0,0:0:0:0:
78,211,22246,5,2,0:0:0:0:
165,274,22418,1,2,0:0:0:0:
175,166,22590,1,2,0:0:0:0:
56,208,22763,5,2,0:0:0:0:
170,290,22935,1,2,0:0:0:0:
183,148,23108,1,2,0:0:0:0:
273,292,23280,5,2,0:0:0:0:
438,184,23452,6,0,B|387:179|387:179|353:192|353:192|282:187,1,135,6|0,0:0|0:0,0:0:0:0:
272,186,23797,1,8,0:0:0:0:
398,261,24002,2,0,L|397:308,2,45
333,113,24315,1,0,0:0:0:0:
204,242,24487,2,0,P|192:203|198:151,1,90,8|0,0:0|0:0,0:0:0:0:
265,340,24832,5,2,0:0:0:0:
143,311,25004,1,0,0:0:0:0:
272,186,25177,1,8,0:0:0:0:
131,120,25350,1,0,0:0:0:0:
131,120,25435,1,0,0:0:0:0:
131,120,25521,2,0,L|132:181,1,45
243,261,25694,2,0,L|203:241,1,45
66,271,25866,2,0,P|59:321|71:371,1,90,8|0,0:0|0:0,0:0:0:0:
272,186,26211,6,0,B|329:185|329:185|354:201|354:201|423:202,1,135,2|0,0:0|0:0,0:0:0:0:
443,199,26556,1,8,0:0:0:0:
304,262,26727,1,0,0:0:0:0:
292,305,26812,1,0,0:0:0:0:
299,349,26898,1,0,0:0:0:0:
394,314,27075,1,0,0:0:0:0:
205,375,27246,2,0,L|200:275,1,90,8|0,0:0|0:0,0:0:0:0:
163,120,27593,6,0,P|160:97|162:75,2,45,2|0|0,0:0|0:0|0:0,0:0:0:0:
272,186,27936,1,8,0:0:0:0:
325,105,28108,1,0,0:0:0:0:
325,105,28194,1,0,0:0:0:0:
325,105,28280,2,0,P|279:91|230:100,1,90
68,245,28625,2,0,P|112:250|154:236,1,90,8|0,0:0|0:0,0:0:0:0:
272,186,28970,6,0,L|266:365,1,180,2|8,0:0|0:0,0:0:0:0:
442,317,29488,1,0,0:0:0:0:
398,305,29573,1,0,0:0:0:0:
355,317,29659,2,0,B|342:281|342:281|352:224,1,90
454,37,30004,2,0,B|462:87|462:87|449:123,1,90,8|0,0:0|0:0,0:0:0:0:
216,77,30349,6,0,B|266:63|266:63|358:75,1,135,2|0,0:0|0:0,0:0:0:0:
385,83,30694,1,8,0:0:0:0:
335,346,30869,1,0,0:0:0:0:
335,346,30955,1,0,0:0:0:0:
335,346,31041,5,0,0:0:0:0:
240,285,31212,5,0,0:0:0:0:
443,271,31384,1,8,0:0:0:0:
282,147,31555,5,0,0:0:0:0:
385,83,31728,6,0,B|405:136|405:136|385:221,1,135,2|0,0:0|0:0,0:0:0:0:
364,246,32073,1,8,0:0:0:0:
212,185,32246,1,0,0:0:0:0:
204,141,32332,1,0,0:0:0:0:
220,99,32418,1,0,0:0:0:0:
324,28,32590,1,0,0:0:0:0:
281,146,32763,5,8,0:0:0:0:
277,236,32935,1,2,0:0:0:0:
273,326,33108,1,0,0:0:0:0:
408,249,33280,6,0,L|364:246,1,45,2|0,0:0|0:0,0:0:0:0:
185,197,33452,1,8,0:0:0:0:
390,144,33625,6,0,P|392:121|391:81,1,45,2|0,0:0|0:0,0:0:0:0:
324,28,33797,1,8,0:0:0:0:
280,24,33884,1,8,0:0:0:0:
239,40,33970,1,8,0:0:0:0:
194,34,34056,1,8,0:0:0:0:
156,36,34142,5,8,0:0:0:0:
115,73,34228,1,8,0:0:0:0:
106,128,34315,1,8,0:0:0:0:
133,176,34401,1,8,0:0:0:0:
185,197,34487,6,0,B|253:167|327:200|327:200|275:223,1,180,6|8,0:0|0:0,0:0:0:0:
181,327,35004,1,0,0:0:0:0:
181,327,35090,1,0,0:0:0:0:
181,327,35177,2,0,L|178:266,1,45
189,115,35349,1,0,0:0:0:0:
323,200,35521,2,0,L|319:87,1,90,8|0,0:0|0:0,0:0:0:0:
440,162,35866,6,0,B|457:216|457:216|437:317,1,135,2|0,0:0|0:0,0:0:0:0:
429,329,36211,1,8,0:0:0:0:
310,312,36384,1,0,0:0:0:0:
276,305,36470,1,0,0:0:0:0:
244,302,36556,1,0,0:0:0:0:
212,314,36642,1,0,0:0:0:0:
181,327,36728,5,0,0:0:0:0:
75,198,36903,1,8,0:0:0:0:
46,314,37075,1,0,0:0:0:0:
178,226,37246,6,0,P|206:163|165:57,1,180,2|8,0:0|0:0,0:0:0:0:
278,199,37763,1,0,0:0:0:0:
278,199,37849,1,0,0:0:0:0:
278,199,37935,2,0,P|325:211|374:195,1,90
265,41,38280,1,8,0:0:0:0:
392,109,38452,1,0,0:0:0:0:
177,128,38625,5,2,0:0:0:0:
281,287,38797,1,0,0:0:0:0:
288,242,38883,1,0,0:0:0:0:
278,199,38969,1,8,0:0:0:0:
426,35,39142,5,0,0:0:0:0:
459,64,39228,1,0,0:0:0:0:
473,107,39314,1,0,0:0:0:0:
463,150,39400,1,0,0:0:0:0:
432,184,39487,2,0,P|416:217|414:246,1,45
453,351,39659,2,0,P|432:320|408:304,1,45,8|0,0:0|0:0,0:0:0:0:
297,285,39832,2,0,P|333:282|359:269,1,45
392,109,40004,6,0,P|337:105|282:109,1,90,2|0,0:0|0:0,0:0:0:0:
106,164,40349,1,8,0:0:0:0:
199,93,40521,1,0,0:0:0:0:
199,70,40607,1,0,0:0:0:0:
200,48,40693,1,0,0:0:0:0:
175,227,40866,5,0,0:0:0:0:
297,285,41039,1,8,0:0:0:0:
277,151,41211,1,0,0:0:0:0:
156,305,41384,6,0,L|217:303,1,45,2|0,0:0|0:0,0:0:0:0:
297,285,41556,1,2,0:0:0:0:
340,293,41642,1,2,0:0:0:0:
378,318,41728,1,2,0:0:0:0:
403,355,41814,1,2,0:0:0:0:
447,353,41901,5,2,0:0:0:0:
482,327,41987,1,2,0:0:0:0:
497,285,42073,1,2,0:0:0:0:
485,242,42159,1,2,0:0:0:0:
450,214,42246,5,2,0:0:0:0:
277,151,42418,1,8,0:0:0:0:
428,84,42590,1,0,0:0:0:0:
340,293,42763,6,0,P|372:234|345:121,1,180,4|8,0:0|0:0,0:0:0:0:
221,252,43280,1,0,0:0:0:0:
221,252,43366,1,0,0:0:0:0:
221,252,43452,2,0,P|160:248|120:231,1,90
277,151,43797,1,8,0:0:0:0:
171,69,43970,2,0,L|169:116,1,45,2|0,0:0|0:0,0:0:0:0:
221,252,44142,1,10,0:0:0:0:
260,271,44228,1,10,0:0:0:0:
305,270,44314,1,10,0:0:0:0:
343,247,44400,1,10,0:0:0:0:
366,208,44486,1,10,0:0:0:0:
326,187,44574,5,10,0:0:0:0:
301,150,44660,1,10,0:0:0:0:
295,106,44746,1,10,0:0:0:0:
311,64,44832,1,10,0:0:0:0:
344,34,44919,1,10,0:0:0:0:
387,23,45005,1,10,0:0:0:0:
430,33,45091,1,10,0:0:0:0:
464,62,45177,5,10,0:0:0:0:
462,118,45263,1,10,0:0:0:0:
460,174,45349,1,10,0:0:0:0:
459,230,45435,1,10,0:0:0:0:
457,286,45521,5,14,1:3:0:0:
256,192,48108,6,2,L|254:164,3,22.5,2|2|2|2,0:3|0:3|0:3|0:3,0:3:0:0:
256,192,48280,12,0,50349,0:0:0:0:
463,129,51039,6,0,P|400:133|330:85,1,148.50000453186,6|0,0:0|0:0,0:0:0:0:
279,26,51384,1,8,0:0:0:0:
240,145,51556,1,0,0:0:0:0:
238,177,51642,1,0,0:0:0:0:
236,210,51728,1,0,0:0:0:0:
157,94,51901,5,2,0:0:0:0:
386,165,52073,1,8,0:0:0:0:
234,243,52246,1,0,0:0:0:0:
234,243,52332,1,0,0:0:0:0:
234,243,52418,6,0,L|129:234,1,99.0000030212403,2|0,0:0|0:0,0:0:0:0:
328,297,52763,1,8,0:0:0:0:
386,165,52935,1,0,0:0:0:0:
386,165,53021,1,0,0:0:0:0:
386,165,53108,2,0,L|388:109,1,49.5000015106202
431,273,53280,1,2,0:0:0:0:
255,157,53452,1,8,0:0:0:0:
388,65,53625,1,0,0:0:0:0:
234,243,53797,6,0,P|188:215|205:83,1,198.000006042481,2|8,0:0|0:0,0:0:0:0:
331,247,54315,1,0,0:0:0:0:
331,247,54401,1,0,0:0:0:0:
331,247,54487,2,0,P|328:287|329:319,1,49.5000015106202
434,233,54659,2,0,P|427:209|418:186,1,49.5000015106202,2|0,0:0|0:0,0:0:0:0:
297,58,54832,5,8,0:0:0:0:
234,243,55004,1,0,0:0:0:0:
103,156,55177,6,0,B|255:156|255:156|214:119,1,198.000006042481,2|8,0:0|0:0,0:0:0:0:
372,24,55694,1,0,0:0:0:0:
372,24,55780,1,0,0:0:0:0:
372,24,55866,2,0,P|378:60|375:103,1,49.5000015106202
255,157,56039,2,0,P|250:181|248:205,1,49.5000015106202,2|0,0:0|0:0,0:0:0:0:
352,312,56211,1,8,0:0:0:0:
453,186,56384,2,0,P|428:181|404:179,1,49.5000015106202
244,302,56556,6,0,B|169:326|100:294|100:294|124:282|145:251,1,198.000006042481,2|8,0:0|0:0,0:0:0:0:
70,74,57073,1,0,0:0:0:0:
71,111,57159,1,0,0:0:0:0:
72,148,57245,1,0,0:0:0:0:
73,185,57331,1,0,0:0:0:0:
74,222,57417,1,2,0:0:0:0:
193,189,57590,1,8,0:0:0:0:
339,218,57763,5,0,0:0:0:0:
339,218,57849,1,0,0:0:0:0:
339,217,57935,2,0,L|342:118,1,99.0000030212403,2|0,0:0|0:0,0:0:0:0:
244,302,58280,1,8,0:0:0:0:
76,296,58452,1,0,0:0:0:0:
75,259,58538,1,0,0:0:0:0:
74,222,58624,1,0,0:0:0:0:
73,185,58710,1,0,0:0:0:0:
72,148,58796,1,2,0:0:0:0:
193,189,58970,5,8,0:0:0:0:
234,17,59142,1,0,0:0:0:0:
310,136,59315,6,0,P|370:137|414:255,1,198.000006042481,2|8,0:0|0:0,0:0:0:0:
319,304,59832,1,0,0:0:0:0:
281,303,59918,1,0,0:0:0:0:
244,302,60004,1,0,0:0:0:0:
207,301,60090,1,0,0:0:0:0:
170,300,60176,1,0,0:0:0:0:
136,171,60349,5,8,0:0:0:0:
339,217,60521,1,2,0:0:0:0:
200,104,60694,5,8,0:0:0:0:
198,358,60866,1,2,0:0:0:0:
101,329,61039,5,8,0:0:0:0:
122,285,61125,1,8,0:0:0:0:
163,257,61211,1,8,0:0:0:0:
211,253,61297,1,8,0:0:0:0:
257,273,61383,1,8,0:0:0:0:
294,307,61470,1,8,0:0:0:0:
341,317,61556,1,8,0:0:0:0:
388,304,61642,1,8,0:0:0:0:
422,270,61728,2,8,L|429:210,1,49.5000015106202
270,31,61901,2,8,L|275:80,1,49.5000015106202
339,217,62073,6,0,B|329:178|340:144|340:144|318:160|318:160|290:163,1,101.250003862381,2|0,0:0|0:0,0:0:0:0:
246,215,62418,6,0,B|192:222|192:222|146:209,1,99.0000030212403,14|0,0:0|0:0,0:0:0:0:
275,80,62763,1,0,0:0:0:0:
414,177,62935,1,0,0:0:0:0:
414,177,63021,1,0,0:0:0:0:
414,177,63108,2,0,P|427:109|415:68,1,99.0000030212403,8|0,0:0|0:0,0:0:0:0:
339,217,63452,6,0,L|334:337,1,99.0000030212403,2|0,0:0|0:0,0:0:0:0:
246,215,63797,1,8,0:0:0:0:
389,100,63970,1,0,0:0:0:0:
437,100,64056,1,0,0:0:0:0:
477,129,64142,1,0,0:0:0:0:
494,175,64228,1,0,0:0:0:0:
481,222,64314,1,2,0:0:0:0:
334,315,64487,1,8,0:0:0:0:
414,177,64659,1,0,0:0:0:0:
130,195,64832,5,8,0:0:0:0:
376,246,65004,1,8,0:0:0:0:
109,188,65177,1,8,0:0:0:0:
254,38,65349,6,0,B|266:98|266:98|240:164|240:164|258:243,1,198.000006042481
293,309,65780,1,0,0:0:0:0:
293,309,65866,1,8,0:0:0:0:
324,164,66039,1,0,0:0:0:0:
183,271,66211,5,2,0:0:0:0:
181,95,66384,1,10,0:0:0:0:
125,81,66470,1,10,0:0:0:0:
69,94,66556,1,10,0:0:0:0:
25,131,66642,1,10,0:0:0:0:
3,184,66728,1,10,0:0:0:0:
7,241,66815,1,10,0:0:0:0:
36,290,66901,2,8,P|54:301|93:313,1,49.5000015106202,10|8,0:0|0:0,0:0:0:0:
293,309,67073,1,10,0:0:0:0:
127,206,67246,5,8,0:0:0:0:
361,174,67418,1,8,0:0:0:0:
181,95,67590,5,2,0:0:0:0:
162,304,67763,1,2,0:0:0:0:
282,130,67935,1,8,0:0:0:0:
127,206,68108,1,2,0:0:0:0:
361,174,68280,5,2,0:0:0:0:
181,95,68452,1,2,0:0:0:0:
293,309,68625,1,8,0:0:0:0:
127,206,68797,6,0,L|176:205,1,49.5000015106202,2|0,0:0|0:0,0:0:0:0:
360,84,68970,1,2,0:0:0:0:
257,222,69142,1,2,0:0:0:0:
214,10,69315,1,8,0:0:0:0:
361,173,69487,1,2,0:0:0:0:
363,211,69573,1,0,0:0:0:0:
366,248,69659,1,2,0:0:0:0:
369,285,69745,1,0,0:0:0:0:
372,322,69831,1,2,0:0:0:0:
439,129,70004,1,8,0:0:0:0:
257,222,70177,1,2,0:0:0:0:
255,259,70263,1,0,0:0:0:0:
252,296,70349,5,2,0:0:0:0:
122,338,70521,1,2,0:0:0:0:
374,359,70694,1,8,0:0:0:0:
170,235,70866,1,2,0:0:0:0:
170,235,70952,1,0,0:0:0:0:
170,235,71039,1,8,0:0:0:0:
359,135,71211,1,2,0:0:0:0:
142,25,71384,5,2,0:2:0:0:
96,44,71470,1,2,0:2:0:0:
67,84,71556,1,2,0:2:0:0:
61,133,71642,1,2,0:2:0:0:
76,179,71728,6,0,B|82:213|82:213|75:244|75:244|80:278,1,90,2|0,0:0|0:0,0:0:0:0:
122,338,72246,2,0,B|159:356|173:335|217:345,1,90,2|0,0:0|0:0,0:0:0:0:
305,344,72763,1,2,0:0:0:0:
200,248,72935,1,2,0:0:0:0:
307,250,73108,6,0,B|322:212|309:166|309:166|307:180|291:202,1,101.250003862381,2|0,0:0|0:0,0:0:0:0:
238,146,73452,6,0,B|171:142|171:142|133:166|133:166|60:158,1,180,12|0,0:0|0:0,0:0:0:0:
110,30,73970,1,0,0:0:0:0:
110,30,74056,1,0,0:0:0:0:
110,30,74142,2,0,L|112:94,1,45,8|0,0:0|0:0,0:0:0:0:
200,248,74315,1,0,0:0:0:0:
29,156,74487,5,2,0:0:0:0:
67,346,74659,1,0,0:0:0:0:
137,178,74832,1,8,0:0:0:0:
190,325,75004,6,0,P|213:325|235:319,1,45
302,181,75177,2,0,P|291:200|286:222,1,45,0|0,0:0|0:0,0:0:0:0:
372,349,75349,2,0,P|360:329|343:314,1,45
200,248,75521,5,8,0:0:0:0:
401,222,75694,1,2,0:0:0:0:
172,238,75866,5,8,0:0:0:0:
426,253,76039,1,8,0:0:0:0:
142,230,76211,1,8,0:0:0:0:
286,352,76384,6,0,B|282:288|282:288|309:249|309:249|300:165,1,180,2|0,0:0|0:0,0:0:0:0:
303,92,76815,1,0,0:0:0:0:
303,92,76901,2,0,B|309:144|309:144|298:194,1,90,12|0,0:0|0:0,0:0:0:0:
170,27,77246,5,2,0:0:0:0:
63,136,77418,2,2,L|70:76,1,45
200,166,77590,2,2,L|196:210,1,45
95,349,77763,2,2,L|91:304,1,45
213,296,77935,5,2,0:0:0:0:
266,312,78021,1,2,0:0:0:0:
319,295,78107,1,2,0:0:0:0:
354,253,78193,1,2,0:0:0:0:
359,197,78280,2,2,P|360:175|354:134,1,45
170,27,78452,2,2,P|168:49|169:71,1,45
267,220,78625,5,10,0:0:0:0:
282,22,78797,1,2,0:0:0:0:
142,238,78970,5,8,0:0:0:0:
357,152,79142,1,2,0:0:0:0:
169,71,79315,5,8,0:0:0:0:
213,296,79487,1,2,0:0:0:0:
262,112,79659,5,8,0:0:0:0:
97,242,79832,2,0,L|141:237,1,45,2|0,0:0|0:0,0:0:0:0:
319,295,80004,5,8,0:0:0:0:
182,164,80177,1,2,0:0:0:0:
148,358,80349,1,8,0:0:0:0:
331,202,80521,6,0,L|286:206,1,45,2|0,0:0|0:0,0:0:0:0:
94,150,80694,1,8,0:0:0:0:
213,296,80866,1,2,0:0:0:0:
262,112,81039,1,8,0:0:0:0:
97,242,81211,1,2,0:0:0:0:
97,242,81297,1,0,0:0:0:0:
97,242,81384,5,8,0:0:0:0:
180,20,81556,1,2,0:0:0:0:
331,202,81728,1,8,0:0:0:0:
77,62,81901,5,2,0:0:0:0:
77,62,81987,1,0,0:0:0:0:
77,62,82073,1,8,0:0:0:0:
262,112,82246,1,2,0:0:0:0:
44,177,82418,5,2,0:0:0:0:
15,224,82504,1,2,0:0:0:0:
20,279,82590,1,2,0:0:0:0:
55,322,82677,1,2,0:0:0:0:
108,336,82763,6,0,B|160:334|160:334|191:345|191:345|244:336,1,135.000005149842,2|0,0:0|0:0,0:0:0:0:
329,281,83280,1,2,0:0:0:0:
329,281,83452,2,0,P|328:337|345:372,1,67.5000025749208,2|0,0:0|0:0,0:0:0:0:
442,302,83797,2,0,P|448:269|445:235,1,67.5000025749208,2|0,0:0|0:0,0:0:0:0:
363,163,84142,6,0,B|304:160|304:160|283:172|283:172|231:169,1,135,6|0,0:0|0:0,0:0:0:0:
192,168,84487,1,8,0:0:0:0:
329,281,84659,1,0,0:0:0:0:
339,324,84745,1,0,0:0:0:0:
329,367,84831,1,0,0:0:0:0:
230,325,85004,1,0,0:0:0:0:
442,302,85177,1,8,0:0:0:0:
230,325,85349,1,0,0:0:0:0:
442,302,85521,6,0,L|446:199,1,90,2|0,0:0|0:0,0:0:0:0:
423,57,85866,1,8,0:0:0:0:
337,138,86039,1,0,0:0:0:0:
314,139,86125,1,0,0:0:0:0:
292,138,86211,1,0,0:0:0:0:
270,133,86297,1,0,0:0:0:0:
249,124,86383,1,0,0:0:0:0:
168,28,86556,1,8,0:0:0:0:
117,131,86728,1,0,0:0:0:0:
222,206,86901,6,0,L|225:298,1,90,2|0,0:0|0:0,0:0:0:0:
139,236,87246,1,8,0:0:0:0:
314,262,87418,1,0,0:0:0:0:
314,262,87504,1,0,0:0:0:0:
314,262,87590,1,0,0:0:0:0:
156,333,87763,1,0,0:0:0:0:
301,361,87935,2,0,L|405:349,1,90,8|0,0:0|0:0,0:0:0:0:
449,140,88280,6,0,L|443:252,1,90,2|0,0:0|0:0,0:0:0:0:
442,264,88539,1,0,0:0:0:0:
442,264,88625,1,8,0:0:0:0:
320,184,88797,1,0,0:0:0:0:
286,187,88883,1,0,0:0:0:0:
258,205,88969,1,0,0:0:0:0:
241,234,89055,1,0,0:0:0:0:
237,267,89141,1,0,0:0:0:0:
296,95,89315,5,8,0:0:0:0:
314,262,89487,1,0,0:0:0:0:
129,177,89659,5,2,0:0:0:0:
320,184,89832,1,0,0:0:0:0:
207,26,90004,1,8,0:0:0:0:
296,95,90177,1,0,0:0:0:0:
340,92,90263,1,0,0:0:0:0:
381,110,90349,1,0,0:0:0:0:
407,146,90435,1,0,0:0:0:0:
415,190,90521,1,0,0:0:0:0:
213,128,90694,5,8,0:0:0:0:
172,308,90866,1,0,0:0:0:0:
99,215,91039,6,0,L|203:214,1,90,2|0,0:0|0:0,0:0:0:0:
389,274,91384,1,8,0:0:0:0:
273,344,91556,1,0,0:0:0:0:
273,344,91642,1,0,0:0:0:0:
273,344,91728,2,0,P|271:309|272:278,1,45
320,184,91901,1,0,0:0:0:0:
172,308,92073,5,8,0:0:0:0:
131,102,92246,1,0,0:0:0:0:
320,184,92418,6,0,P|359:142|316:31,1,180,2|8,0:0|0:0,0:0:0:0:
183,173,92935,1,0,0:0:0:0:
179,217,93021,1,0,0:0:0:0:
175,262,93107,1,0,0:0:0:0:
80,189,93280,1,2,0:0:0:0:
286,109,93452,1,8,0:0:0:0:
169,354,93625,1,2,0:0:0:0:
187,129,93797,5,6,0:0:0:0:
294,190,93970,6,0,P|346:164|364:88,1,135.000005149842,2|0,0:0|0:0,0:0:0:0:
278,42,94487,6,0,P|278:76|286:109,1,67.5000025749208,2|0,0:0|0:0,0:0:0:0:
442,218,94832,2,0,P|449:185|449:151,1,67.5000025749208,2|0,0:0|0:0,0:0:0:0:
204,228,95177,5,14,0:0:0:0:
320,354,95349,2,0,L|323:288,1,45
294,190,95521,1,8,0:0:0:0:
177,309,95694,1,0,0:0:0:0:
139,284,95780,1,0,0:0:0:0:
120,244,95866,1,0,0:0:0:0:
125,200,95952,1,0,0:0:0:0:
152,165,96038,1,0,0:0:0:0:
358,272,96211,1,8,0:0:0:0:
314,45,96384,5,0,0:0:0:0:
314,45,96470,1,0,0:0:0:0:
314,45,96556,2,0,L|209:38,1,90,2|0,0:0|0:0,0:0:0:0:
47,32,96901,1,8,0:0:0:0:
152,165,97073,1,0,0:0:0:0:
152,165,97159,1,0,0:0:0:0:
152,165,97246,2,0,L|205:159,1,45
224,39,97418,1,0,0:0:0:0:
273,228,97590,1,8,0:0:0:0:
106,263,97763,5,0,0:0:0:0:
121,302,97849,1,0,0:0:0:0:
154,328,97935,2,0,L|248:332,1,90,2|0,0:0|0:0,0:0:0:0:
416,265,98280,1,8,0:0:0:0:
273,228,98453,1,0,0:0:0:0:
270,183,98539,1,0,0:0:0:0:
267,138,98625,1,0,0:0:0:0:
421,173,98797,5,0,0:0:0:0:
264,93,98970,1,8,0:0:0:0:
430,38,99142,5,0,0:0:0:0:
427,83,99228,1,0,0:0:0:0:
424,128,99314,1,2,0:0:0:0:
269,272,99487,2,0,L|274:205,1,45,2|0,0:0|0:0,0:0:0:0:
343,109,99659,1,8,0:0:0:0:
179,257,99832,1,0,0:0:0:0:
186,311,99918,1,0,0:0:0:0:
223,352,100004,1,0,0:0:0:0:
277,365,100090,1,0,0:0:0:0:
329,345,100176,5,0,0:0:0:0:
79,276,100349,1,8,0:0:0:0:
264,93,100521,1,0,0:0:0:0:
269,272,100694,6,0,B|342:265|342:265|382:286|382:286|458:286,1,180,2|8,0:0|0:0,0:0:0:0:
432,117,101211,1,0,0:0:0:0:
432,117,101297,1,0,0:0:0:0:
432,117,101384,1,0,0:0:0:0:
329,345,101556,5,0,0:0:0:0:
261,181,101728,1,8,0:0:0:0:
172,296,101901,1,0,0:0:0:0:
174,318,101987,1,0,0:0:0:0:
176,340,102073,1,0,0:0:0:0:
340,209,102246,2,0,L|343:165,1,45,2|0,0:0|0:0,0:0:0:0:
432,117,102418,1,2,0:0:0:0:
402,83,102504,1,2,0:0:0:0:
362,64,102590,1,2,0:0:0:0:
317,65,102676,1,2,0:0:0:0:
277,85,102763,2,0,B|250:85|250:85|228:82,1,45,2|0,0:0|0:0,0:0:0:0:
138,31,102935,5,2,0:0:0:0:
166,278,103108,1,8,0:0:0:0:
27,162,103280,1,0,0:0:0:0:
27,162,103366,1,0,0:0:0:0:
27,162,103452,6,0,B|94:156|94:156|135:175|135:175|217:172,1,180,6|8,0:0|0:0,0:0:0:0:
340,209,103970,1,0,0:0:0:0:
373,238,104056,1,0,0:0:0:0:
386,281,104142,1,0,0:0:0:0:
375,324,104228,1,0,0:0:0:0:
344,356,104314,1,0,0:0:0:0:
166,278,104487,1,8,0:0:0:0:
298,283,104659,1,0,0:0:0:0:
76,257,104832,5,2,0:0:0:0:
45,103,105004,1,2,0:0:0:0:
70,65,105090,1,2,0:0:0:0:
111,49,105176,1,2,0:0:0:0:
155,59,105262,1,2,0:0:0:0:
186,90,105348,1,2,0:0:0:0:
194,135,105435,1,2,0:0:0:0:
220,172,105521,1,2,0:0:0:0:
259,190,105607,1,2,0:0:0:0:
303,188,105693,1,2,0:0:0:0:
342,165,105779,1,2,0:0:0:0:
362,127,105866,1,2,0:0:0:0:
403,109,105952,1,2,0:0:0:0:
446,119,106038,1,2,0:0:0:0:
474,153,106124,1,2,0:0:0:0:
476,197,106210,5,2,0:0:0:0:
395,245,106384,1,2,0:0:0:0:
477,292,106556,1,2,0:0:0:0:
395,339,106728,6,0,B|316:320|327:357|248:332,1,135.000005149842,2|0,0:0|0:0,0:0:0:0:
197,281,107246,1,2,0:0:0:0:
395,245,107418,2,2,B|373:238|373:238|345:250,1,33.7500012874604
294,263,107590,6,0,P|282:192|290:120,1,135.000005149842,2|0,0:0|0:0,0:0:0:0:
339,48,108108,1,2,0:0:0:0:
339,48,108194,1,2,0:0:0:0:
339,48,108280,1,2,0:0:0:0:
237,64,108452,2,0,L|151:56,1,67.5000025749208,2|0,0:0|0:0,0:0:0:0:
52,106,108797,1,2,0:0:0:0:
52,106,108884,1,2,0:0:0:0:
52,106,108970,6,0,B|19:141|23:176|23:176|50:218|27:260|27:260|16:289|25:328|25:328|58:348|97:330|97:330|88:312,1,323.999990112305,2|0,0:0|0:0,0:0:0:0:
159,234,110177,1,2,0:0:0:0:
159,234,110263,1,2,0:0:0:0:
159,234,110349,2,0,B|200:243|232:218|232:218|262:250|316:229,1,161.999995056153,2|0,0:0|0:0,0:0:0:0:
300,14,111039,6,0,B|277:73|277:73|297:142,1,135,2|0,0:0|0:0,0:0:0:0:
482,233,111728,6,0,B|437:179|371:195|371:195|350:231|301:230,1,198.000006042481,6|8,0:0|0:0,0:0:0:0:
70,154,112246,1,0,0:0:0:0:
107,151,112332,1,0,0:0:0:0:
144,148,112418,1,0,0:0:0:0:
181,145,112504,1,0,0:0:0:0:
218,143,112590,1,2,0:0:0:0:
57,61,112763,1,8,0:0:0:0:
101,264,112935,2,0,P|128:292|154:310,1,49.5000015106202
365,232,113108,6,0,B|313:218|268:254|268:254|234:219|181:224,1,198.000006042481,2|8,0:0|0:0,0:0:0:0:
302,80,113625,1,0,0:0:0:0:
302,80,113711,1,0,0:0:0:0:
302,80,113797,2,0,L|305:131,1,49.5000015106202
338,331,113970,1,2,0:0:0:0:
442,188,114142,5,8,0:0:0:0:
218,143,114315,2,0,L|224:206,1,49.5000015106202
196,334,114487,6,0,B|154:367|154:367|85:329|114:238,1,198.000006042481,2|8,0:0|0:0,0:0:0:0:
208,44,115004,1,0,0:0:0:0:
211,77,115090,1,0,0:0:0:0:
214,110,115176,1,0,0:0:0:0:
100,93,115349,1,2,0:0:0:0:
192,250,115521,1,8,0:0:0:0:
21,208,115694,1,0,0:0:0:0:
218,143,115866,6,0,L|328:136,1,99.0000030212403,2|0,0:0|0:0,0:0:0:0:
287,355,116211,1,8,0:0:0:0:
192,250,116384,1,0,0:0:0:0:
153,246,116470,1,0,0:0:0:0:
115,259,116556,5,0,0:0:0:0:
347,236,116728,1,2,0:0:0:0:
156,353,116901,5,8,0:0:0:0:
218,143,117073,1,0,0:0:0:0:
373,334,117246,6,0,P|417:310|421:169,1,198.000006042481,4|8,0:0|0:0,0:0:0:0:
262,273,117763,1,0,0:0:0:0:
262,273,117849,1,0,0:0:0:0:
262,273,117935,2,0,P|221:269|193:254,1,49.5000015106202
108,180,118108,1,2,0:0:0:0:
189,35,118280,1,8,0:0:0:0:
414,136,118452,5,0,0:0:0:0:
388,134,118538,1,0,0:0:0:0:
363,135,118625,2,0,B|296:131|296:131|275:142|275:142|205:142,1,148.50000453186,2|0,0:0|0:0,0:0:0:0:
184,144,118970,1,8,0:0:0:0:
332,229,119142,1,0,0:0:0:0:
343,264,119228,1,0,0:0:0:0:
339,300,119314,1,0,0:0:0:0:
319,331,119400,1,0,0:0:0:0:
289,352,119486,1,2,0:0:0:0:
172,259,119659,1,8,0:0:0:0:
33,353,119832,5,0,0:0:0:0:
33,353,119918,1,0,0:0:0:0:
33,353,120004,2,0,L|28:242,1,99.0000030212403,2|0,0:0|0:0,0:0:0:0:
48,52,120349,1,8,0:0:0:0:
184,144,120521,1,0,0:0:0:0:
232,150,120607,1,0,0:0:0:0:
276,128,120693,1,0,0:0:0:0:
301,87,120779,1,0,0:0:0:0:
299,38,120865,1,2,0:0:0:0:
262,273,121039,5,8,0:0:0:0:
214,60,121211,1,2,0:0:0:0:
360,155,121384,5,8,0:0:0:0:
96,224,121556,1,2,0:0:0:0:
366,278,121728,5,8,0:0:0:0:
150,111,121901,1,2,0:0:0:0:
63,191,122073,5,8,0:0:0:0:
96,224,122159,1,8,0:0:0:0:
144,237,122245,1,8,0:0:0:0:
191,229,122331,1,8,0:0:0:0:
231,198,122418,1,8,0:0:0:0:
265,163,122504,1,8,0:0:0:0:
311,146,122590,1,8,0:0:0:0:
360,155,122676,1,8,0:0:0:0:
399,183,122763,6,0,P|434:189|474:179,1,67.5,8|0,0:0|0:0,0:0:0:0:
441,60,123108,6,0,L|434:120,1,49.5000015106202,14|0,0:0|0:0,0:0:0:0:
446,289,123280,1,0,0:0:0:0:
425,333,123366,1,0,0:0:0:0:
384,359,123452,1,0,0:0:0:0:
335,358,123538,1,0,0:0:0:0:
295,330,123624,1,2,0:0:0:0:
191,229,123797,1,8,0:0:0:0:
315,47,123970,1,0,0:0:0:0:
315,47,124056,1,0,0:0:0:0:
315,47,124142,6,0,L|310:156,1,99.0000030212403,2|0,0:0|0:0,0:0:0:0:
360,269,124487,1,8,0:0:0:0:
191,229,124659,1,0,0:0:0:0:
191,229,124746,1,0,0:0:0:0:
191,229,124832,2,0,L|197:164,1,49.5000015106202
270,290,125004,1,2,0:0:0:0:
90,323,125177,2,0,L|87:219,1,99.0000030212403,8|0,0:0|0:0,0:0:0:0:
220,36,125521,5,8,0:0:0:0:
270,290,125694,1,8,0:0:0:0:
366,131,125866,1,8,0:0:0:0:
43,150,126039,6,0,B|129:147|129:147|153:130|153:130|247:130,1,198.000006042481,8|0,0:0|0:0,0:0:0:0:
301,81,126470,1,0,0:0:0:0:
301,81,126556,2,0,B|312:131|312:131|300:185,1,99.0000030212403,8|0,0:0|0:0,0:0:0:0:
142,343,126901,5,2,0:0:0:0:
270,290,127073,2,2,P|309:293|352:310,1,49.5000015106202
427,359,127246,2,0,P|410:323|403:277,1,49.5000015106202,2|0,0:0|0:0,0:0:0:0:
493,145,127418,1,2,0:0:0:0:
492,182,127504,1,2,0:0:0:0:
491,219,127590,1,2,0:0:0:0:
490,256,127676,1,2,0:0:0:0:
490,294,127762,1,2,0:0:0:0:
301,81,127935,1,8,0:0:0:0:
409,189,128108,6,0,P|386:221|350:250,1,49.5000015106202,2|0,0:0|0:0,0:0:0:0:
142,343,128280,1,2,0:0:0:0:
220,158,128452,1,2,0:0:0:0:
336,358,128625,1,8,0:0:0:0:
221,257,128797,5,2,0:0:0:0:
172,250,128883,1,0,0:0:0:0:
123,243,128969,1,2,0:0:0:0:
231,359,129142,1,2,0:0:0:0:
211,120,129315,1,8,0:0:0:0:
402,287,129487,5,2,0:0:0:0:
405,237,129573,1,0,0:0:0:0:
409,189,129659,1,2,0:0:0:0:
271,264,129832,1,2,0:0:0:0:
251,44,130004,1,8,0:0:0:0:
413,141,130177,6,0,L|356:133,1,49.5000015106202,2|0,0:0|0:0,0:0:0:0:
145,170,130349,1,2,0:0:0:0:
231,359,130521,1,2,0:0:0:0:
272,177,130694,1,8,0:0:0:0:
55,294,130866,5,2,0:0:0:0:
104,289,130952,1,0,0:0:0:0:
153,284,131038,1,2,0:0:0:0:
271,264,131211,1,2,0:0:0:0:
165,82,131384,1,8,0:0:0:0:
416,42,131556,5,2,0:0:0:0:
414,91,131642,1,0,0:0:0:0:
412,140,131728,1,8,0:0:0:0:
165,82,131901,5,2,0:0:0:0:
347,302,132073,1,8,0:0:0:0:
157,383,132246,5,2,0:0:0:0:
155,333,132332,1,2,0:0:0:0:
153,284,132418,6,0,P|163:212|201:164,1,125.999996154785,2|0,0:0|0:0,0:0:0:0:
271,264,132935,1,0,0:0:0:0:
271,264,133021,1,0,0:0:0:0:
271,264,133108,2,0,L|278:217,1,31.4999990386963,2|0,0:0|0:0,0:0:0:0:
302,93,133280,2,0,L|306:124,1,31.4999990386963,2|0,0:0|0:0,0:0:0:0:
389,307,133452,2,0,L|398:245,1,31.4999990386963,2|0,0:0|0:0,0:0:0:0:
437,84,133624,2,0,L|443:124,1,31.4999990386963,2|0,0:0|0:0,0:0:0:0:
490,200,133797,6,0,B|436:201|436:201|399:179|399:179|359:199|359:199|332:190|332:190|281:192,1,198.000006042481,4|8,0:0|0:0,0:0:0:0:
195,69,134315,2,0,L|188:135,1,49.5000015106202
189,321,134487,2,0,L|184:204,1,99.0000030212403,8|0,0:0|0:0,0:0:0:0:
184,222,134746,1,0,0:0:0:0:
184,222,134832,1,8,0:0:0:0:
305,275,135004,6,0,B|362:255|415:285|415:285|369:322,1,148.50000453186,2|0,0:0|0:0,0:0:0:0:
233,342,135349,2,0,P|206:326|169:319,1,49.5000015106202,2|0,0:0|0:0,0:0:0:0:
14,262,135521,2,0,B|63:254|63:254|126:265,1,99.0000030212403,8|0,0:0|0:0,0:0:0:0:
184,222,135780,1,0,0:0:0:0:
184,222,135866,6,2,P|216:217|246:217,1,49.5000015106202
399,186,136039,2,2,P|374:184|349:180,1,49.5000015106202
191,118,136211,6,2,P|223:113|253:113,1,49.5000015106202
406,82,136384,2,2,P|381:80|356:76,1,49.5000015106202
212,35,136556,6,0,L|99:45,1,99.0000030212403,2|0,0:0|0:0,0:0:0:0:
36,157,136901,1,8,0:0:0:0:
96,262,137073,1,2,0:0:0:0:
96,262,137159,1,0,0:0:0:0:
96,262,137246,2,0,L|113:316,1,49.5000015106202,8|0,0:0|0:0,0:0:0:0:
237,244,137418,6,0,L|245:194,1,49.5000015106202,2|0,0:0|0:0,0:0:0:0:
406,84,137590,2,0,L|399:158,1,49.5000015106202,8|0,0:0|0:0,0:0:0:0:
350,321,137763,6,0,L|342:201,1,99.0000030212403,2|0,0:0|0:0,0:0:0:0:
330,42,138108,1,2,0:0:0:0:
228,160,138280,2,0,P|168:132|242:140,1,198.000006042481,8|0,0:0|0:0,0:0:0:0:
237,244,138797,5,2,0:0:0:0:
179,244,138883,1,2,0:0:0:0:
129,217,138969,1,2,0:0:0:0:
97,170,139055,1,2,0:0:0:0:
92,113,139141,1,2,0:0:0:0:
114,60,139228,1,2,0:0:0:0:
159,25,139315,6,0,L|228:28,1,49.5000015106202,2|0,0:0|0:0,0:0:0:0:
330,42,139487,1,2,0:0:0:0:
208,135,139659,6,0,B|289:134|289:134|311:156|311:156|415:153,1,198.000006042481,4|8,0:0|0:0,0:0:0:0:
470,305,140177,2,0,L|412:300,1,49.5000015106202,2|0,0:0|0:0,0:0:0:0:
348,235,140349,2,0,L|298:239,1,49.5000015106202,2|0,0:0|0:0,0:0:0:0:
258,321,140521,6,0,L|160:314,1,99.0000030212403,2|0,0:0|0:0,0:0:0:0:
48,304,140866,1,2,0:0:0:0:
82,110,141039,1,8,0:0:0:0:
112,225,141211,1,0,0:0:0:0:
112,225,141297,1,0,0:0:0:0:
112,225,141384,2,0,L|222:220,1,99.0000030212403,10|0,0:0|0:0,0:0:0:0:
268,165,141642,1,0,0:0:0:0:
268,165,141728,2,0,P|264:126|256:98,1,49.5000015106202,2|0,0:0|0:0,0:0:0:0:
172,18,141901,2,0,P|167:42|165:66,1,49.5000015106202,2|0,0:0|0:0,0:0:0:0:
326,50,142073,6,0,B|374:38|404:46|404:46|399:76|380:83,1,99.0000030212403,2|0,0:0|0:0,0:0:0:0:
351,140,142332,1,0,0:0:0:0:
351,140,142418,2,0,P|352:179|357:205,1,49.5000015106202,2|0,0:0|0:0,0:0:0:0:
286,347,142590,1,0,0:0:0:0:
237,346,142676,1,0,0:0:0:0:
198,317,142762,1,8,0:0:0:0:
186,270,142848,1,0,0:0:0:0:
205,225,142934,5,2,0:0:0:0:
352,308,143108,1,8,0:0:0:0:
351,140,143280,6,0,L|190:132,1,148.50000453186,2|0,0:0|0:0,0:0:0:0:
124,95,143625,2,0,P|119:129|122:171,1,49.5000015106202,2|0,0:0|0:0,0:0:0:0:
255,50,143797,2,0,L|363:48,1,99.0000030212403,8|0,0:0|0:0,0:0:0:0:
464,207,144142,6,8,P|428:195|393:193,1,49.5000015106202
248,138,144315,6,8,P|255:174|270:205,1,49.5000015106202
296,359,144487,6,8,P|323:334|343:305,1,49.5000015106202
351,140,144659,5,8,0:0:0:0:
262,290,144832,6,0,B|183:285|183:285|146:309|146:309|70:304,1,198.000006042481,6|8,0:0|0:0,0:0:0:0:
76,60,145349,1,0,0:0:0:0:
116,88,145435,1,0,0:0:0:0:
138,132,145521,1,0,0:0:0:0:
137,181,145607,1,0,0:0:0:0:
114,224,145693,1,2,0:0:0:0:
32,159,145866,1,8,0:0:0:0:
69,330,146039,1,0,0:0:0:0:
262,290,146211,6,0,B|283:228|262:171|262:171|230:206,1,148.50000453186,2|0,0:0|0:0,0:0:0:0:
145,247,146556,2,0,L|197:241,1,49.5000015106202,8|0,0:0|0:0,0:0:0:0:
353,228,146728,1,0,0:0:0:0:
390,197,146814,1,0,0:0:0:0:
405,150,146900,1,0,0:0:0:0:
391,103,146986,1,0,0:0:0:0:
353,72,147073,1,2,0:0:0:0:
234,152,147246,2,0,P|193:155|132:134,1,99.0000030212403,8|0,0:0|0:0,0:0:0:0:
262,290,147590,6,0,P|312:334|404:321,1,148.50000453186,2|0,0:0|0:0,0:0:0:0:
463,295,147935,1,8,0:0:0:0:
353,228,148108,2,0,L|353:169,1,49.5000015106202
480,96,148280,2,0,L|476:145,1,49.5000015106202
353,72,148452,1,2,0:0:0:0:
432,213,148625,1,8,0:0:0:0:
271,193,148797,1,0,0:0:0:0:
309,360,148970,6,0,P|232:366|184:268,1,198.000006042481,2|8,0:0|0:0,0:0:0:0:
142,45,149487,1,0,0:0:0:0:
95,61,149573,1,0,0:0:0:0:
67,100,149659,1,0,0:0:0:0:
63,149,149745,1,0,0:0:0:0:
87,191,149832,2,0,P|117:194|151:195,1,49.5000015106202,2|0,0:0|0:0,0:0:0:0:
299,152,150004,2,0,P|280:176|262:205,1,49.5000015106202,8|0,0:0|0:0,0:0:0:0:
228,355,150177,2,0,P|215:326|199:296,1,49.5000015106202,2|0,0:0|0:0,0:0:0:0:
145,123,150349,5,2,0:0:0:0:
87,341,150521,1,0,0:0:0:0:
305,282,150694,1,8,0:0:0:0:
151,229,150866,5,0,0:0:0:0:
151,229,150952,1,0,0:0:0:0:
151,229,151039,2,0,P|121:225|91:213,1,49.5000015106202
218,64,151211,2,0,P|222:102|219:131,1,49.5000015106202,2|0,0:0|0:0,0:0:0:0:
228,355,151384,1,8,0:0:0:0:
371,220,151556,5,0,0:0:0:0:
371,220,151642,1,0,0:0:0:0:
371,220,151728,2,0,P|433:209|458:128,1,148.50000453186,2|0,0:0|0:0,0:0:0:0:
436,56,152073,1,8,0:0:0:0:
279,122,152246,1,0,0:0:0:0:
236,145,152332,1,0,0:0:0:0:
187,141,152418,1,0,0:0:0:0:
149,111,152504,1,0,0:0:0:0:
134,64,152590,1,2,0:0:0:0:
277,218,152763,2,0,P|285:273|269:324,1,99.0000030212403,8|0,0:0|0:0,0:0:0:0:
19,247,153108,6,0,B|102:245|102:245|142:267|142:267|214:266,1,198.000006042481,2|8,0:0|0:0,0:0:0:0:
371,220,153625,1,0,0:0:0:0:
371,220,153711,1,0,0:0:0:0:
371,220,153797,1,0,0:0:0:0:
416,335,153970,1,2,0:0:0:0:
241,192,154142,1,8,0:0:0:0:
452,112,154315,1,0,0:0:0:0:
371,220,154487,5,10,0:0:0:0:
325,200,154573,1,10,0:0:0:0:
276,201,154659,1,10,0:0:0:0:
232,223,154745,1,10,0:0:0:0:
159,296,154832,5,10,0:0:0:0:
112,313,154918,1,10,0:0:0:0:
64,309,155004,1,10,0:0:0:0:
21,285,155090,1,10,0:0:0:0:
96,218,155177,6,0,B|156:124|65:140|108:28|108:28|80:31|55:66,1,242.999992584229,10|0,0:0|0:0,0:0:0:0:
214,80,155866,5,2,1:3:0:0:
447,303,166901,6,0,P|398:275|303:291,1,144,2|0,0:0|0:0,0:0:0:0:
248,333,167418,1,0,0:0:0:0:
210,174,167590,2,0,L|206:262,1,72,2|0,0:0|0:0,0:0:0:0:
315,191,167935,2,0,L|307:120,1,72
188,27,168280,6,0,P|131:31|92:106,1,144,2|0,0:0|0:0,0:0:0:0:
210,174,168797,1,2,0:0:0:0:
50,187,168970,1,2,0:0:0:0:
167,106,169142,1,2,0:0:0:0:
136,288,169315,1,2,0:0:0:0:
50,187,169487,1,2,0:0:0:0:
217,257,169659,6,0,B|264:263|286:243|286:243|313:265|368:261,1,144,2|0,0:0|0:0,0:0:0:0:
454,160,170177,1,0,0:0:0:0:
346,183,170349,2,0,L|344:94,1,72,2|0,0:0|0:0,0:0:0:0:
454,160,170694,6,0,L|446:319,1,144,2|0,0:0|0:0,0:0:0:0:
446,303,171211,1,0,0:0:0:0:
283,266,171384,5,2,0:0:0:0:
346,183,171556,1,2,0:0:0:0:
330,357,171728,5,2,0:0:0:0:
187,256,171901,1,2,0:0:0:0:
283,100,172073,5,2,0:0:0:0:
283,266,172246,1,2,0:0:0:0:
346,183,172418,6,0,B|257:154|272:218|195:169,1,144,2|0,0:0|0:0,0:0:0:0:
138,119,172935,1,0,0:0:0:0:
84,189,173108,2,0,L|88:267,1,72,2|0,0:0|0:0,0:0:0:0:
183,327,173452,2,0,L|186:255,1,72
282,330,173797,6,0,P|332:348|408:296,1,144
428,217,174315,1,2,0:0:0:0:
278,181,174487,1,2,0:0:0:0:
337,268,174659,1,2,0:0:0:0:
377,109,174832,2,0,L|294:98,1,72,2|0,0:0|0:0,0:0:0:0:
43,166,175177,6,0,B|92:142|92:142|184:161,1,144,2|0,0:0|0:0,0:0:0:0:
278,181,175694,1,0,0:0:0:0:
175,239,175866,2,0,L|94:223,1,72
83,63,176211,2,0,L|164:79,1,72
278,181,176556,6,0,L|292:148,3,36,2|0|0|0,0:0|0:0|0:0|0:0,0:0:0:0:
291,267,176901,6,0,L|312:296,1,36,2|0,0:0|0:0,0:0:0:0:
210,235,177073,2,0,L|175:239,1,36,2|0,0:0|0:0,0:0:0:0:
35,229,177246,1,2,0:0:0:0:
6,184,177332,1,2,0:0:0:0:
5,131,177418,1,2,0:0:0:0:
33,85,177504,1,2,0:0:0:0:
82,62,177590,1,2,0:0:0:0:
136,61,177676,1,2,0:0:0:0:
189,59,177762,1,2,0:0:0:0:
243,57,177848,1,2,0:0:0:0:
297,55,177935,6,0,B|303:105|303:105|294:161,1,90,6|0,0:0|0:0,0:0:0:0:
210,235,178280,1,8,0:0:0:0:
374,232,178452,1,0,0:0:0:0:
374,232,178539,1,0,0:0:0:0:
374,232,178625,2,0,L|314:224,1,45
212,136,178797,1,2,0:0:0:0:
216,351,178970,1,8,0:0:0:0:
47,286,179142,5,0,0:0:0:0:
47,286,179228,1,0,0:0:0:0:
47,286,179315,2,0,P|38:242|49:191,1,90,2|0,0:0|0:0,0:0:0:0:
212,136,179659,1,8,0:0:0:0:
38,56,179832,1,0,0:0:0:0:
71,52,179918,1,0,0:0:0:0:
104,50,180004,1,0,0:0:0:0:
138,48,180090,1,0,0:0:0:0:
171,45,180176,1,2,0:0:0:0:
140,238,180349,1,8,0:0:0:0:
212,136,180521,5,0,0:0:0:0:
212,136,180608,1,0,0:0:0:0:
212,136,180694,2,0,B|273:131|273:131|316:155|316:155|387:151,1,180,2|8,0:0|0:0,0:0:0:0:
247,290,181211,1,0,0:0:0:0:
248,260,181297,1,0,0:0:0:0:
249,230,181383,1,0,0:0:0:0:
337,354,181556,1,2,0:0:0:0:
140,238,181728,1,8,0:0:0:0:
338,125,181901,5,0,0:0:0:0:
338,125,181987,1,0,0:0:0:0:
338,125,182073,1,2,0:0:0:0:
247,290,182246,1,0,0:0:0:0:
207,54,182418,1,8,0:0:0:0:
314,207,182590,1,0,0:0:0:0:
358,208,182676,1,0,0:0:0:0:
397,186,182762,1,0,0:0:0:0:
418,148,182848,1,0,0:0:0:0:
416,103,182935,5,2,0:0:0:0:
354,342,183108,1,8,0:0:0:0:
253,136,183280,1,0,0:0:0:0:
180,344,183452,6,0,P|168:304|180:242,1,90,2|0,0:0|0:0,0:0:0:0:
314,207,183797,1,8,0:0:0:0:
141,164,183969,1,0,0:0:0:0:
141,164,184055,1,0,0:0:0:0:
141,164,184142,1,0,0:0:0:0:
253,136,184315,1,2,0:0:0:0:
84,84,184487,1,8,0:0:0:0:
103,300,184659,1,0,0:0:0:0:
103,300,184746,1,0,0:0:0:0:
103,300,184832,6,0,L|203:292,1,90,2|0,0:0|0:0,0:0:0:0:
314,207,185177,1,8,0:0:0:0:
422,321,185349,1,0,0:0:0:0:
423,287,185435,1,0,0:0:0:0:
424,253,185521,1,0,0:0:0:0:
426,219,185607,1,0,0:0:0:0:
427,186,185693,1,2,0:0:0:0:
351,44,185866,1,8,0:0:0:0:
187,106,186039,2,0,L|243:101,1,45
314,207,186211,6,0,L|222:204,1,90,2|0,0:0|0:0,0:0:0:0:
45,122,186556,1,8,0:0:0:0:
127,241,186728,1,0,0:0:0:0:
127,241,186815,1,0,0:0:0:0:
127,241,186901,2,0,P|126:218|128:197,1,45
187,106,187073,1,2,0:0:0:0:
209,310,187246,1,8,0:0:0:0:
21,227,187418,1,0,0:0:0:0:
127,43,187590,5,10,0:0:0:0:
166,21,187676,1,10,0:0:0:0:
210,22,187762,1,10,0:0:0:0:
248,46,187848,1,10,0:0:0:0:
269,85,187935,6,0,P|272:119|270:144,1,45,10|0,0:0|0:0,0:0:0:0:
127,241,188108,2,0,P|129:218|133:196,1,45,10|0,0:0|0:0,0:0:0:0:
251,324,188280,6,0,P|227:317|194:302,1,45,10|0,0:0|0:0,0:0:0:0:
358,189,188452,2,0,P|375:203|390:219,1,45,10|0,0:0|0:0,0:0:0:0:
208,218,188625,6,0,P|206:182|214:156,1,45,10|0,0:0|0:0,0:0:0:0:
359,309,188797,2,0,P|360:331|357:353,1,45,10|0,0:0|0:0,0:0:0:0:
62,296,188970,6,0,B|126:295|126:295|178:327|178:327|250:323,1,198.000006042481,14|8,0:0|0:0,0:0:0:0:
418,247,189487,1,0,0:0:0:0:
440,203,189573,1,0,0:0:0:0:
435,155,189659,1,0,0:0:0:0:
405,117,189745,1,0,0:0:0:0:
358,102,189832,1,2,0:0:0:0:
208,218,190004,1,8,0:0:0:0:
268,44,190177,2,0,L|271:108,1,49.5000015106202
254,283,190349,6,0,B|204:314|156:279|156:279|123:319|145:373,1,198.000006042481,2|8,0:0|0:0,0:0:0:0:
334,339,190866,1,0,0:0:0:0:
335,301,190952,1,0,0:0:0:0:
336,264,191038,1,0,0:0:0:0:
337,227,191124,1,0,0:0:0:0:
338,190,191210,1,2,0:0:0:0:
426,283,191384,1,8,0:0:0:0:
208,218,191556,1,0,0:0:0:0:
208,218,191642,1,0,0:0:0:0:
208,218,191728,6,0,L|95:223,1,99.0000030212403
252,80,192073,1,8,0:0:0:0:
338,190,192246,2,0,P|371:197|406:199,1,49.5000015106202
357,32,192418,2,0,P|341:62|330:95,1,49.5000015106202
481,117,192590,5,2,0:0:0:0:
252,80,192763,1,8,0:0:0:0:
426,283,192935,1,0,0:0:0:0:
426,283,193021,1,0,0:0:0:0:
426,283,193108,6,0,B|361:272|361:272|301:301|301:301|229:292,1,198.000006042481,2|8,0:0|0:0,0:0:0:0:
100,340,193625,1,0,0:0:0:0:
100,340,193711,1,0,0:0:0:0:
100,340,193797,2,0,P|91:304|94:252,1,49.5000015106202
123,146,193970,1,2,0:0:0:0:
243,209,194142,1,8,0:0:0:0:
21,164,194315,1,0,0:0:0:0:
272,232,194487,6,0,P|322:151|283:64,1,198.000006042481,2|8,0:0|0:0,0:0:0:0:
123,146,195004,1,0,0:0:0:0:
147,145,195090,1,0,0:0:0:0:
172,144,195176,1,0,0:0:0:0:
197,143,195262,1,0,0:0:0:0:
221,143,195348,1,2,0:0:0:0:
148,30,195521,1,8,0:0:0:0:
398,23,195694,1,0,0:0:0:0:
398,23,195780,1,0,0:0:0:0:
398,23,195866,6,0,L|391:142,1,99.0000030212403,2|0,0:0|0:0,0:0:0:0:
277,331,196211,2,0,L|271:232,1,99.0000030212403,8|0,0:0|0:0,0:0:0:0:
351,190,196470,1,0,0:0:0:0:
351,190,196556,2,0,P|356:218|353:257,1,49.5000015106202
221,143,196728,2,0,P|225:118|234:95,1,49.5000015106202,2|0,0:0|0:0,0:0:0:0:
194,275,196901,1,8,0:0:0:0:
93,132,197073,1,0,0:0:0:0:
313,118,197246,6,0,P|384:116|424:222,1,198.000006042481,2|8,0:0|0:0,0:0:0:0:
194,275,197763,1,0,0:0:0:0:
194,275,197849,1,0,0:0:0:0:
194,275,197935,1,0,0:0:0:0:
293,326,198108,1,2,0:0:0:0:
109,348,198280,1,8,0:0:0:0:
181,171,198452,1,0,0:0:0:0:
351,190,198625,5,8,0:0:0:0:
89,238,198797,1,2,0:0:0:0:
293,326,198970,5,8,0:0:0:0:
178,85,199142,1,2,0:0:0:0:
378,269,199315,5,8,0:0:0:0:
417,240,199401,1,8,0:0:0:0:
433,194,199487,1,8,0:0:0:0:
420,147,199573,1,8,0:0:0:0:
383,116,199659,2,0,B|372:96|372:96|363:66,1,49.5000015106202,8|0,0:0|0:0,0:0:0:0:
262,162,199832,2,0,B|259:184|259:184|249:214,1,49.5000015106202,8|0,0:0|0:0,0:0:0:0:
113,88,200004,6,0,B|148:77|177:84|177:84|164:107,1,80.9999975280763,2|0,0:0|0:0,0:0:0:0:
109,219,200349,6,0,L|114:170,1,49.5000015106202,14|0,0:0|0:0,0:0:0:0:
264,201,200521,1,0,0:0:0:0:
266,241,200607,1,0,0:0:0:0:
268,280,200693,1,0,0:0:0:0:
270,320,200779,1,0,0:0:0:0:
272,359,200866,1,2,0:0:0:0:
378,269,201039,1,8,0:0:0:0:
140,303,201211,2,0,L|204:312,1,49.5000015106202
378,269,201384,6,0,L|382:164,1,99.0000030212403,2|0,0:0|0:0,0:0:0:0:
387,29,201728,1,8,0:0:0:0:
291,125,201901,1,0,0:0:0:0:
254,120,201987,1,0,0:0:0:0:
220,133,202073,1,0,0:0:0:0:
195,159,202159,1,0,0:0:0:0:
185,195,202245,1,2,0:0:0:0:
291,360,202418,1,8,0:0:0:0:
264,201,202590,1,0,0:0:0:0:
140,303,202763,5,8,0:0:0:0:
378,269,202935,1,8,0:0:0:0:
115,325,203108,1,8,0:0:0:0:
400,284,203280,6,0,B|413:193|413:193|392:154|392:154|397:82,1,198.000006042481,2|0,0:0|0:0,0:0:0:0:
462,28,203711,1,0,0:0:0:0:
462,28,203797,2,0,P|411:6|360:13,1,99.0000030212403,8|0,0:0|0:0,0:0:0:0:
137,82,204142,5,2,0:0:0:0:
277,212,204315,1,2,0:0:0:0:
277,212,204401,1,2,0:0:0:0:
277,212,204487,2,2,L|271:153,1,49.5000015106202
440,255,204659,2,2,L|391:289,1,49.5000015106202
396,92,204832,2,2,L|450:116,1,49.5000015106202
367,185,205004,5,2,0:0:0:0:
299,33,205177,1,8,0:0:0:0:
169,178,205349,1,0,0:0:0:0:
169,178,205435,1,0,0:0:0:0:
169,178,205521,5,10,0:0:0:0:
241,301,205694,1,2,0:0:0:0:
213,84,205866,1,8,0:0:0:0:
71,218,206039,1,2,0:0:0:0:
203,56,206211,5,8,0:0:0:0:
156,273,206384,1,2,0:0:0:0:
314,114,206556,1,8,0:0:0:0:
169,178,206728,2,0,L|230:183,1,49.5000015106202,2|0,0:0|0:0,0:0:0:0:
354,249,206901,5,8,0:0:0:0:
213,84,207073,1,2,0:0:0:0:
225,348,207246,1,8,0:0:0:0:
380,168,207418,5,2,0:0:0:0:
419,196,207504,1,0,0:0:0:0:
437,241,207590,1,8,0:0:0:0:
427,289,207676,1,0,0:0:0:0:
393,324,207762,1,2,0:0:0:0:
275,210,207935,1,8,0:0:0:0:
117,349,208108,1,2,0:0:0:0:
117,349,208194,1,0,0:0:0:0:
117,349,208280,5,8,0:0:0:0:
102,206,208452,1,2,0:0:0:0:
308,304,208625,1,8,0:0:0:0:
185,169,208797,1,2,0:0:0:0:
183,136,208883,1,0,0:0:0:0:
181,103,208969,1,8,0:0:0:0:
422,154,209142,1,2,0:0:0:0:
259,12,209315,5,10,0:0:0:0:
262,61,209401,5,10,0:0:0:0:
266,110,209487,5,10,0:0:0:0:
270,160,209573,5,10,0:0:0:0:
274,209,209659,5,14,1:3:0:0:
274,209,211039,6,0,L|282:349,1,135.000005149842,2|0,0:0|0:0,0:0:0:0:
281,343,211728,6,0,P|232:331|185:333,1,67.5000025749208,2|0,0:0|0:0,0:0:0:0:
130,348,212073,2,0,P|65:341|22:273,1,135.000005149842
24,288,212763,6,0,L|34:207,1,67.5000025749208
94,170,213108,1,2,0:0:0:0:
172,188,213280,1,2,0:0:0:0:
206,260,213453,1,2,0:0:0:0:
254,321,213625,1,2,0:0:0:0:
334,320,213797,5,2,0:0:0:0:
334,320,214142,5,2,0:0:0:0:
334,320,214487,5,2,0:0:0:0:
383,257,214659,1,2,0:0:0:0:
353,184,214832,6,0,P|338:129|372:50,1,135.000005149842,2|0,0:0|0:0,0:0:0:0:
364,58,215349,1,0,0:0:0:0:
259,162,215521,5,2,0:0:0:0:
237,36,215694,1,2,0:0:0:0:
140,120,215866,1,2,0:0:0:0:
283,149,216039,5,2,0:0:0:0:
224,24,216211,1,2,0:0:0:0:
138,141,216384,1,2,0:0:0:0:
210,252,216556,6,0,L|357:247,2,135.000005149842,2|2|2,0:0|0:0|0:0,0:0:0:0:
210,252,217590,1,0,0:0:0:0:
150,171,217935,6,0,L|152:334,1,135.000005149842,2|0,0:0|0:0,0:0:0:0:
151,305,218452,1,2,0:0:0:0:
68,232,218625,5,2,0:0:0:0:
249,225,218797,1,2,0:0:0:0:
62,255,218970,5,2,0:0:0:0:
250,199,219142,1,2,0:0:0:0:
81,122,219315,6,0,B|137:130|137:130|222:111,1,135.000005149842,2|0,0:0|0:0,0:0:0:0:
213,112,220004,2,0,P|262:101|303:105,1,67.5000025749208
375,227,220349,2,0,P|340:190|323:152,1,67.5000025749208,2|0,0:0|0:0,0:0:0:0:
394,30,220694,6,0,P|379:77|355:111,1,67.5000025749208,2|0,0:0|0:0,0:0:0:0:
250,199,221039,5,2,0:0:0:0:
375,227,221211,1,2,0:0:0:0:
213,112,221384,1,2,0:0:0:0:
195,310,221556,1,2,0:0:0:0:
375,227,221728,5,2,0:0:0:0:
137,227,221901,1,2,0:0:0:0:
