osu file format v14

[General]
AudioFilename: audio.mp3
AudioLeadIn: 0
PreviewTime: 47305
Countdown: 0
SampleSet: Soft
StackLeniency: 0.7
Mode: 2
LetterboxInBreaks: 0
WidescreenStoryboard: 1

[Editor]
Bookmarks: 13769,27483,41197
DistanceSpacing: 1.2
BeatDivisor: 16
GridSize: 4
TimelineZoom: 4.199998

[Metadata]
Title:Stay Alive
TitleUnicode:Stay Alive
Artist:EMILIA (CV: Rie Takahashi)
ArtistUnicode:EMILIA (CV: Rie Takahashi)
Creator:Hareimu
Version:Platter
Source:Re:ゼロから始める異世界生活
Tags:zero kara hajimeru isekai seikatsu life in a different world from rezero re:zero tv size ed ending jusenkyo
BeatmapID:1181366
BeatmapSetID:558507

[Difficulty]
HPDrainRate:4
CircleSize:3
OverallDifficulty:8
ApproachRate:8
SliderMultiplier:1.6
SliderTickRate:2

[Events]
//Background and Video events
0,0,"BG.jpg",0,0
//Break Periods
//Storyboard Layer 0 (Background)
//Storyboard Layer 1 (Fail)
//Storyboard Layer 2 (Pass)
//Storyboard Layer 3 (Foreground)
//Storyboard Sound Samples

[TimingPoints]
55,857.142857142857,4,2,1,25,1,0
55,-50,4,2,1,25,0,0
13769,-50,4,2,1,50,0,0
41197,-50,4,2,1,25,0,0
44626,-83.3333333333333,4,2,1,25,0,0
47197,-66.6666666666667,4,2,1,25,0,0
48054,-50,4,2,1,75,0,1
75483,848.056537102474,4,2,1,50,1,0
75483,-50,4,2,1,50,0,0
78875,851.063829787234,4,2,1,50,1,0
78875,-50,4,2,1,50,0,0
82279,845.070422535211,4,2,1,50,1,0
82279,-50,4,2,1,50,0,0
85659,848.056537102474,4,2,1,50,1,0
85659,-50,4,2,1,50,0,0

[Colours]
Combo1 : 0,117,234
Combo2 : 165,165,218
Combo3 : 51,225,51
Combo4 : 234,106,234

[HitObjects]
256,192,55,6,0,L|96:192,1,160,2|0,0:3|0:0,0:0:0:0:
176,192,697,1,0,0:0:0:0:
384,192,912,6,0,L|464:192,1,80,0|0,0:0|0:0,0:0:0:0:
256,192,1340,2,0,L|176:192,1,80,2|0,0:3|0:0,0:0:0:0:
352,192,1769,6,0,L|432:192,2,80,0|0|0,0:0|0:0|0:0,0:0:0:0:
192,192,2412,2,0,L|144:192,1,40,0|0,0:0|0:0,0:0:0:0:
224,192,2626,6,0,L|384:192,1,160,0|0,0:0|0:0,0:0:0:0:
448,128,3162,1,0,0:0:0:0:
384,64,3269,1,0,0:0:0:0:
96,64,3483,6,0,L|256:64,1,160,2|0,0:3|0:0,0:0:0:0:
384,64,4126,1,0,0:0:0:0:
256,176,4340,2,0,L|176:176,1,80,0|0,0:3|0:0,0:0:0:0:
416,176,4769,2,0,L|336:176,1,80,2|0,0:3|0:0,0:0:0:0:
176,80,5197,6,0,L|256:80,1,80,0|0,0:0|0:0,0:0:0:0:
368,176,5626,2,0,L|208:176,1,160,0|0,0:0|0:0,0:0:0:0:
167,176,6162,1,0,0:0:0:0:
127,177,6269,1,0,0:0:0:0:
208,176,6483,1,0,0:0:0:0:
88,177,6697,1,0,0:0:0:0:
416,272,6912,6,0,L|256:272,1,160,2|0,0:3|0:0,0:0:0:0:
368,192,7555,1,0,0:0:0:0:
176,192,7769,2,0,L|96:192,1,80,0|0,0:0|0:0,0:0:0:0:
336,192,8197,2,0,L|416:192,1,80,2|0,0:3|0:0,0:0:0:0:
256,192,8626,6,0,L|304:128,1,80,0|0,0:0|0:0,0:0:0:0:
384,224,9055,2,0,L|336:288,1,80,0|0,0:0|0:0,0:0:0:0:
128,96,9483,2,0,L|208:96,1,80,0|0,0:0|0:0,0:0:0:0:
368,192,9912,1,0,0:0:0:0:
400,192,10019,1,0,0:0:0:0:
432,192,10126,1,0,0:0:0:0:
144,96,10340,6,0,L|64:96,1,80,2|0,0:3|0:0,0:0:0:0:
224,192,10769,2,0,L|144:192,1,80,0|0,0:0|0:0,0:0:0:0:
288,192,11197,2,0,L|368:192,1,80,0|0,0:0|0:0,0:0:0:0:
176,112,11626,2,0,L|96:112,1,80,2|0,0:3|0:0,0:0:0:0:
256,112,12054,6,0,L|336:112,2,80,0|0|0,0:0|0:0|0:0,0:0:0:0:
160,112,12697,1,0,0:0:0:0:
352,256,12912,1,2,0:3:0:0:
420,214,13126,1,2,0:3:0:0:
436,134,13340,1,2,0:3:0:0:
388,70,13555,1,2,0:3:0:0:
100,256,13769,6,0,P|52:192|84:128,1,160,6|2,0:0|0:0,0:0:0:0:
160,80,14412,1,8,0:0:0:0:
448,80,14626,1,10,0:0:0:0:
208,80,15055,5,8,0:0:0:0:
368,80,15269,2,0,P|416:144|368:192,1,160,10|8,0:0|0:0,0:0:0:0:
208,192,15912,2,0,L|128:192,1,80,2|0,0:0|0:0,0:0:0:0:
288,192,16340,1,4,0:0:0:0:
48,192,16769,2,0,L|112:144,1,80,4|0,0:0|0:0,0:0:0:0:
400,192,17197,6,0,P|464:160|464:80,1,160,6|2,0:0|0:2,0:0:0:0:
384,80,17840,1,0,0:0:0:0:
96,80,18055,1,10,0:0:0:0:
336,80,18483,5,8,0:0:0:0:
176,80,18697,2,0,L|96:80,2,80,10|0|8,0:0|0:0|0:0,0:0:0:0:
336,192,19340,2,0,P|368:144|304:80,1,160,2|8,0:0|0:0,0:0:0:0:
144,80,19983,2,0,L|61:79,2,80,8|8|8,0:0|0:0|0:0,0:0:0:0:
433,80,20626,6,0,P|433:144|353:176,1,160,6|2,0:0|0:2,0:0:0:0:
440,184,21269,1,0,0:0:0:0:
152,240,21483,2,0,P|88:192|120:128,1,160,10|8,0:0|0:0,0:0:0:0:
317,128,22126,6,0,L|397:128,2,80,10|0|8,0:0|0:0|0:0,0:0:0:0:
96,128,22769,1,10,0:0:0:0:
336,128,23197,2,0,L|244:266,1,160,4|4,0:0|0:0,0:0:0:0:
368,192,23840,1,0,0:0:0:0:
80,192,24055,6,0,P|80:160|176:96,1,160,6|2,0:0|0:2,0:0:0:0:
48,80,24697,1,0,0:0:0:0:
336,80,24912,1,10,0:0:0:0:
96,80,25340,5,8,0:0:0:0:
256,80,25555,2,0,L|384:176,1,160,10|8,0:0|0:0,0:0:0:0:
224,176,26197,2,0,L|144:176,1,80,10|2,0:0|0:0,0:0:0:0:
432,176,26626,6,0,L|352:176,1,80,8|4,0:0|0:3,0:0:0:0:
192,176,27055,2,0,L|112:176,1,80,8|4,0:2|0:3,0:0:0:0:
400,176,27483,6,0,L|416:256,1,80,4|2,0:0|0:0,0:0:0:0:
288,256,27912,1,2,0:1:0:0:
448,256,28126,1,2,0:0:0:0:
160,192,28340,2,0,P|160:224|256:288,1,160,8|2,0:0|0:1,0:0:0:0:
128,160,28983,6,0,L|48:160,1,80,2|2,0:0|0:1,0:0:0:0:
192,80,29412,1,2,0:0:0:0:
272,80,29626,2,0,L|192:80,1,80,2|2,0:1|0:0,0:0:0:0:
480,160,30055,2,0,L|320:160,1,160,8|10,0:0|0:1,0:0:0:0:
400,160,30697,1,0,0:0:0:0:
112,160,30912,6,0,L|72:230,1,80,6|2,0:0|0:0,0:0:0:0:
192,160,31340,2,0,L|112:160,1,80,2|2,0:1|0:0,0:0:0:0:
401,158,31769,2,0,P|461:197|434:269,1,160,8|2,0:0|0:1,0:0:0:0:
224,256,32412,6,0,L|288:208,1,80,2|2,0:0|0:1,0:0:0:0:
128,213,32840,2,0,L|64:165,2,80,2|2|2,0:0|0:1|0:0,0:0:0:0:
288,213,33483,2,0,L|240:149,1,80,8|2,0:0|0:0,0:0:0:0:
400,152,33912,2,0,L|432:226,1,80,8|2,0:0|0:0,0:0:0:0:
144,196,34340,6,0,L|64:196,2,80,6|2|2,0:0|0:0|0:1,0:0:0:0:
400,112,35197,2,0,L|480:112,1,80,8|2,0:0|0:0,0:0:0:0:
336,192,35626,1,2,0:1:0:0:
144,192,35840,5,2,0:0:0:0:
224,192,36055,1,2,0:1:0:0:
416,112,36269,2,0,L|336:112,2,80,2|2|2,0:0|0:1|0:0,0:0:0:0:
128,112,36912,6,0,L|208:112,1,80,8|0,0:0|0:0,0:0:0:0:
400,112,37340,1,10,0:1:0:0:
352,192,37555,1,0,0:0:0:0:
64,128,37769,6,0,L|144:128,1,80,6|2,0:0|0:0,0:0:0:0:
224,128,38197,2,0,L|144:128,1,80,2|2,0:1|0:0,0:0:0:0:
448,192,38626,2,0,P|448:128|368:96,1,160,8|2,0:0|0:1,0:0:0:0:
464,96,39269,1,2,0:0:0:0:
176,96,39483,6,0,P|96:96|64:160,1,160,6|2,0:0|0:0,0:0:0:0:
304,192,40340,2,0,L|384:192,1,80,8|2,0:0|0:0,0:0:0:0:
160,160,40769,2,0,L|112:96,1,80,8|4,0:3|0:3,0:0:0:0:
288,96,41197,6,0,P|368:96|288:224,1,320,2|0,0:3|0:0,0:0:0:0:
112,224,42483,1,0,0:0:0:0:
352,224,42912,6,0,P|400:160|288:112,1,240,2|0,0:3|0:0,0:0:0:0:
176,112,43769,2,0,L|336:112,1,160,0|0,0:0|0:0,0:0:0:0:
112,48,44626,6,0,P|32:176|256:320,1,479.999985351563,2|0,0:3|0:0,0:0:0:0:
384,320,47197,6,0,P|416:224|368:176,1,180.000006866455,0|0,0:0|0:0,0:0:0:0:
80,192,48054,2,0,P|48:144|112:80,1,160,14|2,1:2|0:1,0:0:0:0:
192,80,48697,1,2,0:0:0:0:
368,192,48912,2,0,L|208:192,1,160,8|2,0:0|0:1,0:0:0:0:
128,96,49555,1,0,0:0:0:0:
416,96,49769,6,0,P|464:112|416:176,1,160,6|2,0:0|0:1,0:0:0:0:
336,176,50412,1,8,0:1:0:0:
176,176,50626,2,0,L|336:176,1,160,10|2,0:0|0:1,0:0:0:0:
416,96,51269,1,0,0:0:0:0:
128,96,51483,6,0,P|48:144|64:192,1,160,6|8,0:0|0:1,0:0:0:0:
144,192,52126,1,2,0:1:0:0:
304,192,52340,2,0,L|352:128,1,80,8|0,0:0|0:0,0:0:0:0:
144,128,52769,2,0,L|64:128,1,80,8|0,0:1|0:0,0:0:0:0:
352,192,53197,6,0,P|400:256|352:272,1,160,6|10,0:0|0:1,0:0:0:0:
160,192,54055,2,0,L|240:192,1,80,12|0,0:1|0:0,0:0:0:0:
400,192,54483,2,0,L|448:128,1,80,10|0,0:1|0:0,0:0:0:0:
160,192,54912,6,0,P|96:160|64:80,1,160,6|10,0:0|0:1,0:0:0:0:
336,80,55769,2,0,L|176:80,1,160,10|10,0:0|0:1,0:0:0:0:
368,192,56626,1,6,0:2:0:0:
96,80,57055,1,10,0:1:0:0:
400,192,57483,2,0,P|464:160|464:80,1,160,10|10,0:0|0:1,0:0:0:0:
336,80,58126,1,0,0:0:0:0:
32,80,58340,6,0,L|112:80,1,80,6|0,0:0|0:0,0:0:0:0:
320,80,58769,2,0,L|400:80,1,80,10|0,0:1|0:0,0:0:0:0:
112,112,59197,2,0,P|112:192|176:224,1,160,10|10,0:0|0:1,0:0:0:0:
64,272,59840,1,0,0:0:0:0:
352,192,60055,6,0,L|432:192,1,80,6|0,0:0|0:0,0:0:0:0:
272,192,60483,2,0,L|176:272,1,120,0|2,0:0|0:0,0:0:0:0:
119,115,60912,2,0,L|199:115,1,80,8|2,0:0|0:0,0:0:0:0:
359,115,61340,1,4,0:3:0:0:
423,115,61447,1,0,0:0:0:0:
463,114,61555,1,2,0:0:0:0:
175,196,61769,6,0,P|95:196|63:132,1,160,4|2,0:0|0:1,0:0:0:0:
176,96,62412,1,2,0:0:0:0:
384,96,62626,2,0,P|437:145|383:195,1,160,10|2,0:0|0:1,0:0:0:0:
306,191,63269,1,2,0:0:0:0:
96,192,63483,5,2,0:1:0:0:
208,192,63697,1,2,0:0:0:0:
416,288,63912,2,0,L|336:288,1,80,10|0,0:1|0:0,0:0:0:0:
128,192,64340,2,0,P|56:151|83:95,1,160,14|2,0:1|0:1,0:0:0:0:
176,112,64983,1,8,0:1:0:0:
464,112,65197,6,0,P|480:192|416:224,1,160,6|2,0:0|0:1,0:0:0:0:
336,224,65840,1,2,0:0:0:0:
48,224,66055,2,0,L|208:224,1,160,10|2,0:0|0:1,0:0:0:0:
288,224,66697,1,2,0:0:0:0:
448,144,66912,5,2,0:1:0:0:
288,144,67126,2,0,L|368:144,1,80,2|10,0:0|0:1,0:0:0:0:
64,192,67769,1,14,0:1:0:0:
144,192,67983,1,2,0:0:0:0:
263,192,68197,1,14,0:1:0:0:
144,192,68412,1,12,0:1:0:0:
432,192,68626,5,6,0:0:0:0:
304,192,69055,1,2,0:0:0:0:
64,192,69483,1,8,0:2:0:0:
208,192,69912,1,2,0:0:0:0:
400,80,70340,5,6,0:0:0:0:
112,80,70769,1,2,0:0:0:0:
448,192,71197,2,0,L|368:192,1,80,10|0,0:0|0:0,0:0:0:0:
160,192,71626,2,0,L|80:192,1,80,10|2,0:0|0:0,0:0:0:0:
368,192,72055,6,0,P|448:160|448:96,1,160,6|2,0:0|0:0,0:0:0:0:
176,96,72912,2,0,L|336:96,1,160,10|2,0:0|0:0,0:0:0:0:
416,96,73555,1,0,0:0:0:0:
128,192,73769,6,0,L|96:112,1,80,12|2,0:0|0:0,0:0:0:0:
256,112,74197,2,0,L|336:112,1,80,4|2,0:3|0:0,0:0:0:0:
128,112,74626,1,8,0:0:0:0:
64,112,74769,1,8,0:0:0:0:
128,112,74912,1,8,0:3:0:0:
272,112,75055,1,4,0:3:0:0:
368,112,75197,1,2,0:0:0:0:
416,112,75340,1,2,0:0:0:0:
176,192,75483,6,0,P|128:176|80:80,1,160,6|2,0:0|0:0,0:0:0:0:
176,80,76119,1,0,0:0:0:0:
464,80,76331,1,10,0:0:0:0:
352,272,76755,1,8,0:0:0:0:
160,272,76967,1,10,0:0:0:0:
448,192,77391,5,8,0:0:0:0:
256,192,77603,2,0,L|176:192,1,80,10|0,0:0|0:0,0:0:0:0:
256,96,78027,2,0,L|416:96,1,160,2|2,0:1|0:1,0:0:0:0:
96,96,78875,6,0,P|35:135|70:202,1,160,6|2,0:0|0:0,0:0:0:0:
144,192,79513,1,0,0:0:0:0:
432,192,79726,1,10,0:0:0:0:
256,96,80151,1,8,0:0:0:0:
64,96,80364,1,10,0:0:0:0:
256,96,80789,5,8,0:0:0:0:
448,96,81002,1,10,0:0:0:0:
384,192,81215,1,0,0:0:0:0:
176,96,81428,1,8,0:0:0:0:
112,192,81640,1,0,0:0:0:0:
272,192,81853,1,10,0:0:0:0:
112,192,82066,1,10,0:0:0:0:
402,197,82279,6,0,P|459:151|430:80,1,160,6|2,0:0|0:2,0:0:0:0:
354,78,82912,1,0,0:0:0:0:
64,192,83124,2,0,L|144:192,1,80,10|0,0:0|0:0,0:0:0:0:
303,192,83546,1,8,0:0:0:0:
144,192,83757,1,10,0:0:0:0:
336,96,84180,1,8,0:0:0:0:
240,97,84391,1,10,0:0:0:0:
159,97,84602,1,2,0:3:0:0:
448,192,84814,2,0,L|368:192,1,80,2|0,0:1|0:0,0:0:0:0:
224,192,85236,1,2,0:1:0:0:
464,96,85659,6,0,P|400:192|368:192,1,160,6|2,0:0|0:0,0:0:0:0:
464,96,86295,1,0,0:0:0:0:
176,80,86507,2,0,L|96:80,1,80,10|0,0:0|0:0,0:0:0:0:
176,80,86931,1,8,0:0:0:0:
352,192,87143,5,10,0:0:0:0:
128,192,87567,1,8,0:0:0:0:
304,272,87779,1,10,0:0:0:0:
400,272,87991,1,2,0:0:0:0:
112,128,88203,5,10,0:0:0:0:
192,128,88415,2,0,L|112:128,1,80,10|10,0:0|0:0,0:0:0:0:
400,128,88839,1,6,0:0:0:0:
