osu file format v14

[General]
AudioFilename: audio.mp3
AudioLeadIn: 0
PreviewTime: 47305
Countdown: 0
SampleSet: Soft
StackLeniency: 0.7
Mode: 2
LetterboxInBreaks: 0
WidescreenStoryboard: 0

[Editor]
Bookmarks: 13769,27483,41197,61769
DistanceSpacing: 1
BeatDivisor: 12
GridSize: 16
TimelineZoom: 4.199998

[Metadata]
Title:Stay Alive
TitleUnicode:Stay Alive
Artist:EMILIA (CV: Rie Takahashi)
ArtistUnicode:EMILIA (CV: Rie Takahashi)
Creator:Hareimu
Version:Alive
Source:Re:ゼロから始める異世界生活
Tags:zero kara hajimeru isekai seikatsu life in a different world from rezero re:zero tv size ed ending jusenkyo
BeatmapID:1181367
BeatmapSetID:558507

[Difficulty]
HPDrainRate:5
CircleSize:4
OverallDifficulty:8.8
ApproachRate:8.8
SliderMultiplier:1.92
SliderTickRate:2

[Events]
//Background and Video events
0,0,"BG.jpg",0,0
//Break Periods
//Storyboard Layer 0 (Background)
//Storyboard Layer 1 (Fail)
//Storyboard Layer 2 (Pass)
//Storyboard Layer 3 (Foreground)
//Storyboard Sound Samples

[TimingPoints]
55,857.142857142857,4,2,1,25,1,0
55,-50,4,2,1,25,0,0
13769,-50,4,2,1,50,0,0
41197,-50,4,2,1,25,0,0
44626,-83.3333333333333,4,2,1,25,0,0
47197,-66.6666666666667,4,2,1,25,0,0
48054,-50,4,2,1,75,0,1
75483,848.056537102474,4,2,1,50,1,0
75483,-50,4,2,1,50,0,0
78875,851.063829787234,4,2,1,50,1,0
78875,-50,4,2,1,50,0,0
82279,845.070422535211,4,2,1,50,1,0
82279,-50,4,2,1,50,0,0
85659,848.056537102474,4,2,1,50,1,0
85659,-50,4,2,1,50,0,0

[Colours]
Combo1 : 0,117,234
Combo2 : 165,165,218
Combo3 : 51,225,51
Combo4 : 234,106,234

[HitObjects]
112,192,55,5,2,0:3:0:0:
256,192,269,1,0,0:0:0:0:
304,192,376,1,0,0:0:0:0:
208,80,483,2,0,L|112:80,1,96
288,144,912,5,0,0:0:0:0:
368,144,1019,1,0,0:0:0:0:
400,240,1126,1,0,0:0:0:0:
176,224,1340,1,2,0:3:0:0:
96,224,1447,1,0,0:0:0:0:
64,128,1555,1,0,0:0:0:0:
240,128,1769,6,0,L|288:128,2,48
160,128,2197,1,0,0:0:0:0:
352,128,2412,1,0,0:0:0:0:
256,128,2519,1,0,0:0:0:0:
160,128,2626,5,0,0:0:0:0:
128,160,2680,1,0,0:0:0:0:
112,208,2733,1,0,0:0:0:0:
112,256,2787,1,0,0:0:0:0:
128,208,2840,1,0,0:0:0:0:
160,176,2894,1,0,0:0:0:0:
208,176,2947,1,0,0:0:0:0:
272,176,3001,1,0,0:0:0:0:
336,272,3055,5,0,0:0:0:0:
400,272,3162,1,0,0:0:0:0:
432,176,3269,1,0,0:0:0:0:
416,80,3376,1,0,0:0:0:0:
160,176,3483,6,0,L|64:176,1,96,2|0,0:3|0:0,0:0:0:0:
208,64,3912,2,0,P|192:112|160:144,1,96
352,64,4340,1,0,0:3:0:0:
416,112,4447,1,0,0:0:0:0:
416,208,4555,1,0,0:0:0:0:
352,272,4662,1,0,0:0:0:0:
112,192,4769,6,0,P|48:224|112:288,1,192,2|0,0:3|0:0,0:0:0:0:
208,288,5412,1,0,0:0:0:0:
368,144,5626,5,0,0:0:0:0:
400,176,5680,1,0,0:0:0:0:
416,224,5733,1,0,0:0:0:0:
416,272,5787,1,0,0:0:0:0:
400,224,5840,1,0,0:0:0:0:
368,192,5894,1,0,0:0:0:0:
320,192,5947,1,0,0:0:0:0:
256,192,6001,1,0,0:0:0:0:
192,288,6055,5,0,0:0:0:0:
128,192,6162,1,0,0:0:0:0:
112,80,6269,1,0,0:0:0:0:
128,192,6376,1,0,0:0:0:0:
192,192,6483,1,0,0:0:0:0:
384,192,6697,1,0,0:0:0:0:
64,128,6912,6,0,L|160:128,1,96,2|0,0:3|0:0,0:0:0:0:
352,144,7340,2,0,L|400:144,1,48
400,240,7555,2,0,L|352:240,1,48
256,192,7769,5,0,0:0:0:0:
192,192,7876,1,0,0:0:0:0:
144,224,7983,1,0,0:0:0:0:
128,272,8090,1,0,0:0:0:0:
320,272,8197,1,2,0:3:0:0:
416,272,8411,1,0,0:0:0:0:
256,112,8626,5,0,0:0:0:0:
304,112,8733,1,0,0:0:0:0:
352,112,8840,1,0,0:0:0:0:
160,192,9054,2,0,P|128:160|112:112,1,96
304,288,9483,6,0,L|208:288,1,96
400,112,9912,5,0,0:0:0:0:
464,112,10019,1,0,0:0:0:0:
464,192,10127,1,0,0:0:0:0:
400,192,10234,1,0,0:0:0:0:
160,192,10340,5,2,0:3:0:0:
96,192,10447,1,0,0:0:0:0:
96,112,10555,1,0,0:0:0:0:
160,112,10662,1,0,0:0:0:0:
256,272,10769,2,0,L|352:272,1,96
160,112,11197,6,0,L|64:112,1,96
448,112,11626,2,0,P|433:157|400:191,1,96,2|0,0:3|0:0,0:0:0:0:
208,96,12054,1,0,0:0:0:0:
148,96,12162,1,0,0:0:0:0:
128,96,12269,1,0,0:0:0:0:
148,96,12376,1,0,0:0:0:0:
208,192,12483,2,0,L|112:192,1,96
160,192,12804,1,0,0:0:0:0:
400,144,12912,5,2,0:3:0:0:
464,144,13019,1,0,0:0:0:0:
464,192,13126,1,2,0:3:0:0:
400,192,13233,1,0,0:0:0:0:
192,112,13340,1,2,0:3:0:0:
128,112,13447,1,0,0:0:0:0:
80,144,13555,1,2,0:3:0:0:
64,208,13662,1,0,0:0:0:0:
304,144,13769,6,0,P|368:176|304:240,1,192,6|2,0:0|0:0,0:0:0:0:
256,240,14269,1,0,0:0:0:0:
208,240,14340,1,0,0:0:0:0:
160,240,14412,1,8,0:0:0:0:
448,256,14626,5,10,0:0:0:0:
160,256,15055,1,8,0:0:0:0:
352,128,15269,2,0,L|160:128,1,192,10|8,0:0|0:0,0:0:0:0:
352,128,15912,2,0,L|368:224,1,96,2|0,0:0|0:0,0:0:0:0:
80,224,16340,1,4,0:0:0:0:
352,224,16769,2,0,L|448:224,1,96,4|0,0:0|0:0,0:0:0:0:
160,144,17197,6,0,L|352:144,1,192,6|2,0:0|0:2,0:0:0:0:
384,160,17697,1,0,0:0:0:0:
400,192,17769,1,0,0:0:0:0:
400,224,17840,1,0,0:0:0:0:
384,256,17912,1,0,0:0:0:0:
336,272,17983,1,0,0:0:0:0:
128,272,18055,5,10,0:0:0:0:
368,128,18483,1,8,0:0:0:0:
192,128,18697,2,0,L|96:128,1,96,10|0,0:0|0:0,0:0:0:0:
304,128,19126,1,8,0:0:0:0:
96,128,19340,2,0,P|64:160|48:208,1,96,2|0,0:0|0:0,0:0:0:0:
352,224,19769,2,0,P|384:192|400:144,1,96,8|8,0:0|0:0,0:0:0:0:
256,144,20197,2,0,L|160:144,1,96,8|8,0:0|0:0,0:0:0:0:
448,224,20626,6,0,P|448:144|352:112,1,192,6|2,0:0|0:2,0:0:0:0:
400,112,21126,1,0,0:0:0:0:
416,144,21197,1,0,0:0:0:0:
416,176,21269,1,0,0:0:0:0:
400,208,21340,1,0,0:0:0:0:
352,208,21412,1,0,0:0:0:0:
160,208,21483,5,10,0:0:0:0:
400,208,21912,1,8,0:0:0:0:
208,208,22126,2,0,L|192:112,1,96,10|0,0:0|0:0,0:0:0:0:
384,112,22555,1,8,0:0:0:0:
192,112,22769,2,0,L|96:112,1,96,10|0,0:0|0:0,0:0:0:0:
400,208,23197,2,0,P|432:128|352:96,1,192,4|4,0:0|0:0,0:0:0:0:
448,96,23840,1,0,0:0:0:0:
160,48,24055,6,0,P|96:80|64:192,1,192,6|2,0:0|0:2,0:0:0:0:
64,224,24555,1,0,0:0:0:0:
80,256,24626,1,0,0:0:0:0:
112,272,24697,1,0,0:0:0:0:
160,272,24769,1,0,0:0:0:0:
224,272,24840,1,0,0:0:0:0:
416,272,24912,5,10,0:0:0:0:
128,272,25340,1,8,0:0:0:0:
320,272,25555,2,0,P|400:256|400:160,1,192,10|8,0:0|0:0,0:0:0:0:
256,192,26197,2,0,L|160:192,1,96,10|2,0:0|0:0,0:0:0:0:
128,192,26483,1,0,0:0:0:0:
160,128,26555,1,0,0:0:0:0:
352,192,26626,6,0,L|448:192,1,96,8|4,0:0|0:3,0:0:0:0:
256,192,27055,1,8,0:2:0:0:
208,192,27126,1,0,0:0:0:0:
192,144,27197,1,0,0:0:0:0:
208,96,27269,1,4,0:3:0:0:
304,96,27376,1,0,0:0:0:0:
112,96,27483,5,4,0:0:0:0:
64,176,27697,1,2,0:0:0:0:
80,272,27912,1,2,0:1:0:0:
160,208,28126,1,2,0:0:0:0:
448,112,28340,2,0,P|432:208|352:240,1,192,8|2,0:0|0:1,0:0:0:0:
160,240,28983,6,0,L|64:240,1,96,2|2,0:0|0:1,0:0:0:0:
256,240,29412,1,2,0:0:0:0:
64,240,29626,2,0,L|48:144,1,96,2|2,0:1|0:0,0:0:0:0:
400,128,30055,2,0,P|432:208|352:240,1,192,8|10,0:0|0:1,0:0:0:0:
448,240,30697,2,0,L|400:240,1,48
208,240,30912,6,0,L|112:240,1,96,6|2,0:0|0:0,0:0:0:0:
304,240,31340,2,0,L|400:240,1,96,2|2,0:1|0:0,0:0:0:0:
112,64,31769,2,0,P|80:144|160:160,1,192,8|2,0:0|0:1,0:0:0:0:
352,160,32412,5,2,0:0:0:0:
256,160,32626,1,2,0:1:0:0:
448,240,32840,1,2,0:0:0:0:
352,160,33054,2,0,L|448:160,1,96,2|2,0:1|0:0,0:0:0:0:
64,160,33483,2,0,L|160:160,1,96,8|2,0:0|0:0,0:0:0:0:
448,160,33912,2,0,L|352:160,1,96,8|2,0:0|0:0,0:0:0:0:
80,160,34340,5,6,0:0:0:0:
208,160,34555,1,2,0:0:0:0:
80,160,34769,1,2,0:1:0:0:
352,192,35197,2,0,L|256:192,1,96,8|2,0:0|0:0,0:0:0:0:
448,160,35626,1,2,0:1:0:0:
160,256,35840,6,0,L|64:256,1,96,2|2,0:0|0:1,0:0:0:0:
256,160,36269,1,2,0:0:0:0:
160,160,36483,1,2,0:1:0:0:
352,160,36697,1,2,0:0:0:0:
64,256,36912,2,0,L|160:256,1,96,8|0,0:0|0:0,0:0:0:0:
352,240,37340,2,0,L|448:240,1,96,10|0,0:1|0:0,0:0:0:0:
400,160,37662,1,0,0:0:0:0:
208,160,37769,5,6,0:0:0:0:
112,160,37983,1,2,0:0:0:0:
304,192,38197,1,2,0:1:0:0:
160,192,38412,1,2,0:0:0:0:
448,192,38626,2,0,L|352:192,1,96,8|2,0:0|0:0,0:0:0:0:
208,112,39055,1,2,0:1:0:0:
400,112,39269,1,2,0:0:0:0:
112,112,39483,5,6,0:0:0:0:
400,112,39912,1,2,0:0:0:0:
160,112,40340,1,8,0:0:0:0:
352,112,40555,1,2,0:0:0:0:
80,192,40769,1,8,0:3:0:0:
432,192,40983,1,4,0:3:0:0:
112,80,41197,6,0,P|48:240|208:320,1,384,2|0,0:3|0:0,0:0:0:0:
112,80,42483,1,0,0:0:0:0:
400,192,42912,1,2,0:3:0:0:
112,96,43555,1,0,0:0:0:0:
256,96,43769,2,0,L|448:96,1,192
160,352,44626,6,0,B|96:336|64:256|64:192|64:192|64:128|96:48|160:32|208:32|208:32|400:32,1,633.599980664063,2|0,0:3|0:0,0:0:0:0:
112,48,47197,6,0,P|32:80|112:176,1,252.000009613037
352,192,48054,6,0,P|432:208|400:288,1,192,14|2,1:2|0:1,0:0:0:0:
112,288,48697,1,2,0:0:0:0:
400,192,48912,2,0,P|432:272|352:288,1,192,8|2,0:0|0:1,0:0:0:0:
64,288,49555,1,0,0:0:0:0:
352,192,49769,6,0,P|240:192|208:128,1,192,6|2,0:0|0:1,0:0:0:0:
352,128,50412,1,8,0:1:0:0:
64,96,50626,2,0,L|256:96,1,192,10|2,0:0|0:1,0:0:0:0:
160,96,51269,1,0,0:0:0:0:
448,96,51483,6,0,L|256:96,1,192,6|8,0:0|0:1,0:0:0:0:
112,96,52126,1,2,0:1:0:0:
400,96,52340,2,0,P|432:128|448:176,1,96,8|0,0:0|0:0,0:0:0:0:
112,160,52769,2,0,P|80:192|64:240,1,96,8|0,0:1|0:0,0:0:0:0:
448,160,53197,6,0,P|432:256|352:256,1,192,6|10,0:0|0:1,0:0:0:0:
64,256,54055,2,0,P|80:208|112:176,1,96,12|0,0:1|0:0,0:0:0:0:
400,256,54483,2,0,P|432:224|448:176,1,96,10|0,0:1|0:0,0:0:0:0:
160,256,54912,6,0,P|96:224|160:160,1,192,6|10,0:0|0:1,0:0:0:0:
448,160,55769,2,0,P|432:256|352:256,1,192,10|10,0:0|0:1,0:0:0:0:
64,256,56626,1,6,0:2:0:0:
352,144,57055,2,0,L|160:144,1,192,10|10,0:1|0:0,0:0:0:0:
352,144,57912,2,0,L|448:144,1,96,10|0,0:1|0:0,0:0:0:0:
160,144,58340,6,0,L|64:144,1,96,6|0,0:0|0:0,0:0:0:0:
352,144,58769,2,0,P|384:176|400:224,1,96,10|0,0:1|0:0,0:0:0:0:
112,240,59197,2,0,P|128:144|208:144,1,192,10|10,0:0|0:1,0:0:0:0:
64,144,59840,1,0,0:0:0:0:
352,144,60055,6,0,L|448:144,1,96,6|0,0:0|0:0,0:0:0:0:
272,240,60483,2,0,L|416:240,1,144,0|2,0:0|0:0,0:0:0:0:
208,240,60912,2,0,L|112:240,1,96,8|2,0:0|0:0,0:0:0:0:
400,112,61340,1,4,0:3:0:0:
464,128,61447,1,0,0:0:0:0:
464,176,61555,1,2,0:0:0:0:
400,192,61662,1,0,0:0:0:0:
112,192,61769,6,0,P|80:112|160:80,1,192,4|2,0:0|0:1,0:0:0:0:
448,80,62412,1,2,0:0:0:0:
160,80,62626,2,0,L|352:80,1,192,10|2,0:0|0:1,0:0:0:0:
64,80,63269,1,2,0:0:0:0:
352,80,63483,6,0,L|448:80,1,96,2|2,0:1|0:0,0:0:0:0:
160,80,63912,2,0,L|64:80,1,96,10|0,0:1|0:0,0:0:0:0:
352,192,64340,2,0,P|416:160|352:96,1,192,14|2,0:1|0:1,0:0:0:0:
64,80,64983,1,8,0:1:0:0:
352,192,65197,6,0,L|160:192,1,192,6|2,0:0|0:1,0:0:0:0:
448,192,65840,1,2,0:0:0:0:
112,192,66055,2,0,P|48:159|112:95,1,192,10|2,0:0|0:1,0:0:0:0:
400,96,66697,6,0,P|432:128|448:176,1,96,2|2,0:0|0:1,0:0:0:0:
160,112,67126,2,0,L|64:112,2,96,2|10|0,0:0|0:1|0:0,0:0:0:0:
448,112,67769,2,0,P|432:160|400:192,1,96,14|2,0:1|0:0,0:0:0:0:
112,192,68197,1,14,0:1:0:0:
400,192,68412,1,12,0:1:0:0:
112,192,68626,6,0,P|48:160|112:96,1,192,6|2,0:0|0:0,0:0:0:0:
400,96,69483,2,0,P|464:128|400:192,1,192,8|2,0:2|0:0,0:0:0:0:
112,191,70340,1,6,0:0:0:0:
400,192,70769,1,2,0:0:0:0:
112,192,71197,2,0,P|80:224|64:272,1,96,10|0,0:0|0:0,0:0:0:0:
352,272,71626,2,0,L|448:272,1,96,10|2,0:0|0:0,0:0:0:0:
112,192,72055,6,0,P|80:112|160:80,1,192,6|2,0:0|0:0,0:0:0:0:
400,80,72912,2,0,L|208:80,1,192,10|2,0:0|0:0,0:0:0:0:
352,192,73555,1,0,0:0:0:0:
64,192,73769,2,0,L|160:192,1,96,12|2,0:0|0:0,0:0:0:0:
448,192,74197,2,0,L|352:192,1,96,4|2,0:3|0:0,0:0:0:0:
48,192,74626,5,8,0:0:0:0:
166,192,74769,1,8,0:0:0:0:
64,192,74912,1,8,0:3:0:0:
182,192,75055,1,4,0:3:0:0:
80,192,75197,1,2,0:0:0:0:
198,192,75340,1,2,0:0:0:0:
432,192,75483,6,0,P|464:96|400:80,1,192,6|2,0:0|0:0,0:0:0:0:
336,81,76048,1,0,0:0:0:0:
400,79,76189,1,0,0:0:0:0:
432,80,76260,1,0,0:0:0:0:
160,192,76331,6,8,P|80:176|112:96,1,192,10|8,0:0|0:0,0:0:0:0:
400,96,76967,1,10,0:0:0:0:
112,256,77391,1,8,0:0:0:0:
448,112,77603,2,0,L|352:112,1,96,10|0,0:0|0:0,0:0:0:0:
64,192,78027,2,0,P|64:112|160:80,1,192,2|2,0:1|0:1,0:0:0:0:
400,192,78875,6,0,P|464:144|400:80,1,192,6|2,0:0|0:0,0:0:0:0:
443,80,79371,1,0,0:0:0:0:
459,112,79442,1,0,0:0:0:0:
459,144,79513,1,0,0:0:0:0:
443,176,79584,1,0,0:0:0:0:
400,192,79655,1,0,0:0:0:0:
208,192,79726,6,8,P|160:192|64:96,1,192,10|8,0:0|0:0,0:0:0:0:
352,96,80364,1,10,0:0:0:0:
112,288,80789,1,8,0:0:0:0:
400,288,81002,1,10,0:0:0:0:
208,192,81215,1,0,0:0:0:0:
160,128,81321,1,2,0:3:0:0:
352,192,81428,6,0,P|400:176|432:144,1,96,8|0,0:0|0:0,0:0:0:0:
448,96,81711,1,0,0:0:0:0:
416,64,81782,1,0,0:0:0:0:
160,192,81853,2,0,L|64:192,1,96,10|10,0:0|0:0,0:0:0:0:
352,96,82279,6,0,L|160:96,1,192,6|2,0:0|0:2,0:0:0:0:
128,112,82771,1,0,0:0:0:0:
112,144,82842,1,0,0:0:0:0:
112,176,82912,1,0,0:0:0:0:
128,208,82983,1,0,0:0:0:0:
160,224,83053,1,0,0:0:0:0:
352,256,83124,6,0,P|442:211|447:124,1,192,10|8,0:0|0:0,0:0:0:0:
112,256,83757,2,8,P|80:208|160:128,1,192,10|8,0:0|0:0,0:0:0:0:
448,160,84391,6,0,L|352:160,1,96,10|2,0:0|0:3,0:0:0:0:
64,160,84814,2,0,L|160:160,1,96,2|0,0:1|0:0,0:0:0:0:
448,160,85236,1,2,0:1:0:0:
160,304,85659,6,0,P|80:272|48:176,1,192,6|2,0:0|0:0,0:0:0:0:
48,144,86153,1,0,0:0:0:0:
64,112,86224,1,0,0:0:0:0:
96,128,86295,1,0,0:0:0:0:
144,96,86365,1,0,0:0:0:0:
208,128,86436,1,0,0:0:0:0:
400,112,86507,6,8,P|464:176|400:208,1,192,10|8,0:0|0:0,0:0:0:0:
64,208,87143,2,0,P|64:128|160:96,1,192,10|8,0:0|0:0,0:0:0:0:
448,112,87779,2,0,P|432:160|400:192,1,96,10|2,0:0|0:0,0:0:0:0:
112,192,88203,5,10,0:0:0:0:
304,192,88415,1,10,0:0:0:0:
112,192,88627,1,10,0:0:0:0:
400,192,88839,1,6,0:0:0:0:
