osu file format v9

[General]
AudioFilename: Wonder Wind.mp3
AudioLeadIn: 2500
PreviewTime: 59312
Countdown: 0
SampleSet: Normal
StackLeniency: 0.7
Mode: 0
LetterboxInBreaks: 1
EpilepsyWarning: 1

[Editor]
Bookmarks: 18085,29864,44220,59312,70907,87287,99066,113422,128514,140109,155017,166244,181152,196244,207839,224220
DistanceSpacing: 0.9
BeatDivisor: 4
GridSize: 8

[Metadata]
Title:Wonder Wind
Artist:ELISA
Creator:S o r d a
Version:Collab
Source:Hayate no Gotoku!!
Tags:gowww rorry swish ccbp sorda

[Difficulty]
HPDrainRate:6
CircleSize:4
OverallDifficulty:6
ApproachRate:8
SliderMultiplier:1.4
SliderTickRate:0.5

[Events]
//Background and Video events
0,0,"BG.jpg"
//Break Periods
2,18085,29114
2,87487,98316
2,166444,180402
//Storyboard Layer 0 (Background)
//Storyboard Layer 1 (Fail)
//Storyboard Layer 2 (Pass)
//Storyboard Layer 3 (Foreground)
Sprite,Foreground,Centre,"SB\S o r d a.png",320,240 M,0,1888,,209,385 F,0,1888,3361,0,1 S,0,1888,16428,0.7312 F,0,3361,16428,1 S,0,16428,16520,0.7312,0.9168 F,0,16428,17165,1,0 S,0,16520,17165,0.9168,0.9807999
Sprite,Foreground,Centre,"SB\gowww.png",320,240 M,0,29864,,509,397 S,0,29864,,0.75 F,0,29864,30600,1 F,0,30600,41459,1 F,0,41459,43852,1,0
Sprite,Foreground,Centre,"SB\gowww.png",320,240 L,29864,1 S,0,0,189,0.75,0.95 F,2,0,712,1,0 S,0,189,712,0.95,1 M,0,29864,,509,397
Sprite,Foreground,Centre,"SB\Rorry.png",320,240 M,0,44220,,532,119 F,0,44220,44956,0,1 S,0,44220,58944,0.75 F,0,44956,58944,1 S,0,58944,59036,0.75,0.8732 F,0,58944,59312,1,0 S,0,59036,59312,0.8732,0.9356
Sprite,Foreground,Centre,"SB\S o r d a.png",320,240 M,0,59312,,188,116 S,0,59312,,0.75 F,0,59312,70723,1 F,0,70723,71091,1,0
Sprite,Foreground,Centre,"SB\S o r d a.png",320,240 L,59312,1 S,0,0,189,0.75,0.95 F,2,0,736,1,0 S,0,189,736,0.95,1 M,0,59312,,188,116
Sprite,Foreground,Centre,"SB\gowww.png",320,240 M,0,70723,,509,397 F,0,70723,71091,0,1 S,0,70723,87287,0.75 F,0,71091,87287,1 S,0,87287,87471,0.75,0.95 F,0,87287,88023,1,0 S,0,87471,88023,0.95,1
Sprite,Foreground,Centre,"SB\Rorry.png",320,240 M,0,99066,,209,385 S,0,99066,,0.75 F,0,99066,110662,1 F,0,110662,113054,1,0
Sprite,Foreground,Centre,"SB\Rorry.png",320,240 L,99066,1 S,0,0,189,0.75,0.95 F,2,0,736,1,0 S,0,189,736,0.95,1 M,0,99066,,209,385
Sprite,Foreground,Centre,"SB\S o r d a.png",320,240 M,0,113422,,442,95 F,0,113422,114158,0,0.9568 F,0,114158,128146,0.9568,1 S,0,128146,128238,0.75,0.95 F,0,128146,128514,1,0 S,0,128238,128514,0.95,1
Sprite,Foreground,Centre,"SB\gowww.png",320,240 M,0,128514,,509,397 S,0,128514,,0.75 F,0,128514,139925,1 F,0,139925,140293,1,0
Sprite,Foreground,Centre,"SB\gowww.png",320,240 L,128514,1 S,0,0,189,0.75,0.95 F,2,0,712,1,0 S,0,189,712,0.95,1 M,0,128514,,509,397
Sprite,Foreground,Centre,"SB\Rorry.png",320,240 L,154833,1 S,0,0,189,0.75,0.95 F,2,0,736,1,0 S,0,189,736,0.95,1 M,0,140109,,147,394 S,0,140109,,0.75 F,0,140109,140477,0,1 F,0,140477,154833,1
Sprite,Foreground,Centre,"SB\S o r d a.png",320,240 M,0,155017,,188,116 S,0,155017,,0.75 F,0,155017,155201,0,0.312 F,0,155201,155385,0.312,1 F,0,155385,166244,1 R,0,155569,,0 F,0,166244,166981,1,0
Sprite,Foreground,Centre,"SB\gowww.png",320,240 L,195324,1 S,0,0,189,0.75,0.95 F,2,0,736,1,0 S,0,189,736,0.95,1 M,0,180784,,532,119 S,0,180784,,0.75 F,0,180784,181520,0,1 F,0,181520,195324,1
Sprite,Foreground,Centre,"SB\Rorry.png",320,240 M,0,196244,,147,394 S,0,196244,,0.75 F,0,196244,197717,0,1 F,0,197717,207655,1 F,0,207655,207839,1,0
Sprite,Foreground,Centre,"SB\S o r d a.png",320,240 L,224220,1 S,0,0,189,0.75,0.95 F,2,0,736,1,0 S,0,189,736,0.95,1 S,0,207655,,0.75 F,0,207655,207839,0.0176001,1 M,0,207839,,509,397 F,0,207839,224220,1
//Storyboard Sound Samples
//Background Colour Transformations
3,100,163,162,255

[TimingPoints]
1889,368.098159509202,4,2,0,50,1,0
9895,-100,4,2,0,10,0,0
10171,-100,4,2,0,50,0,0
14772,-100,4,2,0,10,0,0
15140,-100,4,2,0,50,0,0
29772,-90.9090909090909,4,1,0,60,0,0
35293,-90.9090909090909,4,1,0,70,0,0
35662,-90.9090909090909,4,1,0,60,0,0
44220,-133.333333333333,4,2,0,40,0,0
53238,-100,4,2,0,60,0,0
53606,-100,4,1,0,60,0,0
54711,-100,4,2,0,60,0,0
55079,-100,4,1,0,60,0,0
55631,-100,4,2,0,60,0,0
56183,-100,4,2,0,60,0,0
56919,-100,4,2,0,70,0,0
57655,-100,4,1,0,70,0,0
59312,-100,4,1,0,50,0,1
70815,-83.3333333333333,4,1,0,50,0,1
85815,-83.3333333333333,4,1,0,70,0,0
99066,-100,4,1,0,50,0,0
113422,-200,4,2,0,40,0,0
122901,-100,4,1,0,50,0,0
128422,-90.9090909090909,4,1,0,50,0,0
128514,-90.9090909090909,4,1,0,50,0,1
154833,-100,4,1,0,40,0,0
181060,-100,4,2,0,60,0,0
181428,-100,4,1,0,40,0,0
186766,-100,4,2,0,60,0,0
187134,-100,4,1,0,40,0,0
187502,-100,4,2,0,0,0,0
187594,-100,4,1,0,40,0,0
189895,-100,4,1,0,50,0,0
190631,-100,4,2,0,60,0,0
190815,-100,4,1,0,50,0,0
190999,-100,4,2,0,60,0,0
191183,-100,4,1,0,50,0,0
191551,-100,4,2,0,60,0,0
191735,-100,4,1,0,50,0,0
192471,-100,4,2,0,60,0,0
192655,-100,4,1,0,50,0,0
193023,-100,4,2,0,60,0,0
193208,-100,4,1,0,50,0,0
193760,-100,4,2,0,60,0,0
193944,-100,4,1,0,50,0,0
194496,-100,4,1,0,60,0,0
194864,-100,4,1,0,70,0,0
195232,-133.333333333333,4,1,0,50,0,0
195876,-133.333333333333,4,2,0,0,0,0
196244,-133.333333333333,4,2,0,50,0,0
201950,-100,4,1,0,50,0,0
202502,-100,4,2,0,50,0,0
203238,-100,4,1,0,50,0,0
203974,-100,4,2,0,50,0,0
205079,-100,4,1,0,50,0,0
207839,-83.3333333333333,4,1,0,50,0,1
222563,-100,4,1,0,50,0,0

[Colours]
Combo1 : 255,128,0
Combo2 : 255,255,0
Combo3 : 5,5,240

[HitObjects]
128,112,1888,2,0,B|264:88,1,140,4|0
264,192,2441,1,2
336,272,2625,1,0
264,352,2809,1,2
192,272,2993,2,0,B|136:248|152:192|152:192,1,70
264,192,3361,2,0,B|352:192,1,70,2|0
448,248,3729,2,0,B|472:328,1,70
392,344,4097,1,0
248,256,4465,6,0,B|168:208,1,70,0|0
152,120,4833,2,0,B|216:56,1,70,2|0
304,64,5201,2,0,B|384:80|384:192,1,140,0|2
64,184,6122,6,0,B|16:232|24:328,1,140,0|0
104,336,6674,1,2
160,272,6858,1,0
152,192,7042,1,2
144,112,7226,1,0
312,128,7594,6,0,B|384:256,1,140,4|0
304,320,8146,1,2
248,200,8330,1,0
152,232,8514,1,2
184,344,8698,1,0
304,320,8882,2,0,B|360:320|384:272,1,70
416,232,9250,2,0,B|360:88|192:80,1,280
256,192,10355,6,0,B|200:264,2,70,0|0|0
256,192,10907,2,0,B|312:256,2,70,0|0|0
72,80,11643,5,0
72,80,11827,1,2
144,120,12011,2,0,B|160:192|240:232,1,140
296,176,12563,1,2
376,176,12747,1,0
256,296,13115,5,0
192,352,13300,1,2
152,272,13484,1,0
256,192,13668,12,0,14956
256,112,15324,6,0,B|336:112,1,70,4|0
304,216,15692,2,0,B|232:280,2,70,4|0|4
472,344,16428,1,4
304,72,29864,6,0,B|264:48|176:56|144:80,1,153.999995410442,4|8
104,136,30416,1,0
64,208,30600,2,0,B|40:248|40:288,1,76.9999977052212
144,208,30968,2,0,B|160:256|160:296,1,76.9999977052212,8|0
192,144,31336,2,0,B|248:144|272:136,2,76.9999977052212,0|0|8
104,136,31888,1,0
64,208,32073,5,0
32,328,32257,1,0
152,344,32441,1,8
184,224,32625,1,0
232,296,32809,6,0,B|272:328|304:336,2,76.9999977052212,0|0|8
184,224,33361,1,0
232,152,33545,2,0,B|272:120|304:112,1,76.9999977052212
368,160,33913,1,8
296,208,34097,1,0
360,264,34281,6,0,B|408:320|424:352,1,76.9999977052212,4|0
232,152,34649,2,0,B|184:104|168:72,1,76.9999977052212,12|0
368,160,35017,1,4
232,264,35201,1,4
128,208,35385,2,0,B|32:208,1,76.9999977052212,12|0
128,208,35754,6,0,B|104:144|120:72|160:40,1,153.999995410442,4|8
224,32,36306,2,0,B|272:64|312:56,1,76.9999977052212
376,40,36674,1,0
472,120,36858,2,0,B|488:160|488:208,1,76.9999977052212,8|0
384,128,37226,2,0,B|344:144|296:144,2,76.9999977052212,0|0|8
408,208,37778,5,0
464,272,37962,2,0,B|480:320|480:352,1,76.9999977052212
376,288,38330,2,0,B|352:328|320:352,1,76.9999977052212,8|0
328,224,38698,2,0,B|272:200|192:200|160:224,1,153.999995410442,0|8
177,214,39250,1,0
184,128,39435,5,0
152,8,39619,1,0
32,16,39803,1,8
64,136,39987,2,0,B|32:176|32:240|40:264|64:280,1,153.999995410442,4|0
177,214,40539,5,8
296,232,40723,1,0
272,352,40907,1,0
152,336,41091,1,0
176,216,41275,1,12
256,192,41459,12,4,43852
256,56,44220,5,0
296,128,44404,1,0
216,128,44588,2,0,B|136:200,1,104.999996870756,0|8
64,160,45140,2,0,B|64:224|128:232,1,104.999996870756
208,232,45692,1,0
208,232,45876,2,0,B|312:232,3,104.999996870756
392,208,47165,2,0,B|408:240|384:272,1,52.4999984353781,8|0
360,336,47533,5,0
456,200,47901,2,0,B|480:256,1,52.4999984353781
376,56,48453,2,0,B|416:88,1,52.4999984353781,0|8
376,56,48821,2,0,B|272:56,1,104.999996870756
200,104,49373,2,0,B|160:136,2,52.4999984353781
272,144,49925,5,0
312,216,50109,1,8
272,288,50293,2,0,B|240:344|176:328,1,104.999996870756
104,304,50846,1,0
144,232,51030,1,0
224,208,51214,1,0
264,136,51398,2,0,B|216:112,1,52.4999984353781,0|8
296,88,51766,2,0,B|352:176,2,104.999996870756
216,72,52686,5,0
152,120,52870,1,0
152,120,52962,1,0
152,120,53054,1,0
168,200,53238,2,0,B|184:272|256:304,1,140,4|0
168,200,53790,5,0
368,144,53974,1,0
432,240,54158,6,0,B|480:240|488:288,2,70,0|0|0
392,336,54711,2,0,B|376:264|304:232,1,140,4|0
393,337,55263,5,0
448,136,55447,1,0
336,152,55631,6,0,B|296:160|264:120,1,70,4|0
160,136,55999,1,0
176,232,56183,2,0,B|216:224|248:264,2,70,4|0|4
176,232,56735,1,0
144,128,56919,1,4
368,128,57287,1,4
328,352,57655,6,0,B|256:376|184:352,1,140
208,240,58208,1,0
104,280,58392,1,0
256,88,58760,2,0,B|256:128,2,35,0|0|4
408,160,59312,6,0,B|408:232|344:304,1,140,4|0
280,248,59864,1,8
256,168,60048,1,0
208,96,60232,1,8
136,56,60416,1,0
56,88,60600,5,0
32,120,60692,1,0
24,160,60784,1,0
24,200,60876,1,0
32,240,60968,1,0
80,312,61152,2,0,B|136:320|176:312,2,70,0|8|0
104,232,61704,1,0
176,176,61889,6,0,B|168:128|216:136,1,70,0|0
272,192,62257,1,0
344,240,62441,2,0,B|352:288|304:280,1,70,0|0
144,344,62993,1,4
360,112,63545,6,0,B|312:40|232:72,1,140,0|0
272,144,64097,2,0,B|344:192|312:272,1,140,0|0
272,336,64649,1,0
136,240,65017,6,0,B|112:168|168:96,1,140,4|0
240,80,65569,1,8
312,128,65754,1,0
312,208,65938,1,8
280,288,66122,2,0,B|200:288,2,70,0|0|0
280,368,66674,5,8
200,352,66858,1,0
128,304,67042,1,8
96,224,67226,2,0,B|184:224,1,70
328,176,67778,6,0,B|296:96,2,70
248,176,68330,2,0,B|200:256,2,70
72,112,69066,5,0
176,112,69250,1,0
208,208,69435,2,0,B|160:216|160:272,1,70
288,328,69803,5,0
376,272,69987,1,0
296,200,70171,1,0
368,128,70355,1,0
368,128,70539,2,0,B|416:120|432:176,1,70,0|4
280,80,70907,6,0,B|240:56|176:56,1,84.0000020027161,4|0
168,136,71275,2,0,B|104:184|64:176,1,84.0000020027161,0|8
32,120,71643,1,0
32,256,71827,1,0
168,264,72011,1,0
224,200,72195,5,8
352,160,72379,1,0
248,240,72563,1,0
376,200,72747,1,0
480,280,72931,1,8
376,368,73115,1,0
272,280,73300,1,0
288,360,73484,1,0
208,336,73668,6,0,B|160:320|112:320,2,84.0000020027161,12|0|0
232,200,74220,1,0
104,248,74404,1,8
104,248,74496,1,0
104,248,74588,1,0
232,200,74772,2,0,B|232:96,1,84.0000020027161,4|0
232,32,75140,1,8
360,136,75324,6,0,B|344:96|304:72,1,84.0000020027161,4|0
104,136,75692,2,0,B|120:96|160:72,1,84.0000020027161,4|8
312,200,76060,1,0
152,200,76244,1,0
232,224,76428,1,0
232,224,76520,1,0
232,224,76612,1,12
232,224,76796,6,0,B|232:320,2,84.0000020027161
208,144,77349,2,0,B|168:64,1,84.0000020027161,8|0
256,144,77717,2,0,B|296:64,1,84.0000020027161,0|0
376,64,78085,1,8
440,120,78269,1,0
360,144,78453,5,0
376,8,78637,1,0
360,144,78821,1,8
400,272,79005,1,0
320,296,79189,1,0
328,216,79373,1,0
400,272,79557,6,0,B|344:272|200:272,1,168.000004005432,8|0
128,192,80109,1,0
48,88,80293,2,0,B|104:88|248:88,1,168.000004005432,8|0
256,168,80846,5,0
256,168,80938,1,0
256,168,81030,1,0
384,208,81214,2,0,B|400:256|384:312,1,84.0000020027161,4|0
256,328,81582,1,0
144,248,81766,1,8
256,168,81950,5,4
256,168,82042,1,0
256,168,82134,1,0
128,128,82318,2,0,B|112:80|128:24,1,84.0000020027161,0|8
256,24,82686,1,0
336,136,82870,5,4
208,96,83054,1,0
336,56,83238,1,8
256,168,83422,1,0
256,304,83606,5,4
392,304,83790,1,0
392,168,83974,1,8
325,237,84158,1,4
325,237,84527,6,0,B|225:235,2,84.0000020027161
456,232,85079,1,0
392,112,85263,1,4
152,240,85631,1,4
80,200,85815,5,4
64,184,85907,1,0
56,160,85999,1,0
56,136,86091,1,0
64,112,86183,1,8
80,96,86275,1,0
104,88,86367,1,0
128,88,86459,1,0
152,88,86551,1,8
176,88,86643,1,0
200,88,86735,1,0
224,88,86827,1,0
248,88,86919,1,4
256,240,87287,5,4
264,96,99066,6,0,B|240:144|248:192|288:224,1,140
360,264,99619,2,0,B|304:312,2,70
360,184,100171,2,0,B|344:144|368:112,1,70
416,48,100539,1,0
288,120,100815,1,0
216,248,101091,1,4
144,200,101275,6,0,B|128:232|144:272,1,70
208,320,101643,2,0,B|144:344,1,70
280,296,102011,2,0,B|416:344,1,140,4|0
432,200,102563,1,0
432,200,102747,1,0
360,152,102931,2,0,B|288:168,2,70
400,80,103484,6,0,B|368:56|328:64,1,70
184,176,103852,2,0,B|216:200|256:192,1,70,4|0
400,304,104220,2,0,B|424:272|416:232,1,70
249,193,104588,1,4
88,224,104956,5,0
152,272,105140,1,0
232,272,105324,1,8
296,320,105508,2,0,B|240:360,1,70
416,248,105876,2,0,B|440:280|424:320,1,70,0|8
280,176,106244,1,0
280,176,106428,1,0
208,136,106612,2,0,B|168:192,1,70,0|8
232,240,106981,2,0,B|208:304,2,70
312,264,107533,2,0,B|312:336,1,70,8|0
376,216,107901,6,0,B|376:136|296:96,2,140,0|0|0
312,264,108821,1,0
232,272,109005,1,8
152,264,109189,2,0,B|200:320|272:328,2,140
104,192,110109,2,0,B|168:168,1,70,8|0
169,167,110477,1,8
256,192,110846,12,4,113054
176,112,113422,5,0
216,152,113606,1,0
232,200,113790,2,0,B|232:248|232:248,2,35
288,200,114342,2,0,B|336:200,1,35
344,248,114711,5,0
328,296,114895,1,0
312,344,115079,1,0
208,344,115447,2,0,B|128:344,1,70
136,240,116183,2,0,B|136:192,2,35
280,168,117103,6,0,B|360:168,1,70
352,224,117655,1,0
352,280,117839,1,0
352,336,118023,2,0,B|432:336,2,70
256,296,119128,5,0
256,240,119312,1,0
256,184,119496,2,0,B|336:184,1,70
352,144,120048,1,0
368,96,120232,1,0
344,48,120416,6,0,B|272:48,1,70
224,72,120968,1,0
200,176,121336,2,0,B|200:248,2,70
200,176,122257,1,0
256,176,122441,2,0,B|328:176,1,70,4|0
376,264,122993,5,0
376,264,123177,1,8
312,320,123361,2,0,B|240:368|184:288,1,140,0|0
144,224,123913,2,0,B|144:64,1,140,8|0
227,84,124465,1,8
143,84,124649,1,8
72,128,124833,5,0
136,184,125017,1,8
208,232,125201,2,0,B|184:272|200:312,1,70
264,344,125569,2,0,B|344:344,2,70,8|0|8
256,256,126122,1,0
264,88,126490,2,0,B|320:32|416:40,1,140,8|0
352,200,127226,5,4
248,176,127410,1,4
192,88,127594,1,4
392,144,127962,5,0
376,192,128054,1,0
344,232,128146,1,0
296,264,128238,1,0
248,272,128330,1,0
152,224,128514,6,0,B|112:184|104:160,1,70,4|0
72,80,128882,1,8
136,24,129066,1,0
192,88,129250,1,0
256,32,129435,1,0
320,88,129619,2,0,B|368:112|408:104,2,76.9999977052212,8|0|0
224,168,130171,2,0,B|248:216|240:256,1,76.9999977052212,0|8
88,160,130539,2,0,B|64:208|72:248,1,76.9999977052212
104,312,130907,1,0
184,336,131091,6,0,B|280:336,1,76.9999977052212,12|0
384,336,131459,1,0
328,224,131643,1,0
408,136,131827,1,8
416,224,132011,1,0
328,136,132195,1,4
328,136,132287,1,0
328,136,132379,2,0,B|280:104|240:88,1,76.9999977052212,0|8
192,56,132747,5,4
144,168,132931,1,0
96,56,133115,1,0
64,136,133300,5,8
184,120,133484,1,0
144,232,133668,1,4
264,192,133852,1,0
264,192,133944,1,0
264,192,134036,1,8
224,264,134220,6,0,B|224:304|248:344,1,76.9999977052212
400,328,134588,2,0,B|360:328|320:352,1,76.9999977052212,0|8
472,280,134956,2,0,B|472:240|448:200,1,76.9999977052212,0|0
312,128,135324,2,0,B|352:128|392:152,1,76.9999977052212,0|8
464,120,135692,5,0
360,56,135876,1,0
240,80,136060,1,0
288,8,136244,5,8
312,128,136428,1,0
192,88,136612,1,0
232,160,136796,5,0
112,120,136981,1,8
144,240,137165,1,0
144,240,137257,1,0
144,240,137349,2,0,B|136:288|144:320,1,76.9999977052212,4|0
368,240,137717,2,0,B|376:288|368:320,1,76.9999977052212,8|0
256,264,138085,1,4
296,184,138269,6,0,B|304:144|328:104,1,76.9999977052212,4|8
256,264,138637,1,0
256,264,138729,1,0
256,264,138821,1,0
216,184,139005,2,0,B|208:144|184:104,1,76.9999977052212,4|8
256,56,139373,1,0
256,56,139465,1,0
256,56,139557,1,4
256,264,139741,2,0,B|256:176,1,76.9999977052212,0|12
336,152,140109,6,0,B|376:152|408:184,1,76.9999977052212
472,320,140477,2,0,B|432:320|400:288,1,76.9999977052212,0|8
296,224,140846,1,0
176,264,141030,1,0
232,152,141214,1,0
352,112,141398,2,0,B|320:128|304:176,2,76.9999977052212,8|0|0
368,232,141950,6,0,B|353:268|321:292,1,76.9999977052212,0|8
321,292,142226,1,0
321,292,142318,1,0
200,320,142502,2,0,B|272:344,1,76.9999977052212,0|0
72,280,142870,1,8
120,168,143054,2,0,B|136:224|176:256|224:280,1,153.999995410442
232,152,143606,2,0,B|376:96,1,153.999995410442
448,192,144158,1,0
376,288,144342,1,8
256,272,144527,6,0,B|208:240|208:240|264:336|168:304,1,153.999995410442
256,272,145079,2,0,B|304:200|256:120,1,153.999995410442
152,72,145631,1,0
272,40,145815,1,8
368,120,145999,2,0,B|344:200|400:264,1,153.999995410442
288,216,146551,1,8
399,263,146735,1,0
312,344,146919,1,0
280,344,147011,1,0
248,344,147103,1,0
80,176,147287,5,8
184,112,147471,2,0,B|192:160|240:184,1,76.9999977052212
344,160,147839,2,0,B|384:160|416:184,2,76.9999977052212,0|8|0
256,72,148392,1,0
272,192,148576,1,0
344,288,148760,1,8
456,336,148944,2,0,B|504:240|488:136|352:72|256:112,1,384.999988526106
144,144,150048,5,0
256,192,150232,1,8
360,128,150416,2,0,B|312:64|224:56,1,153.999995410442
360,128,150968,1,8
152,256,151152,2,0,B|200:320|288:328,1,153.999995410442
152,256,151704,1,8
72,160,151889,5,0
152,64,152073,1,0
272,80,152257,2,0,B|304:104,1,38.4999988526106
336,96,152441,2,0,B|352:136,1,38.4999988526106
384,128,152625,2,0,B|384:168,1,38.4999988526106
382,204,152809,1,0
371,240,152901,1,0
350,272,152993,1,0
324,300,153085,1,0
289,317,153177,1,0
168,328,153361,6,0,B|128:256|184:184,1,153.999995410442,4|0
183,184,153821,1,4
183,184,153913,1,4
256,88,154097,1,0
328,184,154281,2,0,B|352:216|360:256,2,76.9999977052212
256,88,154833,1,4
32,192,155385,6,0,B|120:320,1,140,4|0
176,256,155938,1,8
232,192,156122,1,0
288,128,156306,1,8
424,344,156858,6,0,B|256:344,1,140
288,264,157410,1,8
352,208,157594,1,0
408,144,157778,1,8
128,112,158330,6,0,B|128:256,1,140,4|0
200,288,158882,1,8
280,320,159066,1,0
360,344,159250,1,8
352,176,159619,5,0
288,120,159803,1,8
224,176,159987,2,0,B|224:256,2,70
288,336,160723,1,4
336,88,161275,6,0,B|448:200,1,140,4|0
360,224,161827,1,8
280,224,162011,1,0
224,280,162195,1,8
120,40,162747,6,0,B|280:40,1,140
312,112,163300,1,8
312,192,163484,1,0
312,272,163668,1,8
128,312,164220,6,0,B|48:184,1,140,4|0
104,128,164772,1,8
168,72,164956,1,0
248,56,165140,1,8
256,136,165324,2,0,B|344:136,2,70
256,216,165876,2,0,B|184:216,2,70,0|0|4
368,80,181152,6,0,B|392:40,2,35,4|0|0
288,48,181520,2,0,B|256:32|192:40,1,70,0|0
208,120,181889,2,0,B|176:136|112:128,1,70,8|0
128,48,182257,1,0
64,104,182441,2,0,B|48:136|56:200,1,70
48,256,182809,6,0,B|104:240|152:288|200:240,1,140
256,200,183361,1,8
464,256,183545,2,0,B|408:240|360:288|312:240,1,140
256,200,184097,2,0,B|208:128,1,70
256,200,184465,2,0,B|304:128,2,70,0|0|8
256,280,185017,1,0
184,320,185201,6,0,B|144:336|96:328,1,70
328,320,185569,2,0,B|368:336|416:328,1,70
256,280,185938,1,0
232,200,186122,1,0
280,128,186306,2,0,B|264:72|192:48|144:80,1,140,8|0
88,48,186858,6,0,B|48:40,2,35,4|0|0
64,128,187226,2,0,B|48:168|48:216|48:240,1,105
72,264,187594,2,0,B|88:304|80:336,2,70,0|8|0
136,208,188146,1,0
152,128,188330,2,0,B|192:88|232:80,1,70
272,32,188698,6,0,B|240:64|232:120|248:168,1,140
328,192,189250,1,8
384,352,189435,2,0,B|416:320|424:264|408:216,1,140
328,192,189987,1,4
328,192,190079,1,0
328,192,190171,2,0,B|328:112,2,70,0|0|0
256,280,190723,5,4
168,208,190907,1,0
240,120,191091,2,0,B|208:88|160:96,1,70,4|4
280,48,191459,1,4
384,88,191643,2,0,B|416:128|424:184|408:224,1,140,4|0
344,312,192195,1,4
344,312,192287,1,0
344,312,192379,1,0
240,344,192563,5,4
152,280,192747,1,4
48,328,192931,1,4
56,216,193115,2,0,B|96:176|152:176|200:176,1,140,4|4
256,80,193668,1,4
448,216,193852,2,0,B|408:176|352:176|304:176,1,140,4|4
256,80,194404,1,4
256,80,194588,6,0,B|184:136,1,70,0|4
256,80,194956,2,4,B|328:136,1,70,0|0
256,184,195324,2,0,B|224:224|296:256|248:352,1,157.499995306134,4|0
88,296,196244,6,0,B|136:344|224:352|280:304|304:232,1,262.499992176891,4|0
224,208,197349,1,0
144,200,197533,2,0,B|160:128|240:104|296:168|296:168|376:168,1,262.499992176891
376,296,198821,5,0
312,240,199005,2,0,B|280:264|272:296|296:336,1,104.999996870756
200,144,199557,2,0,B|232:120|240:88|216:48,1,104.999996870756
136,64,200109,1,0
64,104,200293,1,0
80,184,200477,2,0,B|168:240,1,104.999996870756
248,216,201030,2,0,B|296:248,1,52.4999984353781
368,216,201398,2,0,B|416:248,2,52.4999984353781
312,120,201950,6,0,B|168:120,1,140
172,120,202502,1,4
172,120,202870,1,4
384,184,203238,1,0
424,288,203422,2,0,B|288:336,1,140
184,304,203974,2,0,B|200:272|224:248,1,70,4|0
328,216,204342,2,0,B|312:184|288:160,1,70,4|0
200,96,204711,6,0,B|216:64|240:40,2,70,4|0|0
88,96,205263,1,0
32,192,205447,1,0
88,96,205631,1,0
160,184,205815,1,0
176,200,205907,1,0
192,216,205999,1,0
280,280,206183,2,0,B|312:296|352:288,2,70
280,280,206643,1,0
280,280,206735,1,0
256,168,206919,5,0
304,64,207103,1,0
320,80,207195,1,0
336,96,207287,1,0
352,112,207379,1,0
368,128,207471,1,0
448,208,207655,1,0
320,240,207839,6,0,B|264:144|192:240|192:240|88:176|88:176,1,252.000006008148,4|0
112,96,208576,1,8
208,56,208760,1,0
240,152,208944,1,8
312,80,209128,1,0
392,144,209312,1,8
480,200,209496,5,0
440,232,209588,1,0
392,256,209680,1,0
344,264,209772,1,0
296,256,209864,1,0
200,224,210048,2,0,B|152:256|112:248,1,84.0000020027161,0|0
168,160,210416,1,0
216,72,210600,6,0,B|264:80|288:128,1,84.0000020027161
184,144,210968,2,0,B|136:136|112:88,1,84.0000020027161,8|0
16,112,211336,1,0
40,208,211520,1,8
104,288,211704,1,0
104,288,211796,1,0
104,288,211889,1,0
208,288,212073,1,0
312,296,212257,6,0,B|392:248|392:144,1,168.000004005432,4|0
352,64,212809,1,8
256,24,212993,1,0
152,24,213177,1,8
64,80,213361,1,0
72,128,213453,1,0
104,168,213545,1,0
200,184,213729,6,0,B|304:184,2,84.0000020027161
200,288,214281,2,0,B|96:288,2,84.0000020027161,8|0|8
296,272,214833,1,0
368,200,215017,1,8
416,112,215201,1,0
368,24,215385,1,8
272,64,215569,2,0,B|256:112|216:136,2,84.0000020027161
320,152,216122,1,8
416,192,216306,2,0,B|448:248|480:256,2,84.0000020027161
328,240,216858,5,0
296,280,216950,1,0
248,296,217042,1,0
200,288,217134,1,0
168,240,217226,1,0
168,136,217410,2,0,B|72:136|72:136,2,84.0000020027161,8|0|8
168,32,217962,1,0
264,56,218146,1,8
216,144,218330,1,0
296,208,218514,1,8
392,176,218698,1,0
360,272,218882,1,8
360,272,219066,2,0,B|392:176|392:176|304:152|304:152|280:216,1,252.000006008148
200,144,219803,5,4
104,104,219987,1,4
64,200,220171,1,4
144,264,220355,2,0,B|232:216,1,84.0000020027161,4|0
256,128,220723,5,4
400,40,220907,1,4
488,184,221091,1,4
432,312,221459,5,0
432,312,221643,1,8
344,312,221827,1,0
344,312,222011,1,8
288,224,222195,1,0
288,120,222379,5,0
368,120,222563,1,8
448,152,222747,1,0
432,192,222839,1,0
408,232,222931,1,0
376,264,223023,1,0
344,296,223115,1,0
304,312,223208,1,0
264,312,223300,1,0
192,280,223484,6,0,B|96:280,1,70
120,176,223852,2,0,B|192:128,1,70
256,192,224220,5,4
