osu file format v9

[General]
AudioFilename: ELISA - Wonder Wind.mp3
AudioLeadIn: 0
PreviewTime: 58583
Countdown: 0
SampleSet: Normal
StackLeniency: 0.7
Mode: 1
LetterboxInBreaks: 1

[Editor]
Bookmarks: 15324,87287,154833,181152,207839,224220,235815
DistanceSpacing: 1
BeatDivisor: 4
GridSize: 8

[Metadata]
Title:Wonder Wind
Artist:ELISA
Creator:0OoMickeyoO0
Version:Taiko Collab
Source:Hayate no Gotoku!!
Tags:termerys Netsukawa KinomiCandy

[Difficulty]
HPDrainRate:5
CircleSize:5
OverallDifficulty:5
ApproachRate:5
SliderMultiplier:1.4
SliderTickRate:1

[Events]
//Background and Video events
0,0,"TaikoBG.jpg"
//Break Periods
//Storyboard Layer 0 (Background)
//Storyboard Layer 1 (Fail)
//Storyboard Layer 2 (Pass)
//Storyboard Layer 3 (Foreground)
Sprite,Foreground,Centre,"Font\KinomiCandy.png",320,240 M,0,87103,,536,282 F,0,87103,87287,0,1 F,0,87287,154741,1 S,0,87569,,0.68 F,0,154741,154833,1,0 F,0,181336,181520,0,1 F,0,181520,,1 F,0,181520,207655,1 F,0,207655,207747,1,0 F,0,224036,224220,0,1 F,0,224220,235723,1 F,0,235723,235815,1,0
Sprite,Foreground,Centre,"Font\0OoMickeyoO0.png",320,240 M,0,15140,,535,282 S,0,15140,,0.6479999 F,0,15140,15324,0,1 F,0,15324,87011,1 F,0,87011,87103,1,0 F,0,154833,,0 F,0,154833,155017,0,1 F,0,155017,181152,1 F,0,181152,181244,1,0 F,0,207839,208023,0,1 F,0,208023,223944,1 F,0,223944,224036,1,0
Sprite,Foreground,Centre,"Font\0OoMickeyoO0.png",320,240 M,0,18085,,535,281 F,0,18085,18821,1,0 S,0,18085,18821,0.6320001,1.352
Sprite,Foreground,Centre,"Font\KinomiCandy.png",320,240 M,0,87287,,535,281 F,0,87287,88023,1,0 S,0,87287,88023,0.6880003,1.344
//Storyboard Sound Samples
//Background Colour Transformations
3,100,163,162,255

[TimingPoints]
1896,368.098159509202,4,1,0,100,1,0
59319,-100,4,1,0,100,0,1
70730,-100,4,1,0,100,0,0
70914,-100,4,1,0,100,0,1
84165,-100,4,1,0,100,0,0
128521,-100,4,1,0,100,0,1
139932,-100,4,1,0,100,0,0
140116,-100,4,1,0,100,0,1
153368,-100,4,1,0,100,0,0
196251,-133.333333333333,4,1,0,100,0,0
201957,-100,4,1,0,100,0,0
207846,-100,4,1,0,100,0,1
221098,-100,4,1,0,100,0,0

[Colours]
Combo1 : 255,255,128
Combo2 : 179,255,102
Combo3 : 0,128,255
Combo4 : 255,128,128

[HitObjects]
256,192,15331,1,4
256,192,15515,1,4
256,192,15883,1,4
256,192,16067,1,4
256,192,16435,1,4
256,192,17724,1,8
256,192,18092,1,4
256,192,18460,1,8
256,192,18644,1,0
256,192,18736,1,0
256,192,18828,1,0
256,192,19012,1,0
256,192,19196,1,8
256,192,19380,1,0
256,192,19748,1,0
256,192,19932,1,8
256,192,20116,1,0
256,192,20300,1,0
256,192,20392,1,8
256,192,20484,1,0
256,192,20669,1,8
256,192,20853,1,0
256,192,21037,1,0
256,192,21405,1,8
256,192,21589,1,0
256,192,21681,1,0
256,192,21773,1,0
256,192,21957,1,0
256,192,22141,1,8
256,192,22325,1,4
256,192,22693,1,0
256,192,22877,1,8
256,192,23061,1,0
256,192,23245,1,0
256,192,23337,1,8
256,192,23429,1,0
256,192,23613,1,8
256,192,23797,1,8
256,192,23981,1,4
256,192,24349,1,8
256,192,24534,1,0
256,192,24626,1,0
256,192,24718,1,0
256,192,24902,1,0
256,192,25086,1,8
256,192,25270,1,4
256,192,25638,1,0
256,192,25822,1,8
256,192,26006,1,0
256,192,26098,1,0
256,192,26190,1,0
256,192,26282,1,8
256,192,26374,1,0
256,192,26558,1,8
256,192,26742,1,0
256,192,26926,1,4
256,192,27294,1,8
256,192,27478,1,0
256,192,27570,1,8
256,192,27662,1,0
256,192,27846,1,8
256,192,28030,1,8
256,192,28215,1,4
256,192,28583,1,8
256,192,28767,1,8
256,192,28951,1,4
256,192,29319,1,0
256,192,29503,1,12
256,192,29871,1,4
256,192,30239,1,8
256,192,30423,1,0
256,192,30607,1,0
256,192,30699,1,8
256,192,30791,1,0
256,192,30975,1,8
256,192,31159,1,0
256,192,31343,1,0
256,192,31711,1,8
256,192,31895,1,0
256,192,32080,1,0
256,192,32172,1,8
256,192,32356,1,0
256,192,32448,1,8
256,192,32632,1,0
256,192,32816,1,0
256,192,33184,1,8
256,192,33368,1,0
256,192,33552,1,0
256,192,33644,1,8
256,192,33736,1,0
256,192,33920,1,8
256,192,34104,1,0
256,192,34196,1,8
256,192,34288,1,0
256,192,34656,1,12
256,192,35024,1,0
256,192,35208,1,0
256,192,35392,1,12
256,192,35761,1,4
256,192,36129,1,8
256,192,36313,1,0
256,192,36405,1,0
256,192,36497,1,0
256,192,36681,1,0
256,192,36865,1,8
256,192,37049,1,0
256,192,37233,1,0
256,192,37601,1,8
256,192,37785,1,0
256,192,37877,1,0
256,192,37969,1,0
256,192,38061,1,8
256,192,38153,1,0
256,192,38337,1,8
256,192,38521,1,0
256,192,38613,1,8
256,192,38705,1,0
256,192,39073,1,8
256,192,39442,1,0
256,192,39534,1,8
256,192,39626,1,0
256,192,39810,1,8
256,192,39994,1,4
256,192,40362,1,0
256,192,40546,1,8
256,192,40730,1,4
256,192,41098,1,0
256,192,41282,1,8
256,192,41650,1,4
256,192,42018,1,8
256,192,42386,1,0
256,192,42478,1,0
256,192,42570,1,0
256,192,42754,1,8
256,192,42938,1,4
256,192,43307,1,8
256,192,43491,1,8
256,192,43675,1,0
256,192,43859,1,0
256,192,44043,1,8
256,192,44227,1,8
256,192,44411,1,0
256,192,44595,1,4
256,192,45147,1,0
256,192,45331,1,8
256,192,45883,1,0
256,192,46251,1,0
256,192,46619,1,0
256,192,46803,1,8
256,192,47356,1,0
256,192,47540,1,0
256,192,48092,1,0
256,192,48276,1,8
256,192,48828,1,0
256,192,49196,1,0
256,192,49564,1,0
256,192,49748,1,8
256,192,50116,1,0
256,192,50484,1,4
256,192,51037,1,0
256,192,51221,1,8
256,192,51773,1,0
256,192,52141,1,0
256,192,52509,1,0
256,192,52693,1,8
256,192,53061,1,8
256,192,53245,1,12
256,192,53613,1,0
256,192,53797,1,8
256,192,54165,1,0
256,192,54257,1,8
256,192,54349,1,0
256,192,54534,1,8
256,192,54718,1,4
256,192,55086,1,0
256,192,55270,1,8
256,192,55638,1,0
256,192,55730,1,8
256,192,55822,1,0
256,192,56006,1,8
256,192,56190,1,4
256,192,56558,1,0
256,192,56742,1,8
256,192,56926,1,4
256,192,57294,1,4
256,192,57662,1,4
256,192,58030,1,12
256,192,58215,1,12
256,192,58399,1,12
256,192,58583,1,0
256,192,58675,1,0
256,192,58767,1,0
256,192,58859,1,0
256,192,58951,1,8
256,192,59319,1,4
256,192,59687,1,8
256,192,59871,1,0
256,192,59963,1,0
256,192,60055,1,0
256,192,60239,1,0
256,192,60423,1,8
256,192,60607,1,0
256,192,60975,1,0
256,192,61159,1,8
256,192,61343,1,8
256,192,61527,1,0
256,192,61711,1,0
256,192,61896,1,8
256,192,62080,1,0
256,192,62448,1,0
256,192,62632,1,8
256,192,63000,1,0
256,192,63368,1,8
256,192,63552,1,4
256,192,63920,1,4
256,192,64104,1,12
256,192,64472,1,4
256,192,64656,1,4
256,192,64840,1,8
256,192,65024,1,4
256,192,65392,1,0
256,192,65576,1,8
256,192,65945,1,0
256,192,66037,1,8
256,192,66129,1,0
256,192,66313,1,8
256,192,66497,1,0
256,192,66865,1,0
256,192,67049,1,8
256,192,67233,1,0
256,192,67325,1,0
256,192,67417,1,0
256,192,67509,1,8
256,192,67601,1,0
256,192,67785,1,8
256,192,67969,1,0
256,192,68337,1,0
256,192,68521,1,8
256,192,68889,1,0
256,192,68981,1,8
256,192,69073,1,0
256,192,69257,1,8
256,192,69442,1,4
256,192,69810,1,0
256,192,69994,1,8
256,192,70178,1,0
256,192,70270,1,0
256,192,70362,1,0
256,192,70454,1,8
256,192,70546,1,0
256,192,70638,1,0
256,192,70730,1,8
256,192,70914,1,4
256,192,71282,1,0
256,192,71466,1,8
256,192,71650,1,0
256,192,71742,1,0
256,192,71926,1,8
256,192,72018,1,0
256,192,72202,1,8
256,192,72386,1,0
256,192,72754,1,0
256,192,72938,1,8
256,192,73122,1,0
256,192,73215,1,0
256,192,73399,1,8
256,192,73491,1,0
256,192,73675,1,8
256,192,73859,1,0
256,192,74227,1,0
256,192,74411,1,8
256,192,74779,1,0
256,192,74871,1,8
256,192,74963,1,0
256,192,75147,1,8
256,192,75331,1,4
256,192,75699,1,4
256,192,75883,1,12
256,192,76251,1,4
256,192,76435,1,4
256,192,76619,1,8
256,192,76803,1,4
256,192,77172,1,0
256,192,77356,1,8
256,192,77540,1,0
256,192,77632,1,0
256,192,77724,1,8
256,192,77816,1,8
256,192,77908,1,0
256,192,78092,1,8
256,192,78276,1,0
256,192,78644,1,0
256,192,78828,1,8
256,192,79012,1,0
256,192,79104,1,8
256,192,79196,1,0
256,192,79288,1,8
256,192,79380,1,0
256,192,79564,1,8
256,192,79748,1,0
256,192,80116,1,0
256,192,80300,1,8
256,192,80669,1,0
256,192,80761,1,8
256,192,80853,1,0
256,192,81037,1,8
256,192,81221,1,0
256,192,81589,1,0
256,192,81773,1,8
256,192,81957,1,0
256,192,82325,1,0
256,192,82509,1,8
256,192,82693,1,4
256,192,83061,1,0
256,192,83245,1,8
256,192,83429,1,0
256,192,83521,1,0
256,192,83613,1,0
256,192,83705,1,0
256,192,83797,1,8
256,192,83981,1,12
256,192,84165,1,12
256,192,84534,1,0
256,192,84718,1,8
256,192,84902,1,0
256,192,85086,1,0
256,192,85270,1,12
256,192,85638,1,12
256,192,85822,1,0
256,192,85914,1,0
256,192,86006,1,8
256,192,86098,1,8
256,192,86190,1,0
256,192,86282,1,0
256,192,86374,1,8
256,192,86466,1,8
256,192,86558,1,0
256,192,86742,1,4
256,192,86926,1,12
256,192,87294,1,4
256,192,87662,1,8
256,192,87846,1,0
256,192,88215,1,0
256,192,88399,1,8
256,192,88583,1,0
256,192,88767,1,0
256,192,88859,1,0
256,192,88951,1,8
256,192,89135,1,0
256,192,89319,1,8
256,192,89503,1,0
256,192,89595,1,0
256,192,89687,1,8
256,192,89871,1,0
256,192,90055,1,8
256,192,90239,1,0
256,192,90607,1,0
256,192,90791,1,8
256,192,90975,1,0
256,192,91159,1,8
256,192,91251,1,8
256,192,91343,1,0
256,192,91527,1,8
256,192,91711,1,0
256,192,92080,1,0
256,192,92264,1,8
256,192,92448,1,0
256,192,92540,1,0
256,192,92632,1,8
256,192,92724,1,8
256,192,92816,1,0
256,192,93000,1,8
256,192,93184,1,0
256,192,93368,1,0
256,192,93552,1,8
256,192,93736,1,0
256,192,94104,1,8
256,192,94196,1,8
256,192,94288,1,0
256,192,94472,1,8
256,192,94656,1,0
256,192,94840,1,0
256,192,95024,1,8
256,192,95208,1,0
256,192,95392,1,8
256,192,95484,1,8
256,192,95576,1,0
256,192,95669,1,0
256,192,95761,1,8
256,192,95945,1,0
256,192,96129,1,8
256,192,96313,1,0
256,192,96497,1,0
256,192,96681,1,8
256,192,96865,1,0
256,192,97049,1,0
256,192,97233,1,8
256,192,97417,1,0
256,192,97785,1,0
256,192,97969,1,8
256,192,98153,1,0
256,192,98337,1,8
256,192,98429,1,8
256,192,98521,1,0
256,192,98613,1,0
256,192,98705,1,0
256,192,98889,1,8
256,192,99073,1,4
256,192,99442,1,0
256,192,99626,1,8
256,192,99810,1,0
256,192,99902,1,0
256,192,99994,1,8
256,192,100178,1,0
256,192,100362,1,8
256,192,100546,1,4
256,192,100822,1,4
256,192,101098,1,4
256,192,101282,1,8
256,192,101466,1,0
256,192,101558,1,0
256,192,101650,1,8
256,192,101834,1,0
256,192,102018,1,12
256,192,102386,1,0
256,192,102570,1,8
256,192,102754,1,0
256,192,102938,1,0
256,192,103030,1,8
256,192,103122,1,0
256,192,103307,1,0
256,192,103491,1,0
256,192,103675,1,0
256,192,103859,1,12
256,192,104227,1,8
256,192,104411,1,0
256,192,104595,1,12
256,192,104963,1,4
256,192,105331,1,8
256,192,105515,1,0
256,192,105699,1,8
256,192,105791,1,8
256,192,105883,1,0
256,192,105975,1,0
256,192,106067,1,8
256,192,106251,1,0
256,192,106435,1,8
256,192,106803,1,8
256,192,106988,1,0
256,192,107172,1,8
256,192,107264,1,8
256,192,107356,1,0
256,192,107448,1,0
256,192,107540,1,0
256,192,107724,1,8
256,192,107908,1,0
256,192,108276,1,8
256,192,108644,1,0
256,192,108828,1,0
256,192,109012,1,8
256,192,109196,1,4
256,192,109564,1,0
256,192,109748,1,8
256,192,109932,1,4
256,192,110300,1,0
256,192,110484,1,8
256,192,110853,1,4
256,192,111221,1,8
256,192,111589,1,0
256,192,111681,1,8
256,192,111773,1,0
256,192,111957,1,0
256,192,112141,1,8
256,192,112325,1,0
256,192,112509,1,0
256,192,112693,1,8
256,192,112785,1,8
256,192,112877,1,0
256,192,112969,1,0
256,192,113061,1,8
256,192,113153,1,8
256,192,113245,1,0
256,192,113337,1,8
256,192,113429,1,0
256,192,113613,1,8
256,192,113797,1,0
256,192,114349,1,0
256,192,114534,1,8
256,192,114902,1,8
256,192,115086,1,0
256,192,115454,1,0
256,192,115638,1,0
256,192,116006,1,8
256,192,116374,1,0
256,192,116558,1,0
256,192,116742,1,8
256,192,117110,1,8
256,192,117294,1,0
256,192,117662,1,0
256,192,117846,1,8
256,192,118030,1,0
256,192,118399,1,0
256,192,118583,1,8
256,192,118951,1,8
256,192,119319,1,8
256,192,119687,1,0
256,192,120055,1,8
256,192,120239,1,0
256,192,120423,1,0
256,192,120607,1,0
256,192,120791,1,8
256,192,120975,1,0
256,192,121343,1,0
256,192,121527,1,8
256,192,121895,1,8
256,192,122080,1,0
256,192,122264,1,0
256,192,122448,1,4
256,192,122816,1,0
256,192,123000,1,8
256,192,123184,1,0
256,192,123276,1,0
256,192,123368,1,8
256,192,123552,1,0
256,192,123736,1,8
256,192,123920,1,0
256,192,124288,1,0
256,192,124472,1,8
256,192,124656,1,0
256,192,124840,1,0
256,192,124932,1,0
256,192,125024,1,0
256,192,125116,1,0
256,192,125208,1,8
256,192,125392,1,0
256,192,125576,1,8
256,192,125761,1,0
256,192,125945,1,8
256,192,126129,1,8
256,192,126497,1,8
256,192,126589,1,8
256,192,126681,1,0
256,192,126865,1,8
256,192,127049,1,0
256,192,127233,1,0
256,192,127417,1,8
256,192,127601,1,0
256,192,127785,1,8
256,192,127877,1,8
256,192,127969,1,8
256,192,128061,1,8
256,192,128153,1,0
256,192,128337,1,8
256,192,128521,1,4
256,192,128889,1,8
256,192,129073,1,0
256,192,129257,1,8
256,192,129349,1,8
256,192,129442,1,0
256,192,129534,1,0
256,192,129626,1,8
256,192,129810,1,0
256,192,129994,1,8
256,192,130178,1,0
256,192,130270,1,0
256,192,130362,1,8
256,192,130546,1,0
256,192,130638,1,0
256,192,130730,1,8
256,192,130914,1,0
256,192,131098,1,8
256,192,131282,1,8
256,192,131650,1,8
256,192,131834,1,0
256,192,132018,1,8
256,192,132110,1,8
256,192,132202,1,0
256,192,132386,1,8
256,192,132570,1,0
256,192,132754,1,8
256,192,132938,1,0
256,192,133122,1,8
256,192,133215,1,8
256,192,133307,1,0
256,192,133491,1,8
256,192,133675,1,0
256,192,133859,1,0
256,192,134227,1,4
256,192,134595,1,0
256,192,134779,1,8
256,192,134963,1,0
256,192,135055,1,0
256,192,135147,1,8
256,192,135331,1,0
256,192,135515,1,8
256,192,135699,1,0
256,192,135791,1,0
256,192,135883,1,8
256,192,136067,1,0
256,192,136251,1,8
256,192,136435,1,0
256,192,136527,1,0
256,192,136619,1,8
256,192,136711,1,8
256,192,136803,1,0
256,192,136988,1,8
256,192,137172,1,0
256,192,137356,1,8
256,192,137724,1,8
256,192,138092,1,8
256,192,138276,1,8
256,192,138368,1,8
256,192,138460,1,0
256,192,138552,1,0
256,192,138644,1,8
256,192,138828,1,0
256,192,139012,1,8
256,192,139196,1,0
256,192,139380,1,0
256,192,139472,1,0
256,192,139564,1,8
256,192,139748,1,0
256,192,139932,1,8
256,192,140116,12,0,141221
256,192,141405,5,0
256,192,141589,1,8
256,192,142141,1,12
256,192,142509,1,12
256,192,142877,1,8
256,192,143061,1,0
256,192,143153,1,0
256,192,143245,1,8
256,192,143337,1,8
256,192,143429,1,0
256,192,143613,1,8
256,192,143797,1,0
256,192,143981,1,8
256,192,144165,1,0
256,192,144349,1,8
256,192,144442,1,8
256,192,144534,1,0
256,192,144626,1,0
256,192,144718,1,8
256,192,144902,1,0
256,192,145086,1,8
256,192,145454,1,0
256,192,145638,1,8
256,192,146006,2,0,B|352:192|448:192|448:192|448:32|448:32|352:32,1,420
256,192,147294,1,8
256,192,147478,1,0
256,192,147662,1,8
256,192,147754,1,8
256,192,147846,1,0
256,192,148030,1,8
256,192,148215,1,0
256,192,148399,1,8
256,192,148583,1,0
256,192,148675,1,0
256,192,148767,1,8
256,192,148951,1,0
256,192,149135,1,8
256,192,149503,1,0
256,192,149871,1,8
256,192,150055,1,0
256,192,150147,1,0
256,192,150239,1,8
256,192,150423,1,0
256,192,150607,1,8
256,192,150699,1,8
256,192,150791,1,8
256,192,150883,1,8
256,192,150975,1,0
256,192,151159,1,8
256,192,151343,1,0
256,192,151527,1,8
256,192,151711,1,8
256,192,151896,12,0,153368
256,192,153736,5,0
256,192,153920,1,8
256,192,154104,1,0
256,192,154288,1,0
256,192,154380,1,0
256,192,154472,1,0
256,192,154564,1,8
256,192,154656,1,0
256,192,154840,1,8
256,192,155208,1,0
256,192,155392,1,8
256,192,155761,1,8
256,192,155945,1,12
256,192,156129,1,12
256,192,156313,1,4
256,192,156681,1,0
256,192,156865,1,8
256,192,157233,1,8
256,192,157417,1,12
256,192,157601,1,4
256,192,157785,1,4
256,192,158153,1,0
256,192,158337,1,8
256,192,158705,1,8
256,192,158889,1,4
256,192,159073,1,4
256,192,159257,1,12
256,192,159442,1,0
256,192,159626,1,12
256,192,159810,1,0
256,192,159994,1,12
256,192,160178,1,0
256,192,160362,1,12
256,192,160546,1,0
256,192,160730,1,12
256,192,161098,1,0
256,192,161282,1,8
256,192,161650,1,8
256,192,161834,1,12
256,192,162018,1,12
256,192,162202,1,4
256,192,162570,1,0
256,192,162754,1,8
256,192,163122,1,8
256,192,163307,1,12
256,192,163491,1,4
256,192,163675,1,4
256,192,164043,1,0
256,192,164227,1,8
256,192,164595,1,8
256,192,164779,1,4
256,192,164963,1,4
256,192,165147,1,12
256,192,165331,1,0
256,192,165515,1,12
256,192,165699,1,0
256,192,165883,1,12
256,192,166067,1,0
256,192,166251,1,8
256,192,166343,1,8
256,192,166435,1,0
256,192,166619,1,8
256,192,166988,1,0
256,192,167172,1,8
256,192,167540,1,0
256,192,167632,1,8
256,192,167724,1,0
256,192,167908,1,8
256,192,168092,1,0
256,192,168460,1,0
256,192,168644,1,8
256,192,168828,1,0
256,192,169012,1,0
256,192,169104,1,8
256,192,169196,1,0
256,192,169288,1,0
256,192,169380,1,8
256,192,169564,1,8
256,192,169932,1,0
256,192,170116,1,8
256,192,170484,1,8
256,192,170669,1,8
256,192,171037,1,4
256,192,171405,1,8
256,192,171589,1,8
256,192,171773,1,4
256,192,172141,1,8
256,192,172325,1,0
256,192,172509,1,8
256,192,172877,1,0
256,192,173061,1,8
256,192,173245,1,8
256,192,173429,1,0
256,192,173521,1,8
256,192,173613,1,0
256,192,173797,1,8
256,192,173981,1,0
256,192,174349,1,8
256,192,174534,1,0
256,192,174718,1,0
256,192,175086,1,8
256,192,175270,1,8
256,192,175454,1,0
256,192,175822,1,0
256,192,176006,1,8
256,192,176374,1,0
256,192,176466,1,8
256,192,176558,1,0
256,192,176742,1,8
256,192,176926,1,4
256,192,177110,1,0
256,192,177294,1,0
256,192,177386,1,0
256,192,177478,1,8
256,192,177662,1,4
256,192,177846,1,0
256,192,178030,1,8
256,192,178399,1,4
256,192,178951,1,0
256,192,179043,1,0
256,192,179135,1,0
256,192,179227,1,0
256,192,179319,1,8
256,192,179411,1,8
256,192,179503,1,8
256,192,179595,1,8
256,192,179687,1,0
256,192,179871,12,0,180975
256,192,181159,5,8
256,192,181343,1,8
256,192,181527,1,0
256,192,181711,1,0
256,192,181896,1,8
256,192,182080,1,8
256,192,182264,1,0
256,192,182448,1,8
256,192,182632,1,0
256,192,182816,1,8
256,192,183184,1,0
256,192,183552,1,8
256,192,183736,1,0
256,192,183920,1,0
256,192,184104,1,8
256,192,184288,1,0
256,192,184472,1,8
256,192,184840,1,0
256,192,185208,1,8
256,192,185392,1,0
256,192,185576,1,0
256,192,185761,1,8
256,192,185945,1,0
256,192,186129,1,0
256,192,186313,1,8
256,192,186681,1,0
256,192,186865,1,8
256,192,187049,1,0
256,192,187233,1,0
256,192,187417,1,12
256,192,187785,1,0
256,192,187969,1,8
256,192,188153,1,0
256,192,188521,1,8
256,192,188705,1,0
256,192,188889,1,8
256,192,189257,1,0
256,192,189442,1,0
256,192,189626,1,8
256,192,189810,1,0
256,192,189994,1,0
256,192,190178,1,8
256,192,190546,1,0
256,192,190730,1,8
256,192,190914,1,0
256,192,191098,1,8
256,192,191190,1,8
256,192,191282,1,8
256,192,191374,1,8
256,192,191466,1,0
256,192,191650,1,8
256,192,192202,1,8
256,192,192570,1,0
256,192,192754,1,8
256,192,192938,1,0
256,192,193122,1,8
256,192,193215,1,8
256,192,193307,1,0
256,192,193399,1,0
256,192,193491,1,0
256,192,193675,1,8
256,192,193859,1,0
256,192,194043,1,0
256,192,194135,1,0
256,192,194227,1,8
256,192,194411,1,0
256,192,194595,1,8
256,192,194687,1,8
256,192,194779,1,0
256,192,194871,1,0
256,192,194963,1,8
256,192,195147,1,0
256,192,195331,1,8
256,192,195699,1,0
256,192,195791,1,0
256,192,195883,1,8
256,192,196067,1,0
256,192,196251,1,8
256,192,196619,1,0
256,192,196988,1,8
256,192,197356,1,0
256,192,197540,1,0
256,192,197724,1,8
256,192,198092,1,0
256,192,198460,1,8
256,192,198828,1,0
256,192,199012,1,8
256,192,199196,1,0
256,192,199380,1,8
256,192,199564,1,8
256,192,199932,1,0
256,192,200300,1,8
256,192,200484,1,0
256,192,200853,1,0
256,192,201037,1,8
256,192,201405,1,8
256,192,201589,1,8
256,192,201957,1,0
256,192,202509,1,0
256,192,202877,1,8
256,192,203245,1,0
256,192,203613,1,0
256,192,203981,1,0
256,192,204349,1,8
256,192,204718,1,0
256,192,204902,1,0
256,192,205086,1,0
256,192,205270,1,0
256,192,205454,1,8
256,192,205638,1,0
256,192,205822,1,8
256,192,206006,1,0
256,192,206098,1,0
256,192,206190,1,8
256,192,206374,1,0
256,192,206558,1,8
256,192,206742,1,0
256,192,206834,1,0
256,192,206926,1,8
256,192,207110,1,0
256,192,207294,1,8
256,192,207386,1,8
256,192,207478,1,0
256,192,207570,1,0
256,192,207662,1,8
256,192,207846,1,4
256,192,208215,1,0
256,192,208399,1,8
256,192,208583,1,0
256,192,208675,1,8
256,192,208767,1,0
256,192,208859,1,8
256,192,208951,1,0
256,192,209135,1,8
256,192,209319,1,0
256,192,209687,1,0
256,192,209871,1,8
256,192,210055,1,0
256,192,210147,1,8
256,192,210331,1,8
256,192,210423,1,0
256,192,210607,1,8
256,192,210791,1,8
256,192,211159,1,0
256,192,211343,1,8
256,192,211711,1,0
256,192,212080,1,8
256,192,212264,1,4
256,192,212632,1,12
256,192,212816,1,4
256,192,213184,1,4
256,192,213368,1,12
256,192,213736,1,4
256,192,214104,1,0
256,192,214196,1,0
256,192,214288,1,8
256,192,214380,1,0
256,192,214472,1,0
256,192,214656,1,8
256,192,214840,1,0
256,192,214932,1,0
256,192,215024,1,8
256,192,215208,1,0
256,192,215576,1,0
256,192,215669,1,0
256,192,215761,1,8
256,192,215853,1,0
256,192,215945,1,8
256,192,216129,1,0
256,192,216313,1,0
256,192,216497,1,8
256,192,216681,1,0
256,192,217049,1,8
256,192,217233,1,8
256,192,217601,1,0
256,192,217693,1,8
256,192,217785,1,0
256,192,217969,1,8
256,192,218153,1,0
256,192,218521,1,0
256,192,218613,1,0
256,192,218705,1,8
256,192,218889,1,0
256,192,219257,1,0
256,192,219349,1,8
256,192,219442,1,0
256,192,219626,1,4
256,192,219994,1,0
256,192,220178,1,8
256,192,220362,1,0
256,192,220454,1,0
256,192,220546,1,0
256,192,220638,1,0
256,192,220730,1,8
256,192,220914,1,12
256,192,221098,1,12
256,192,221466,1,0
256,192,221650,1,8
256,192,221834,1,0
256,192,222018,1,0
256,192,222202,1,4
256,192,222570,1,4
256,192,222754,1,0
256,192,222846,1,0
256,192,222938,1,0
256,192,223030,1,0
256,192,223122,1,8
256,192,223215,1,8
256,192,223307,1,8
256,192,223399,1,8
256,192,223491,1,0
256,192,223675,1,4
256,192,223859,1,12
256,192,224227,1,0
256,192,224411,1,0
256,192,224503,1,0
256,192,224595,1,8
256,192,224779,1,0
256,192,224963,1,8
256,192,225147,1,0
256,192,225239,1,0
256,192,225331,1,8
256,192,225515,1,0
256,192,225699,1,8
256,192,225883,1,0
256,192,225975,1,0
256,192,226067,1,0
256,192,226251,1,0
256,192,226435,1,8
256,192,226527,1,8
256,192,226619,1,8
256,192,226711,1,8
256,192,226803,1,0
256,192,226988,1,8
256,192,227172,1,0
256,192,227356,1,0
256,192,227540,1,8
256,192,227724,1,0
256,192,228092,1,0
256,192,228276,1,8
256,192,228460,1,0
256,192,228644,1,0
256,192,228736,1,0
256,192,228828,1,8
256,192,229012,1,0
256,192,229104,1,0
256,192,229196,1,0
256,192,229288,1,0
256,192,229380,1,8
256,192,229564,1,0
256,192,229748,1,8
256,192,229932,1,8
256,192,230116,1,0
256,192,230484,1,8
256,192,230669,1,0
256,192,231037,1,0
256,192,231221,1,8
256,192,231405,1,0
256,192,231497,1,0
256,192,231589,1,0
256,192,231773,1,0
256,192,231957,1,8
256,192,232141,1,0
256,192,232325,1,8
256,192,232417,1,0
256,192,232509,1,0
256,192,232601,1,0
256,192,232693,1,8
256,192,232785,1,0
256,192,232877,1,0
256,192,232969,1,0
256,192,233061,1,8
256,192,233245,1,0
256,192,233429,1,8
256,192,233797,1,0
256,192,233981,1,0
256,192,234165,1,8
256,192,234349,1,0
256,192,234718,1,0
256,192,234779,1,0
256,192,234840,1,0
256,192,234902,1,8
256,192,235086,1,0
256,192,235270,1,0
256,192,235454,1,8
256,192,235638,1,0
256,192,235822,1,4
