osu file format v9

[General]
AudioFilename: ELISA - Wonder Wind.mp3
AudioLeadIn: 0
PreviewTime: 58583
Countdown: 0
SampleSet: Normal
StackLeniency: 0.7
Mode: 0
LetterboxInBreaks: 1

[Editor]
DistanceSpacing: 1
BeatDivisor: 4
GridSize: 8

[Metadata]
Title:Wonder Wind
Artist:ELISA
Creator:0OoMickeyoO0
Version:Normal
Source:Hayate no Gotoku!!
Tags:termerys Netsukawa KinomiCandy

[Difficulty]
HPDrainRate:3
CircleSize:3
OverallDifficulty:3
ApproachRate:4
SliderMultiplier:1.28
SliderTickRate:1

[Events]
//Background and Video events
0,0,"BG.jpg"
//Break Periods
2,87494,97753
2,166819,179839
2,196244,200637
//Storyboard Layer 0 (Background)
//Storyboard Layer 1 (Fail)
//Storyboard Layer 2 (Pass)
//Storyboard Layer 3 (Foreground)
//Storyboard Sound Samples
//Background Colour Transformations
3,100,163,162,255

[TimingPoints]
1896,368.098159509202,4,1,0,60,1,0
18184,-100,4,2,1,70,0,0
19104,-100,4,2,2,60,0,0
19288,-100,4,2,1,70,0,0
20945,-100,4,1,0,60,0,0
21129,-100,4,2,1,70,0,0
22049,-100,4,2,2,60,0,0
22233,-100,4,2,1,70,0,0
23889,-100,4,1,0,60,0,0
24257,-100,4,2,2,60,0,0
24442,-100,4,2,1,70,0,0
26834,-100,4,1,0,60,0,0
27202,-100,4,2,2,60,0,0
27386,-100,4,2,1,70,0,0
29411,-100,4,1,0,60,0,0
29595,-100,4,2,1,70,0,0
58859,-100,4,1,0,60,0,0
59319,-100,4,2,1,70,0,1
61067,-100,4,2,2,60,0,1
61251,-100,4,2,1,70,0,1
63276,-100,4,2,2,60,0,1
63460,-100,4,2,1,70,0,1
66221,-100,4,2,2,60,0,1
66405,-100,4,2,1,70,0,1
69165,-100,4,2,2,60,0,1
69349,-100,4,2,1,70,0,1
70730,-100,4,2,1,70,0,0
70914,-100,4,2,1,70,0,1
75055,-100,4,2,2,60,0,1
75239,-100,4,2,1,70,0,1
76527,-100,4,2,2,60,0,1
76711,-100,4,2,1,70,0,1
78000,-100,4,2,2,60,0,1
78184,-100,4,2,1,70,0,1
79472,-100,4,2,2,60,0,1
79656,-100,4,2,1,70,0,1
80945,-100,4,2,2,60,0,1
81129,-100,4,2,1,70,0,1
84165,-100,4,2,1,70,0,0
84626,-100,4,1,0,60,0,0
84810,-100,4,2,1,70,0,0
87202,-100,4,1,0,60,0,0
87386,-100,4,2,1,70,0,0
99165,-100,4,1,0,60,0,0
102110,-100,4,2,1,70,0,0
103767,-100,4,1,0,60,0,0
103951,-100,4,2,1,70,0,0
104503,-100,4,1,0,60,0,0
105055,-100,4,2,1,70,0,0
106711,-100,4,2,2,60,0,0
106895,-100,4,2,1,70,0,0
128061,-100,4,1,0,60,0,0
128245,-100,4,2,1,70,0,0
128521,-100,4,2,1,70,0,1
130270,-100,4,2,2,60,0,1
130454,-100,4,2,1,70,0,1
132478,-100,4,2,2,60,0,1
132662,-100,4,2,1,70,0,1
133951,-100,4,2,2,60,0,1
134135,-100,4,2,1,70,0,1
139932,-100,4,2,1,70,0,0
140116,-100,4,2,1,70,0,1
147202,-100,4,2,2,60,0,1
147386,-100,4,2,1,70,0,1
148675,-100,4,2,2,60,0,1
148859,-100,4,2,1,70,0,1
149411,-100,4,2,2,60,0,1
149595,-100,4,2,1,70,0,1
153092,-100,4,2,2,60,0,1
153368,-100,4,2,1,70,0,0
153828,-100,4,1,0,60,0,0
154012,-100,4,2,1,70,0,0
191374,-100,4,2,2,60,0,0
191558,-100,4,2,1,70,0,0
192846,-100,4,2,2,60,0,0
193030,-100,4,2,1,70,0,0
204257,-100,4,2,2,60,0,0
204810,-100,4,2,1,70,0,0
207846,-100,4,2,1,70,0,1
209779,-100,4,2,2,60,0,1
209963,-100,4,2,1,70,0,1
211988,-100,4,2,2,60,0,1
212172,-100,4,2,1,70,0,1
213460,-100,4,2,2,60,0,1
213644,-100,4,2,1,70,0,1
215669,-100,4,2,2,60,0,1
215853,-100,4,2,1,70,0,1
220822,-100,4,2,2,60,0,1
221098,-100,4,2,1,70,0,0
221558,-100,4,1,0,60,0,0
221742,-100,4,2,1,70,0,0
225239,-100,4,2,2,60,0,0
225423,-100,4,2,1,70,0,0
227080,-100,4,1,0,60,0,0
227264,-100,4,2,1,70,0,0
228184,-100,4,2,2,60,0,0
228368,-100,4,2,1,70,0,0
230024,-100,4,1,0,60,0,0
230208,-100,4,2,2,60,0,0
230576,-100,4,2,1,70,0,0
232969,-100,4,1,0,60,0,0
233153,-100,4,2,1,70,0,0
234073,-100,4,2,2,60,0,0
234257,-100,4,2,1,70,0,0
234810,-100,4,1,0,60,0,0
234994,-100,4,2,1,70,0,0
238675,-100,4,2,1,5,0,0

[Colours]
Combo1 : 255,255,128
Combo2 : 179,255,102
Combo3 : 0,128,255
Combo4 : 255,128,128

[HitObjects]
164,240,15331,2,0,B|256:288|348:240,2,192,2|2|2
136,120,17724,5,8
256,80,18092,1,4
376,120,18460,2,0,B|360:224|360:224|256:176|152:224,1,320,8|0
296,344,19932,2,0,B|360:368|424:344,2,128,10|2|10
360,232,21037,5,0
264,144,21405,2,0,B|160:96|56:144|56:144|40:40,1,320,8|4
232,40,22877,2,0,B|296:48|352:96,2,128,10|2|10
128,120,23981,6,0,B|80:192|124:272|124:272|208:248|280:296,1,320,4|2
392,352,25270,2,0,B|464:280|424:168,1,192,4|10
384,56,26190,1,2
264,88,26558,1,10
304,208,26926,6,0,B|240:336|88:312,1,256,4|0
128,192,28030,2,0,B|160:192|192:176,1,64,8|4
384,192,28767,2,0,B|352:192|320:176,1,64,8|4
256,360,29503,2,0,B|256:232,1,128,8|4
144,168,30239,6,0,B|72:184|32:128,2,128,8|0|8
256,104,31343,1,0
368,168,31711,2,0,B|440:184|480:128,2,128,8|0|8
312,288,32816,6,0,B|256:248|192:288,3,128,0|8|0|8
64,272,34288,2,0,B|32:208|64:144,1,128,0|12
176,208,35024,2,0,B|208:144|176:80,2,128,0|12|4
176,336,36129,6,0,B|312:376|400:256,1,256,8|8
304,172,37233,1,0
336,48,37601,2,0,B|200:8|112:128,1,256,8|8
208,212,38705,6,0,B|240:280|320:276,1,128,0|8
440,272,39442,1,0
380,160,39810,2,0,B|348:160|324:184,1,64,8|4
132,160,40546,2,0,B|164:160|188:184,1,64,8|4
320,328,41282,2,0,B|256:360|192:328,1,128,8|4
256,216,42018,5,8
360,144,42386,1,0
256,72,42754,2,0,B|224:72|192:56,1,64,8|6
80,120,43307,2,0,B|52:104|16:104,2,64,2|8|6
80,248,44043,2,0,B|112:248|144:232,1,64,2|8
232,144,44595,6,0,B|336:120|412:200|392:304,2,256,4|8|0
272,264,46435,1,2
160,328,46803,1,10
64,240,47172,1,2
104,120,47540,6,0,B|176:120|224:80|224:80|272:40|344:40,2,256,2|8|0
144,240,49380,1,2
256,304,49748,1,10
368,240,50116,1,2
256,176,50484,6,0,B|320:48|464:48,2,256,6|8|0
368,240,52325,1,2
256,304,52693,1,10
144,240,53061,2,0,B|112:240|80:224,1,64,10|4
56,32,53797,6,0,B|112:64|144:136,1,128,8|0
256,184,54534,2,0,B|256:256,1,64,8|4
408,360,55270,2,0,B|480:328|496:248,1,128,8|0
368,240,56006,2,0,B|344:216|328:184,1,64,8|4
144,240,56742,6,0,B|168:216|184:184,1,64,8|4
192,64,57294,2,0,B|264:32|336:72,1,128,8|12
408,152,58030,2,0,B|436:172|472:172,2,64,12|12|12
316,320,58951,2,0,B|244:352|172:312,1,128,8|4
96,240,59687,5,8
296,80,60423,1,8
168,64,60791,2,0,B|168:176|272:208,1,192,0|2
456,248,61896,6,0,B|444:96|296:80,1,256,8|8
168,64,63000,2,0,B|184:168|88:224,2,192,0|2|10
296,88,64472,2,0,B|328:88|360:72,1,64,2|2
408,192,65024,6,0,B|368:232|368:232|368:308|320:356,1,192,4|8
192,356,65945,2,0,B|144:308|144:232|144:232|104:192,1,192,0|0
248,64,67049,2,0,B|272:128|240:192,1,128,10|0
248,312,67785,2,0,B|280:304|304:280,1,64,8|0
136,192,68521,5,8
264,192,68889,2,0,B|308:216|356:192|356:192|404:168|448:192,1,192,0|4
224,320,70178,1,4
224,64,70914,1,4
296,256,71466,6,0,B|340:312|300:380,2,128,8|0|8
296,128,72570,2,0,B|340:72|300:4,2,128,0|10|0
104,104,73859,6,0,B|60:156|60:228|104:280,1,192,4|8
232,256,74779,2,0,B|344:232|408:312,2,192,0|2|10
232,128,76251,2,0,B|344:152|408:72,1,192,2|4
448,264,77356,5,8
320,264,77724,2,0,B|276:316|196:316|152:264,2,192,0|0|10
320,128,79196,2,0,B|276:76|196:76|152:128,2,192,0|0|8
236,224,80669,2,0,B|144:284|56:224,1,192,0|4
256,64,81957,5,4
456,224,82693,2,0,B|368:284|276:224,1,192,4|8
128,104,83797,2,0,B|96:96|64:104,2,64,2|10|6
276,224,84718,6,0,B|368:164|456:224,1,192,8|4
368,320,85638,1,4
256,192,85822,12,4,87294
256,192,99073,5,4
208,64,100546,6,0,B|256:40|308:68,2,96,2|2|2
256,328,102018,1,2
316,128,103491,6,0,B|276:104|236:104|196:128,1,128,0|2
196,256,104227,2,0,B|236:280|276:280|316:256,1,128,0|2
432,192,104963,5,6
424,64,105331,2,0,B|320:48|320:48|280:120|184:104,1,256,8|8
64,80,106435,2,0,B|8:224|136:320,1,256
248,336,107540,1,8
352,256,107908,6,0,B|408:208|488:240,2,128,0|8|0
380,132,109012,2,0,B|348:136|320:156,1,64,8|4
132,132,109748,2,0,B|164:136|192:156,1,64,8|4
352,256,110484,1,8
224,288,110853,6,0,B|160:320|100:288,2,128,4|8|0
192,168,111957,2,0,B|228:156|268:168,1,64,8|6
352,256,112509,2,0,B|384:256|424:240,2,64,2|8|6
224,288,113245,2,0,B|184:280|152:296,1,64,2|8
192,168,113797,6,0,B|88:168|64:56|64:56|-16:32,2,256,4|8|0
264,64,115638,1,2
384,104,116006,1,10
384,232,116374,1,2
264,272,116742,6,0,B|208:304|140:276|140:276|72:304|16:272,2,256,2|8|0
344,176,118583,2,0,B|392:220|388:292,2,128,2|10|2
264,72,119687,6,0,B|204:44|140:76|140:76|76:108|16:80,2,256,6|8|0
392,72,121527,2,0,B|392:144|328:184,1,128,2|10
216,232,122264,2,0,B|184:248|168:280,1,64,10|4
80,112,123000,6,0,B|120:56|192:56,1,128,8|0
312,88,123736,2,0,B|340:104|376:104,1,64,8|4
472,272,124472,2,0,B|424:224|352:232,1,128,8|0
256,312,125208,2,0,B|228:296|216:264,1,64,8|4
256,72,125945,6,0,B|228:88|216:120,1,64,8|4
112,192,126497,1,8
192,296,126865,1,12
64,312,127233,2,0,B|32:312|0:328,2,64,12|12|12
216,192,128153,2,0,B|360:192,1,128,8|4
416,88,128889,6,0,B|500:132|500:252|416:296,1,256,8|8
288,320,129994,2,0,B|208:264|96:296,2,192,0|2|8
328,368,131282,1,0
464,232,131834,5,8
344,192,132202,2,0,B|228:228|176:128,2,192,0|2|10
288,80,133675,2,0,B|404:44|456:144,1,192,2|4
384,320,134779,5,8
288,80,135515,2,0,B|216:152|216:152|136:112|64:152,1,256,8|10
16,184,136435,1,2
180,280,136988,2,0,B|256:320|332:280|332:280|404:352,1,256,8|10
488,176,138276,5,0
380,108,138644,2,0,B|256:164|132:108,2,256,4|4|4
320,288,140669,6,0,B|256:324|184:280,2,128,8|0|8
416,200,141773,1,0
440,72,142141,2,0,B|336:72|296:160|296:160|200:128,1,256,10|8
128,216,143245,6,0,B|272:264,2,128,0|8|0
128,88,144349,2,0,B|160:80|192:88,1,64,8|2
312,120,144902,2,0,B|336:136|352:168,1,64,2|10
384,296,145454,2,0,B|392:328|384:360,1,64,2|2
256,336,146006,6,0,B|192:360|136:336|136:336|112:264,1,192,4|8
72,152,146926,2,0,B|136:128|192:152|192:152|216:224,2,192,0|0|10
8,40,148399,2,0,B|136:-8|264:40,2,256
72,152,150239,6,0,B|112:96,1,64,8|4
240,240,150975,2,0,B|280:184,1,64,8|4
408,328,151711,2,0,B|448:272,1,64,8|4
444,84,152448,1,8
328,144,152816,2,0,B|216:144|168:56,1,192,0|4
32,192,153920,5,8
168,328,154472,2,0,B|236:308|288:352,1,128,4|4
408,72,155945,6,0,B|440:80|472:72,2,64,4|4|4
104,312,157417,2,0,B|72:304|40:312,2,64,4|4|4
408,312,158889,6,0,B|440:320|472:312,2,64,4|4|4
440,192,159626,1,4
320,144,159994,1,4
192,144,160362,1,4
72,192,160730,1,4
408,312,161834,6,0,B|440:304|472:312,2,64,4|4|4
104,72,163307,2,0,B|72:80|40:72,2,64,4|4|4
408,72,164779,6,0,B|440:64|472:72,2,64,4|4|4
440,192,165515,1,8
320,240,165883,1,4
192,240,166251,1,8
72,192,166619,1,4
160,56,181159,6,0,B|208:112|184:200,1,128,8|4
64,320,182080,2,0,B|32:264,1,64,0|8
224,264,182816,2,0,B|192:320,1,64,0|0
128,208,183368,1,2
256,184,183736,1,10
384,208,184104,1,2
368,80,184472,6,0,B|324:12|188:12|144:80,2,256,2|10|0
384,208,186313,1,2
256,232,186681,1,10
128,208,187049,1,2
160,328,187417,6,0,B|256:368|352:328|352:328|408:360,2,256,6|8|0
192,208,189257,1,2
320,208,189626,1,10
256,96,189994,2,0,B|256:32,1,64,10|4
64,64,190730,6,0,B|48:168|104:280|240:288,1,320,8|4
256,96,192202,2,0,B|352:48|488:104|488:248,1,320,8|4
308,280,193675,6,0,B|288:312|256:328,1,64,8|4
136,328,194227,2,0,B|80:280|96:200,1,128,8|4
204,152,194963,2,0,B|244:144|268:160,2,64,4|4|4
440,320,201957,6,0,B|448:208|344:160,1,192,4|8
248,240,202877,1,8
128,280,203245,2,0,B|120:312|96:336,1,64,8|4
32,152,203981,2,0,B|88:56|232:40|320:128,1,320,8|4
184,264,205454,6,0,B|232:312|308:316,1,128,8|8
408,256,206190,2,0,B|408:216|384:184,1,64,8|4
256,56,206926,2,0,B|256:96|280:128,1,64,8|4
408,256,207662,2,0,B|408:296|384:328,1,64,8|4
216,232,208399,6,0,B|144:224|80:280,2,128,8|0|8
320,312,209503,2,0,B|408:256|384:144,1,192,0|2
192,112,210607,2,0,B|160:128|120:120,1,64,8|0
32,288,211343,5,8
128,208,211711,2,0,B|240:220|296:132,2,192,0|2|10
152,336,213184,2,0,B|240:272|344:304,1,192,2|4
400,120,214288,5,8
280,64,214656,1,0
192,160,215024,1,8
72,112,215392,2,0,B|16:192|56:304,1,192,0|2
232,224,216497,2,0,B|264:232|288:256,1,64,8|0
456,352,217233,5,8
456,224,217601,1,0
368,128,217969,2,0,B|352:104|352:64,1,64,8|4
368,256,218705,2,0,B|352:280|352:320,1,64,8|4
208,192,219442,2,0,B|136:192,1,64,8|4
8,56,220178,5,8
8,184,220546,2,0,B|32:280|144:312,1,192,0|4
184,128,221650,2,0,B|272:72|384:120,1,192,8|4
480,184,222570,1,4
256,192,222754,12,4,224227
464,112,224963,6,0,B|384:56|272:88,1,192
368,256,226067,2,0,B|432:280|496:256,2,128,10|2|10
248,208,227172,5,0
320,96,227540,2,0,B|240:56|168:104|168:104|88:64|16:112,1,320,8|4
116,276,229012,2,0,B|184:300|244:268,2,128,10|2|10
176,160,230116,6,0,B|220:64|348:24|452:80,1,320,4|2
432,208,231405,2,0,B|360:276|252:264,1,192,4|10
176,160,232325,1,2
72,232,232693,1,10
144,336,233061,6,0,B|192:384|264:368,1,128,4|8
232,240,233797,2,0,B|280:264|324:240|324:240|368:216|416:240,2,192,0|0|8
256,48,235454,1,4
256,48,235822,1,4
256,192,236006,12,0,238675
