osu file format v9

[General]
AudioFilename: ELISA - Wonder Wind.mp3
AudioLeadIn: 0
PreviewTime: 58583
Countdown: 0
SampleSet: Normal
StackLeniency: 0.7
Mode: 0
LetterboxInBreaks: 1

[Editor]
DistanceSpacing: 1.1
BeatDivisor: 4
GridSize: 8

[Metadata]
Title:Wonder Wind
Artist:ELISA
Creator:0OoMickeyoO0
Version:Hard
Source:Hayate no Gotoku!!
Tags:termerys Netsukawa KinomiCandy

[Difficulty]
HPDrainRate:5
CircleSize:4
OverallDifficulty:5
ApproachRate:7
SliderMultiplier:1.44
SliderTickRate:1

[Events]
//Background and Video events
0,0,"BG.jpg"
//Break Periods
2,87494,98173
2,155040,165351
2,196244,201057
//Storyboard Layer 0 (Background)
//Storyboard Layer 1 (Fail)
//Storyboard Layer 2 (Pass)
//Storyboard Layer 3 (Foreground)
//Storyboard Sound Samples
//Background Colour Transformations
3,100,163,162,255

[TimingPoints]
1896,368.098159509202,4,1,0,60,1,0
18184,-100,4,2,1,70,0,0
20945,-100,4,1,0,60,0,0
21129,-100,4,2,1,70,0,0
23889,-100,4,1,0,60,0,0
24073,-100,4,2,1,70,0,0
26834,-100,4,1,0,60,0,0
27018,-100,4,2,1,70,0,0
29411,-100,4,1,0,60,0,0
29595,-100,4,2,1,70,0,0
44595,-133.333333333333,4,2,1,60,0,0
53245,-100,4,2,1,70,0,0
58859,-100,4,1,0,60,0,0
59319,-100,4,2,1,70,0,1
70730,-100,4,2,1,70,0,0
70914,-100,4,2,1,70,0,1
84165,-100,4,2,1,70,0,0
84626,-100,4,1,0,60,0,0
84810,-100,4,2,1,70,0,0
87202,-100,4,1,0,60,0,0
87386,-100,4,2,1,70,0,0
99165,-100,4,1,0,60,0,0
102110,-100,4,2,1,70,0,0
103767,-100,4,1,0,60,0,0
103951,-100,4,2,1,70,0,0
104503,-100,4,1,0,70,0,0
105055,-100,4,2,1,70,0,0
113797,-133.333333333333,4,2,1,60,0,0
122448,-100,4,2,1,70,0,0
128061,-100,4,1,0,60,0,0
128245,-100,4,2,1,70,0,0
128521,-100,4,2,1,70,0,1
139932,-100,4,2,1,70,0,0
140116,-100,4,2,1,70,0,1
153368,-100,4,2,1,70,0,0
153828,-100,4,1,0,60,0,0
154012,-100,4,2,1,70,0,0
181527,-133.333333333333,4,2,1,60,0,0
190178,-100,4,2,1,70,0,0
207846,-100,4,2,1,70,0,1
221098,-100,4,2,1,70,0,0
221558,-100,4,1,0,60,0,0
221742,-100,4,2,1,70,0,0
227080,-100,4,1,0,60,0,0
227264,-100,4,2,1,70,0,0
230024,-100,4,1,0,60,0,0
230208,-100,4,2,1,70,0,0
232969,-100,4,1,0,60,0,0
233153,-100,4,2,1,70,0,0
233889,-100,4,1,0,60,0,0
234994,-100,4,2,1,70,0,0
238675,-100,4,2,1,5,0,0

[Colours]
Combo1 : 255,255,128
Combo2 : 179,255,102
Combo3 : 0,128,255
Combo4 : 255,128,128

[HitObjects]
208,104,15331,2,0,B|188:136|152:152,1,72,2|2
304,104,15883,2,0,B|324:136|360:152,1,72,2|2
256,272,16435,1,2
256,272,17724,5,8
256,272,18092,2,0,B|200:224|104:248,1,144,4|8
48,272,18644,2,0,B|24:240|24:192,3,72,0|2|2|8
32,128,19380,2,0,B|88:72|176:96,1,144,0|0
136,168,19932,1,10
256,272,20300,1,2
376,168,20669,1,10
256,272,21037,6,0,B|336:248|392:296,1,144,0|8
456,152,21773,2,0,B|472:184|472:224,2,72,2|2|8
376,168,22325,2,0,B|296:192|232:128,1,144,4|0
184,88,22877,1,10
64,192,23245,1,2
184,296,23613,1,10
64,192,23981,6,0,B|104:180|136:192|136:192|168:204|208:192,1,144,4|8
280,168,24534,1,0
264,248,24718,2,0,B|280:280|320:296,1,72,2|2
392,328,25086,1,8
392,328,25270,2,0,B|456:288|456:200,1,144,4|0
408,144,25822,1,10
256,192,26190,1,2
104,144,26558,1,10
256,96,26926,6,0,B|320:76|320:76|344:40|392:32,1,144,4|8
432,184,27662,2,0,B|468:208|476:256,2,72,2|2|8
392,256,28215,2,0,B|376:336|304:360,1,144,4|0
256,296,28767,1,8
208,360,28951,2,0,B|136:336|120:256,1,144,4|0
192,224,29503,2,0,B|228:184|284:184|320:224,1,144,8|4
400,88,30239,6,0,B|336:48|256:72,1,144,8|0
192,112,30791,1,0
184,192,30975,2,0,B|136:248|48:232,1,144,8|0
184,320,31711,2,0,B|152:336|104:328,2,72,8|0|0
256,288,32264,1,0
328,320,32448,2,0,B|360:336|408:328,2,72,8|0|0
256,176,33184,5,8
360,56,33552,2,0,B|400:48|432:72,2,72,0|0|8
296,104,34104,1,0
256,176,34288,2,0,B|176:204|112:148,1,144,0|12
296,104,35024,2,0,B|376:76|440:132,1,144,0|12
344,256,35761,5,4
192,288,36129,2,0,B|112:280|80:208,1,144,8|0
48,136,36681,2,0,B|40:96|8:72,2,72,0|8|0
128,144,37233,2,0,B|192:96|272:112,2,144,0|8|0
80,208,38153,2,0,B|48:232|8:232,2,72,0|8|0
128,144,38705,6,0,B|168:168|176:240|128:272,2,144,0|8|0
56,104,39626,2,0,B|80:64|132:60,1,72,0|8
184,88,39994,2,0,B|256:88|256:88|276:52|312:44,1,144,4|0
325,122,40546,1,8
312,200,40730,2,0,B|276:192|256:156|256:156|184:156,1,144,4|0
112,124,41282,2,0,B|96:180|136:216|136:216|120:256,1,144,8|4
256,336,42018,5,8
408,280,42386,2,0,B|448:296|504:272,2,72,0|0|8
444,208,42938,2,0,B|408:136|320:112,1,144,4|0
264,144,43491,2,0,B|232:120|192:120,1,72,8|6
208,200,43859,2,0,B|168:200|136:224,1,72,0|2
196,280,44227,2,0,B|172:312|172:352,2,72,10|0|4
384,344,44963,6,0,B|444:360|488:320,2,107.999996781349,0|8|0
352,280,45883,2,0,B|292:264|248:304,1,107.999996781349
208,360,46435,1,2
112,264,46803,1,10
112,120,47172,1,2
208,24,47540,6,0,B|272:120|400:104,1,215.999993562699,2|8
504,192,48644,1,0
504,192,48828,2,0,B|464:232|480:304,1,107.999996781349
448,360,49380,1,2
328,288,49748,1,10
184,288,50116,1,2
64,360,50484,6,0,B|112:320|104:256,1,107.999996781349,6|0
104,192,51037,1,0
104,192,51221,2,0,B|168:176|216:216,1,107.999996781349,8|0
240,272,51773,2,0,B|304:288|352:248,1,107.999996781349,0|0
384,192,52325,1,2
256,136,52693,1,10
128,192,53061,1,10
176,128,53245,6,0,B|136:64|48:72,1,144,4|0
4,136,53797,2,0,B|44:200|132:192,1,144,8|0
208,192,54349,1,0
280,232,54534,1,8
360,216,54718,2,0,B|416:272|392:348,1,144,4|0
312,364,55270,2,0,B|256:308|280:232,1,144,8|0
304,160,55822,1,0
304,160,56006,2,0,B|316:124|296:88,1,72,8|4
144,40,56558,5,0
80,88,56742,1,8
144,136,56926,2,0,B|108:176|52:176|16:136,2,144,4|8|12
184,288,58030,1,12
256,328,58215,1,12
328,288,58399,1,12
256,144,58767,2,0,B|256:224,1,72,0|8
192,72,59319,6,0,B|224:36|288:36|320:72,1,144,4|8
408,200,60055,2,0,B|424:232|464:248,2,72,0|0|8
384,128,60607,2,0,B|356:136|332:160|332:200|332:200|296:232,1,144
256,304,61159,1,10
216,232,61343,2,0,B|180:200|180:200|180:160|156:136|128:128,1,144,2|0
104,200,61895,2,0,B|104:240|136:264,1,72,8|0
256,160,62448,5,0
256,160,62632,2,0,B|292:144|328:160|328:160|364:176|400:160,2,144,8|0|8
248,80,63552,2,0,B|212:40|156:40|120:80,1,144,2|2
184,128,64104,2,0,B|148:168|92:168|56:128,1,144,10|2
32,56,64656,2,0,B|-4:64|-20:112,1,72,2|8
0,184,65024,6,0,B|56:232|32:328,1,144,4|0
34,316,65576,1,8
160,216,65945,2,0,B|124:204|112:168,2,72,0|0|8
188,140,66497,2,0,B|260:104|344:148,1,144
352,216,67049,2,0,B|388:204|400:168,1,72,10|2
256,240,67601,2,0,B|220:252|208:288,1,72,0|8
280,312,67969,6,0,B|336:368|424:336,1,144
488,312,68521,1,8
448,160,68889,2,0,B|476:132|512:132,2,72,0|0|8
392,216,69442,2,0,B|320:192|304:112,1,144,4|0
256,48,69994,1,8
208,112,70178,2,0,B|192:192|120:216,1,144,4|0
48,240,70730,1,8
104,296,70914,6,0,B|176:296|240:352,1,144,4|0
235,347,71466,1,8
384,296,71834,2,0,B|416:328|424:368,2,72,0|0|8
320,248,72386,2,0,B|264:192|280:116,1,144
304,40,72938,1,10
304,40,73122,1,2
356,100,73307,2,0,B|388:116|432:112,2,72,0|0|8
280,116,73859,6,0,B|200:88|136:128,1,144
192,184,74411,2,0,B|128:216|104:296,2,144,8|0|8
216,264,75331,1,2
360,192,75699,1,2
360,192,75883,2,0,B|408:128|384:48,1,144,10|2
312,80,76435,2,0,B|280:104|232:96,1,72,2|8
176,56,76803,6,0,B|96:64|56:128,1,144,4|0
48,208,77356,1,8
88,280,77540,2,0,B|80:316|48:336,2,72
48,208,78092,1,8
128,208,78276,2,0,B|208:192|264:264,1,144
312,312,78828,1,10
392,320,79012,2,0,B|432:320|464:296,2,72,2|0|0
312,312,79564,1,8
360,248,79748,6,0,B|448:248|488:168,1,144
480,182,80300,1,8
344,104,80669,2,0,B|372:72|364:24,2,72,0|0|8
288,48,81221,2,0,B|240:104|256:184,1,144,4|0
336,192,81773,2,0,B|336:232|312:264,1,72,8|4
176,192,82325,2,0,B|176:232|200:264,1,72,0|8
192,336,82693,6,0,B|224:372|288:372|320:336,1,144,4|0
384,280,83245,2,0,B|352:244|288:244|256:280,1,144,8|0
192,336,83797,2,0,B|156:352|120:336,2,72,2|10|6
272,128,84534,5,0
208,88,84718,2,0,B|176:64|136:72,2,72,8|0|0
272,128,85270,2,0,B|312:144|344:132|344:132|376:144|416:128,1,144,4|4
256,192,85822,12,4,87294
256,192,99073,5,6
152,112,100546,5,2
256,56,100822,1,2
360,112,101098,1,2
256,328,102018,1,2
256,328,103491,6,0,B|320:288|312:192,1,144,0|2
256,56,104227,2,0,B|192:96|200:192,1,144,0|2
408,96,104963,5,6
472,240,105331,1,8
336,312,105699,2,0,B|304:328|280:360,2,72,0|0|8
192,240,106435,2,0,B|120:232|80:152,1,144,0|8
200,48,107172,1,0
256,104,107356,1,0
336,104,107540,1,8
480,40,107908,6,0,B|432:88|448:176,1,144,0|8
416,328,108644,2,0,B|456:344|504:320,2,72,0|0|8
352,288,109196,2,0,B|344:232|304:208|304:208|304:160,1,144,4|0
256,96,109748,1,8
208,160,109932,2,0,B|208:208|208:208|168:232|160:288,1,144,4|0
192,360,110484,2,0,B|224:324|288:324|320:360,1,144,8|4
256,216,111221,5,8
256,56,111589,1,0
256,56,111773,2,0,B|256:144,1,72,0|8
256,216,112141,2,0,B|312:272|400:248,1,144,4|0
464,232,112693,2,0,B|488:200|488:160,1,72,8|6
408,176,113061,2,0,B|408:136|384:104,1,72,0|2
328,164,113429,2,0,B|296:140|256:140,2,72,10|0|4
160,248,114165,6,0,B|104:272|56:248,2,107.999996781349,0|8|0
204,192,115086,2,0,B|260:168|308:192,1,107.999996781349
352,248,115638,1,2
488,216,116006,1,10
448,80,116374,1,2
312,112,116742,6,0,B|260:132|204:112|204:112|148:132|96:112,1,215.999993562699,2|8
48,240,117846,1,0
48,240,118030,2,0,B|76:232|104:240|104:240|132:248|160:240,1,107.999996781349,0|0
224,216,118583,1,2
360,248,118951,1,10
264,352,119319,1,2
224,216,119687,6,0,B|224:152|176:104,1,107.999996781349,6|0
144,64,120239,1,0
144,64,120423,2,0,B|104:96|44:96,1,107.999996781349,8|0
44,168,120975,2,0,B|104:168|144:200,1,107.999996781349,0|0
184,256,121527,1,2
256,376,121895,1,10
328,256,122264,1,10
256,216,122448,6,0,B|272:176|256:144|256:144|240:112|256:72,1,144,4|0
324,40,123000,2,0,B|332:76|320:108|320:108|336:140|336:180,1,144,8|0
408,152,123552,2,0,B|416:192|400:224,1,72,0|8
328,256,123920,2,0,B|300:300|244:312|200:276,1,144,4|0
184,200,124472,2,0,B|156:156|100:144|56:180,1,144,8|0
112,240,125024,2,0,B|96:272|96:312,1,72,0|8
168,336,125392,6,0,B|212:272|184:200,1,144,4|0
256,168,125945,1,8
328,200,126129,2,0,B|299:272|343:336,2,144,4|8|12
292,48,127233,2,0,B|248:36|212:52,2,72,12|12|12
256,200,127969,2,0,B|256:112,1,72,0|8
320,272,128521,6,0,B|288:308|224:308|192:272,1,144,4|8
136,120,129257,2,0,B|160:80|144:32,2,72,0|0|8
72,72,129810,2,0,B|44:120|72:168|72:168|40:200,1,144
19,275,130362,1,10
96,256,130546,2,0,B|126:225|126:225|174:253|222:225,1,144,2|0
176,160,131098,2,0,B|208:136|256:152,1,72,8|0
240,304,131650,5,0
240,304,131834,2,0,B|320:316|376:272,2,144,8|0|8
192,240,132754,2,0,B|112:228|56:272,1,144,2|2
104,336,133307,2,0,B|184:348|240:304,1,144,10|2
192,240,133859,2,0,B|168:208|168:168,1,72,2|8
136,104,134227,6,0,B|188:84|244:116|244:176,1,144,4|0
240,248,134779,1,8
368,152,135147,2,0,B|376:112|408:80,2,72,0|0|8
312,208,135699,2,0,B|336:260|308:316|256:328,1,144
240,248,136251,2,0,B|220:208|240:168,1,72,10|2
288,32,136803,2,0,B|308:72|288:112,1,72,0|8
216,72,137172,6,0,B|136:80|104:152,1,144
104,151,137724,1,8
8,280,138092,2,0,B|24:312|64:320,2,72,0|0|8
76,244,138644,2,0,B|160:232|224:288,1,144,4|0
256,344,139196,1,8
288,272,139380,2,0,B|336:208|304:128,1,144,4|0
280,64,139932,1,8
280,64,140116,6,0,B|360:48|416:112,1,144,4|0
410,106,140669,1,8
440,264,141037,2,0,B|472:280|512:280,2,72,0|0|8
376,216,141589,2,0,B|344:288|256:296,1,144
184,296,142141,1,10
184,296,142325,1,2
136,232,142509,2,0,B|104:208|64:208,2,72,0|0|8
184,296,143061,6,0,B|256:328|328:296,1,144,0|0
368,232,143613,2,0,B|440:200|512:232,2,144,8|0|8
400,304,144534,1,2
272,208,144902,1,2
272,208,145086,2,0,B|208:160|232:80,1,144,10|2
304,120,145638,2,0,B|344:128|376:96,1,72,2|8
408,32,146006,6,0,B|472:80|448:160,1,144,4|0
408,232,146558,1,8
336,272,146742,2,0,B|296:280|272:320,2,72
408,232,147294,1,8
336,192,147478,2,0,B|280:144|200:160,1,144
128,184,148030,1,10
92,256,148215,2,0,B|128:272|164:256,2,72,2|0|0
128,184,148767,1,8
112,104,148951,6,0,B|160:40|248:48,1,144
237,47,149503,1,8
392,96,149871,2,0,B|416:64|416:24,2,72,0|0|8
336,152,150423,2,0,B|320:192|320:192|348:240|320:288,1,144,4|0
256,240,150975,1,8
192,288,151159,2,0,B|164:240|192:192|192:192|176:152,1,144,4|0
220,88,151711,2,0,B|260:72|304:96,1,72,8|4
256,240,152264,5,0
192,288,152448,2,0,B|112:312|56:256,1,144,8|0
24,192,153000,1,2
24,192,153184,1,10
24,192,153368,1,6
160,112,153736,5,0
232,80,153920,2,0,B|256:48|248:8,2,72,8|0|0
160,112,154472,2,0,B|120:180|160:248,1,144,4|4
176,112,166251,5,2
176,112,166435,1,8
176,112,166619,2,0,B|184:192|256:232,1,144,6|0
328,256,167172,1,8
408,120,167540,2,0,B|416:80|440:56,2,72,0|0|8
448,192,168092,2,0,B|412:256|328:256,1,144
256,216,168644,1,10
184,256,168828,2,0,B|100:256|64:192,1,144,2|0
56,112,169380,2,0,B|40:80|8:56,1,72,8|2
160,96,169932,5,2
160,96,170116,2,0,B|216:144|304:144,1,144,10|2
376,144,170669,2,0,B|416:144|448:168,2,72,2|8|6
256,248,171405,2,0,B|252:268|256:284|256:284|260:304|256:320,2,72,2|8|6
136,144,172141,2,0,B|96:144|64:168,2,72,2|8|6
440,304,173061,5,8
440,304,173245,2,0,B|360:304|320:232,1,144,0|2
320,160,173797,2,0,B|320:120|336:88,1,72,8|2
192,160,174349,2,0,B|192:120|176:88,1,72,2|8
104,120,174718,2,0,B|104:200|8:240,1,144,2|2
48,304,175270,1,8
128,288,175454,6,0,B|208:272|256:336,1,144,2|2
304,272,176006,2,0,B|352:208|432:224,1,144,10|0
472,152,176558,2,0,B|472:112|496:80,2,72,0|8|4
392,136,177110,2,0,B|368:104|368:64,1,72,0|2
320,168,177478,2,0,B|284:156|264:120,1,72,8|6
288,240,177846,2,0,B|248:240|216:216,2,72,0|2|8
296,320,178399,6,0,B|216:320|160:272,1,144,6|0
120,208,178951,2,0,B|108:172|116:136|116:136|108:100|120:64,2,144,8|2|8
256,192,180055,12,4,181527
416,120,182080,5,0
416,120,182264,2,0,B|376:80|320:80,1,107.999996781349,8|0
264,128,182816,2,0,B|208:128|168:168,1,107.999996781349
184,240,183368,1,2
328,240,183736,1,10
184,240,184104,1,2
328,240,184472,6,0,B|448:184|408:48,1,215.999993562699,2|8
280,104,185576,2,0,B|232:128,1,53.9999983906746
128,224,186129,2,0,B|80:248,1,53.9999983906746,0|2
208,304,186681,1,10
80,248,187049,1,2
208,304,187417,6,0,B|280:248|384:272,1,161.999995172024,4|0
432,288,188153,2,0,B|472:248|472:176,1,107.999996781349,8|0
408,152,188705,2,0,B|368:112|368:40,1,107.999996781349
296,72,189257,1,2
216,184,189626,1,10
296,296,189994,1,10
216,312,190178,6,0,B|136:320|88:256,1,144,4|0
89,258,190730,1,8
136,104,191098,2,0,B|144:64|120:32,2,72,0|0|8
60,84,191650,2,0,B|48:140|92:192|152:180,1,144,4|0
137,181,192202,1,8
288,128,192570,2,0,B|328:104|384:128,2,72,0|0|8
332,196,193122,6,0,B|360:264|332:336,1,144,4|0
256,304,193675,1,8
180,336,193859,2,0,B|152:264|180:196,2,144,4|8|12
256,192,194963,1,12
256,112,195147,1,12
256,32,195331,1,12
256,32,201957,6,0,B|224:104|136:112,1,144,4|0
64,120,202509,1,8
192,216,202877,1,8
48,280,203245,1,8
100,204,203429,6,0,B|140:232|156:292|116:344,1,144,4|0
192,352,203981,1,8
328,272,204349,1,8
192,192,204718,1,8
236,272,204902,6,0,B|276:252|304:188|264:136,1,144,4|8
208,96,205454,2,0,B|168:96|128:72,1,72,8|0
72,40,205822,2,0,B|52:40|32:44,2,36,8|0|0
72,120,206190,1,8
136,168,206374,2,0,B|144:240|208:288,1,144,4|0
280,320,206926,2,0,B|320:320|352:344,1,72,8|4
280,200,207478,2,0,B|240:200|208:176,1,72,0|8
136,168,207846,6,0,B|64:192|40:272,1,144,4|0
88,336,208399,2,0,B|140:276|216:280,1,144,8|0
288,320,208951,1,0
328,248,209135,1,8
256,208,209319,2,0,B|216:136|256:72,1,144
328,40,209871,1,10
328,40,210055,1,2
400,80,210239,2,0,B|432:104|472:96,2,72,0|0|8
328,120,210791,6,0,B|336:192|408:232,1,144
360,296,211343,2,0,B|304:252|224:264,2,144,8|0|8
424,336,212264,1,2
476,184,212632,1,2
476,184,212816,1,10
328,120,213184,1,2
328,120,213368,2,0,B|288:128|248:104,1,72,2|8
192,72,213736,6,0,B|120:56|56:104,1,144,4|0
24,176,214288,1,8
72,240,214472,2,0,B|104:256|120:296,2,72
24,176,215024,1,8
104,168,215208,2,0,B|184:160|240:224,1,144
272,288,215761,1,10
352,304,215945,2,0,B|392:320|440:296,2,72,2|0|0
272,288,216497,1,8
324,228,216681,6,0,B|376:168|352:80,1,144
355,93,217233,1,8
464,208,217601,2,0,B|472:248|440:284,2,72,0|0|8
384,224,218153,2,0,B|344:252|340:304|340:304|296:328,1,144,4|0
256,256,218705,1,8
216,328,218889,2,0,B|172:304|172:304|168:252|128:224,1,144,4|0
176,160,219442,2,0,B|192:128|192:88,1,72,8|4
336,160,219994,6,0,B|320:128|320:88,1,72,0|8
396,108,220362,2,0,B|432:100,2,36,0|8|0
336,160,220730,1,4
256,184,220914,1,12
176,160,221098,1,4
256,296,221466,6,0,B|240:336|264:392,1,72,0|8
328,332,221834,2,0,B|348:368|388:376,1,72
400,296,222202,2,0,B|448:232|416:152,1,144,4|4
256,192,222754,12,4,224227
216,144,224595,6,0,B|192:112|160:96,1,72,8|0
80,88,224963,2,0,B|40:88|8:64,2,72,2|2|8
112,160,225515,2,0,B|80:240|144:304,1,144
208,256,226067,2,0,B|264:312|352:288,2,144,10|2|10
256,104,227172,5,0
360,224,227540,1,8
208,168,227908,2,0,B|168:168|136:152,2,72,2|2|8
256,104,228460,2,0,B|312:48|408:64,1,144,4|0
360,136,229012,2,0,B|288:152|264:240,2,144,10|2|10
352,296,230116,6,0,B|296:352|216:336,1,144,4|8
88,256,230853,2,0,B|72:288|32:312,2,72,2|2|8
48,192,231405,2,0,B|96:128|192:136,1,144,4|0
256,136,231957,1,10
408,192,232325,1,2
256,240,232693,1,10
104,192,233061,6,0,B|80:104|144:40,2,144,4|8|0
168,240,233981,1,0
128,312,234165,1,0
192,360,234349,2,0,B|244:344|300:360|300:360|356:344|408:360,2,216,0|8|4
64,264,235822,1,4
256,192,236006,12,0,238675
